#VERSION:0.83;
#TITLE:We Come Together;
#SUBTITLE:;
#ARTIST:Goldfish;
#TITLETRANSLIT:;
#SUBTITLETRANSLIT:;
#ARTISTTRANSLIT:;
#GENRE:;
#ORIGIN:;
#CREDIT:;
#BANNER:we-bn.png;
#BACKGROUND:we-bg.png;
#PREVIEWVID:;
#JACKET:;
#CDIMAGE:;
#DISCIMAGE:;
#LYRICSPATH:;
#CDTITLE:;
#MUSIC:we.ogg;
#OFFSET:0.010000;
#SAMPLESTART:46.070000;
#SAMPLELENGTH:12.000000;
#SELECTABLE:YES;
#BPMS:0.000=125.000,
204.000=67.500,
205.667=33.750,
207.000=125.000;
#STOPS:;
#DELAYS:;
#WARPS:;
#TIMESIGNATURES:0.000=4=4;
#TICKCOUNTS:0.000=4;
#COMBOS:0.000=1;
#SPEEDS:0.000=1.000=0.000=0;
#SCROLLS:0.000=1.000;
#FAKES:;
#LABELS:0.000=Song Start;
#BGCHANGES:;
#KEYSOUNDS:;
#ATTACKS:
;

//---------------dance-single - ----------------
#NOTEDATA:;
#CHARTNAME:;
#STEPSTYPE:dance-single;
#DESCRIPTION:;
#CHARTSTYLE:Pad;
#DIFFICULTY:Beginner;
#METER:2;
#RADARVALUES:0.135614,0.150586,0.016802,0.008401,0.000000,113.000000,111.000000,2.000000,1.000000,0.000000,0.000000,0.000000,0.000000,0.000000,0.135614,0.150586,0.016802,0.008401,0.000000,113.000000,111.000000,2.000000,1.000000,0.000000,0.000000,0.000000,0.000000,0.000000;
#CREDIT:Mozata;
#NOTES:
0000
0000
0000
0000
,
0000
0000
0000
0000
,
0000
0000
0000
0000
,
0000
0000
0000
0000
,
0001
0000
0010
0000
,
0001
0000
0010
0000
,
0100
0000
1000
0000
,
0100
0000
1000
0000
,
0001
0000
0001
0000
,
0001
0000
0010
0010
,
0010
0000
1000
0000
,
1000
0000
0100
0100
,
0100
0000
1000
0000
,
0001
0000
0010
0010
,
0010
0000
0001
0000
,
1000
0000
0010
0000
,
0100
0000
0010
0000
,
1000
0000
0001
0000
,
0100
0000
0010
0000
,
1000
0000
0001
0001
,
0001
0000
0010
0000
,
0100
0000
1000
1000
,
1000
0000
0100
0000
,
0020
0000
0000
0030
,
0010
0010
0000
0000
,
0100
0100
0000
0000
,
0001
0001
0001
0000
,
0010
0000
1000
0000
,
0100
0000
0010
0000
,
0001
0000
0010
0000
,
0100
0000
1000
0000
,
0000
0001
0001
0001
,
0001
0000
0010
0000
,
1000
0000
0100
0000
,
1000
0000
0010
0000
,
0001
0000
0100
0000
,
1000
0000
0000
0000
,
0100
0000
0010
0000
,
0110
0000
0000
0000
,
1000
0000
0001
0000
,
1001
0000
0000
0000
,
0100
0000
0000
0000
,
1000
0000
0000
0000
,
0100
0000
0000
0000
,
0000
0010
0000
0010
,
0000
0010
0000
0010
,
0000
0010
0000
0010
,
0000
0010
0000
0010
,
0000
0010
0000
0010
,
0000
0010
0000
0010
,
0000
0010
0000
0010
,
0000
0000
0000
0010
,
0000
1000
0000
0001
,
0000
1000
0000
0100
,
0000
1000
0000
0001
,
0000
1000
0000
0010
,
0000
0001
0000
1000
,
0000
0001
0000
0100
,
0000
0001
0000
1000
,
0000
0001
0000
0100
;

//---------------dance-single - ----------------
#NOTEDATA:;
#CHARTNAME:;
#STEPSTYPE:dance-single;
#DESCRIPTION:;
#CHARTSTYLE:Pad;
#DIFFICULTY:Easy;
#METER:4;
#RADARVALUES:0.259227,0.376465,0.193220,0.100811,0.000000,216.000000,193.000000,23.000000,12.000000,0.000000,0.000000,0.000000,0.000000,0.000000,0.259227,0.376465,0.193220,0.100811,0.000000,216.000000,193.000000,23.000000,12.000000,0.000000,0.000000,0.000000,0.000000,0.000000;
#CREDIT:Mozata;
#NOTES:
0000
0010
0000
0010
,
0000
0010
0000
0010
,
0000
0010
0000
0010
,
0000
0010
0001
0010
,
1001
1000
0001
0010
,
0100
1000
0001
0000
,
0210
0000
0302
0000
,
0023
0000
0230
0000
,
1300
0000
0000
1000
0001
0000
0000
0001
,
0010
0000
0000
0010
0100
0000
0100
0000
,
0100
0000
0000
0010
0001
0000
0000
0001
,
1000
0000
0000
1000
0010
0000
0010
0000
,
0010
0000
0000
0010
1000
0000
0000
1000
,
0100
0000
0000
0100
0010
0000
0010
0000
,
0001
0000
0000
0001
0010
0000
0000
0100
,
1000
0010
0100
0001
,
1001
0000
0000
0000
0100
0000
0000
0010
,
0100
0000
0010
1000
,
0001
0000
0000
0010
0001
0000
0000
1000
,
0001
0000
0000
0100
0002
0000
0013
0000
,
0011
0000
0000
0001
1000
0000
0000
1000
,
0001
0000
0000
0000
0010
0100
0010
0000
,
0110
0000
0000
0100
0001
0000
0000
1000
,
0020
2030
3002
0203
,
0310
0110
1010
1000
,
1001
1100
0110
0010
,
0001
0001
0010
0010
,
0100
0000
0000
0100
0000
0000
2000
0000
0000
0000
3000
0000
,
1000
0001
0100
0001
,
1000
0000
0000
0100
0000
0000
0000
0000
,
0001
1000
0010
1000
,
0001
0010
0010
0010
,
1001
0100
0100
0000
,
1001
0110
1001
0000
,
1000
0010
0001
0010
,
1000
0000
0000
0010
0000
0000
0000
0000
,
0001
0010
0001
1000
,
0010
0000
0000
0100
0000
0000
0000
0000
,
0001
0100
0001
1000
,
0010
1000
0001
0100
,
0010
0000
0000
0000
,
0001
0000
0000
0000
,
1000
0000
0000
0000
,
0200
0000
0300
0000
,
0000
0010
0000
0010
,
0000
0010
0000
0010
,
0000
0010
0000
0010
,
0000
0010
0000
0010
,
0000
0010
0000
0010
,
0000
0010
0000
0010
,
0010
0010
0010
0010
,
0020
0000
0000
1030
,
1010
1001
0001
1001
,
0011
0010
0100
1100
,
1001
1000
0001
0011
,
1001
1000
0001
0010
,
0100
1000
0010
1000
,
0001
0000
0100
0000
0010
0000
0100
0010
,
0100
0000
1000
0000
1000
0000
0001
0100
,
0001
0010
0010
1001
;

//---------------dance-single - ----------------
#NOTEDATA:;
#CHARTNAME:;
#STEPSTYPE:dance-single;
#DESCRIPTION:;
#CHARTSTYLE:Pad;
#DIFFICULTY:Medium;
#METER:8;
#RADARVALUES:0.327635,0.401563,0.310833,0.193220,0.058806,273.000000,236.000000,37.000000,23.000000,0.000000,0.000000,0.000000,0.000000,0.000000,0.327635,0.401563,0.310833,0.193220,0.058806,273.000000,236.000000,37.000000,23.000000,0.000000,0.000000,0.000000,0.000000,0.000000;
#CREDIT:Mozata;
#NOTES:
0000
0010
0000
0010
,
0000
0010
0000
0010
,
0200
0000
0000
0301
0010
0000
0000
0000
,
0100
0100
0000
1000
0000
0000
0000
0000
,
1100
0001
0010
1000
,
0010
0001
1000
0100
0000
0000
1000
0000
,
0002
0000
0000
0000
0000
0000
0003
0000
0000
0000
0000
0001
0200
0000
0000
0000
0000
0000
0300
0000
0000
0000
0000
0100
,
0020
0000
0000
0000
0000
0000
0030
0000
0000
0000
0000
0010
1000
0000
0000
0000
0000
0000
1010
0000
0000
0000
0000
0000
,
0101
0000
0000
0100
0010
0000
0000
1000
,
0010
0000
0000
1000
0010
0100
0001
0100
,
0001
0000
0000
0010
0100
0000
0000
1000
,
0100
0000
0000
0010
0001
1000
0001
0100
,
0002
0000
0003
1000
0100
0000
0000
1000
,
0001
0000
0000
0000
0000
0001
0010
0100
,
1000
0000
0000
0100
0010
0000
0000
1000
,
0001
0100
1000
0010
,
0001
0000
0000
1000
0001
0000
0000
0100
,
0001
0000
0000
0010
0001
0010
0100
1000
,
1000
0000
0000
0010
1000
0000
0000
0001
,
1000
0000
0000
0100
1000
0010
0100
0001
,
0010
0000
0000
0001
1000
0000
0000
0010
,
0100
0000
0000
0000
0000
0100
0010
0100
,
0110
0000
0000
1000
1001
0000
0000
0001
,
0002
0023
0230
1300
,
0101
0110
1010
0001
,
1100
0110
0011
1000
,
1010
0001
0011
1000
,
2000
0000
0000
0000
0000
0000
0000
0000
3000
0200
0000
0000
0000
0000
0000
0000
0000
0000
0301
0000
0000
0000
0000
0000
0000
0000
0000
0000
0000
0000
0001
0000
0000
0000
0000
0000
0000
0000
0000
0100
0000
0000
0000
0000
0000
0000
0000
0000
,
1000
1000
1000
0000
,
2000
0000
0000
3020
0000
0000
0031
0000
0000
0000
0001
0000
0000
0010
0000
0000
,
1000
0001
0100
0000
,
1010
0200
0302
0013
,
0011
0110
1100
0001
,
0101
0110
1010
0100
,
1001
0010
0001
0100
,
0020
0000
0000
2030
0000
0000
3100
0000
0000
0000
0100
0000
0000
1000
0000
0000
,
0010
1000
0001
0000
,
0020
0000
0000
0032
0000
0000
0103
0000
0000
0000
0100
0000
0000
0001
0000
0000
,
0010
0010
0100
0100
,
1000
0001
1000
0001
1000
0001
1000
0000
,
0101
0000
0000
0000
0000
0000
0000
0000
0000
0000
0000
1000
0000
0000
0000
0000
0000
0000
0000
0000
0000
0000
0000
0000
,
1100
0000
0000
0000
0000
0000
0000
0000
0000
0000
0000
0001
0000
0000
0000
0000
0000
0000
0000
0000
0000
0000
0000
0000
,
0010
0000
0000
0000
0000
0000
0000
0000
0000
0000
0000
1000
0000
0000
0000
0000
0000
0000
0000
0000
0000
0000
0000
0000
,
0100
0000
0200
0300
0200
0300
0200
0300
,
0000
0010
0000
0010
,
0000
0010
0000
0010
,
0000
0010
0000
0010
,
0000
0010
0000
0010
,
0110
0110
0100
0001
,
0010
0100
1000
0010
,
0110
0110
1001
0110
,
2002
0000
0000
0000
0000
3003
0000
0000
0000
1010
0000
0000
,
1001
0000
0101
0000
0000
0000
0100
0001
,
0000
0010
0000
0000
0000
0000
0011
0000
,
1001
0000
1100
0000
0000
0000
0100
1000
,
0000
0010
0000
0100
0010
0100
0001
0010
,
0001
0010
0100
0000
0000
0000
1000
0010
,
1000
0010
0100
0000
0000
0000
0001
0010
,
0100
1000
0010
0000
0000
0000
1000
0100
,
0001
0100
1000
0010
1000
0000
0101
0000
;

//---------------dance-single - ----------------
#NOTEDATA:;
#CHARTNAME:;
#STEPSTYPE:dance-single;
#DESCRIPTION:;
#CHARTSTYLE:Pad;
#DIFFICULTY:Hard;
#METER:10;
#RADARVALUES:0.415244,0.451758,0.268828,0.168018,0.138615,346.000000,314.000000,32.000000,20.000000,0.000000,0.000000,0.000000,0.000000,0.000000,0.415244,0.451758,0.268828,0.168018,0.138615,346.000000,314.000000,32.000000,20.000000,0.000000,0.000000,0.000000,0.000000,0.000000;
#CREDIT:Mozata;
#NOTES:
// measure 0
0000
0010
0000
0010
,  // measure 1
0100
0100
0010
1000
1000
0000
0010
0000
,  // measure 2
0100
0000
0001
0000
,  // measure 3
0001
0000
0000
0000
0000
0000
0001
0000
0000
0000
0000
0000
0001
0000
0000
0000
0000
0001
1000
0000
0000
0010
0000
0000
,  // measure 4
1010
1000
0100
0000
0010
0100
0000
0000
,  // measure 5
0011
0001
0100
0000
0010
1000
1000
0001
,  // measure 6
1001
0000
0000
0000
0000
0010
0100
0000
0000
0000
0000
0000
1001
0000
0000
0000
0000
0100
0010
0000
0000
0000
0000
0000
,  // measure 7
1001
0000
0000
0000
0000
0010
1000
0000
0000
0000
0000
1000
0100
0000
0000
0001
0000
0000
0100
0000
0000
1000
0000
0000
,  // measure 8
0002
0000
0000
0013
2000
0000
0000
3100
,  // measure 9
0001
0000
0000
0010
0001
0010
0100
1000
,  // measure 10
0020
0000
0000
0130
0002
0000
0000
0013
,  // measure 11
0100
0000
0000
0000
0100
1000
0001
0100
,  // measure 12
0020
0000
0000
0031
2000
0000
0000
3010
,  // measure 13
0001
0000
1000
0000
0000
0010
1000
0001
,  // measure 14
0020
0000
0000
0130
2000
0000
0000
3010
,  // measure 15
0100
0010
1000
0100
,  // measure 16
0011
0000
0000
0001
0000
0000
0010
0000
0002
0000
0000
0000
0000
0000
1003
0000
,  // measure 17
0100
0000
0000
0100
0010
0100
0010
0000
,  // measure 18
2000
0000
0000
3001
0200
0000
0000
0301
,  // measure 19
0010
0000
0000
0100
1000
0010
1000
0100
,  // measure 20
0020
0000
0000
0031
2000
0000
0000
3001
,  // measure 21
0100
0000
0100
0000
0100
0010
0001
0010
,  // measure 22
0100
1010
0100
0011
,  // measure 23
0100
1010
0011
1010
,  // measure 24
1010
0000
0000
0000
0000
1000
0001
0000
0000
0000
0000
0001
0100
0000
0000
0000
0000
0100
0010
0000
0000
0000
0000
0010
,  // measure 25
1000
0001
0010
0002
0000
0010
0013
0000
,  // measure 26
1001
0000
0000
0000
0000
1000
0010
0000
0000
0000
0000
0010
1000
0000
0000
0000
0000
1000
0001
0000
0000
0000
0000
0001
,  // measure 27
0020
0000
0000
0031
0000
0000
1000
0000
0000
0000
0010
0000
0000
1000
0000
0000
,  // measure 28
0001
0010
0011
0000
1000
0010
1010
0000
,  // measure 29
1000
0000
0000
0100
0000
0000
0001
0000
0000
0000
0010
0000
0000
1000
0000
0000
,  // measure 30
0100
0011
0010
1100
,  // measure 31
0010
0101
1100
0101
,  // measure 32
0010
0000
0000
0000
0000
0010
1000
0000
0000
0000
0000
1000
0100
0000
0000
0000
0000
0100
0010
0000
0000
0000
0000
0010
,  // measure 33
0001
0000
0000
1000
0000
0000
0001
0000
0000
0010
0000
0000
0100
0000
0000
0000
0000
0100
1000
0000
0000
0000
0000
0000
,  // measure 34
1100
0000
0000
0000
0000
1000
0001
0000
0000
0000
0000
0001
0100
0000
0000
0000
0000
0100
0001
0000
0000
0000
0000
0001
,  // measure 35
0020
0000
0000
1030
0000
0000
0010
0000
0000
0000
0001
0000
0000
0100
0000
0000
,  // measure 36
0010
0100
0010
0100
0010
0000
1000
0100
,  // measure 37
0010
0000
0000
0001
0000
0000
0010
0000
0000
0000
0100
0000
0000
1000
0000
0000
,  // measure 38
0100
0000
0100
0010
0100
0000
0000
0000
1000
0000
0001
0000
1000
0000
0000
0000
,  // measure 39
1000
0010
0100
0001
0100
0010
1000
0000
,  // measure 40
0001
0000
1001
0000
0000
0100
1000
1000
,  // measure 41
0100
0000
1001
0000
0000
0100
0001
0001
,  // measure 42
0100
0000
1001
0000
0000
0010
1000
1000
,  // measure 43
0002
0023
0230
1300
,  // measure 44
0000
0010
0000
0010
,  // measure 45
0000
0010
0000
0010
,  // measure 46
0000
0010
0000
0010
,  // measure 47
0000
0010
0000
0010
,  // measure 48
0010
1000
0100
1000
0010
0001
0010
1000
,  // measure 49
0100
0010
0001
0010
1000
0001
0100
1000
,  // measure 50
0010
1000
0100
0010
0001
0010
0100
1000
,  // measure 51
1000
0000
0000
0000
0000
0000
1001
0010
,  // measure 52
1001
0100
1001
0000
0000
0100
0010
1000
,  // measure 53
0100
0010
0000
0010
0001
0100
1010
0100
,  // measure 54
0011
0000
0000
0100
0000
0000
1010
0000
0000
0000
0000
0000
0000
0000
0000
0000
0000
0000
0010
0000
0000
0000
0000
0010
,  // measure 55
1000
0001
1000
0100
0100
0000
0011
0001
,  // measure 56
1000
0100
0010
0000
0000
0000
1000
0010
,  // measure 57
0100
0001
0000
1000
0000
0001
0000
0000
,  // measure 58
1200
0000
0301
0000
0000
0000
0001
0100
,  // measure 59
1000
0010
0000
0010
1000
0100
0001
0000
;
