#VERSION:0.83;
#TITLE:Tricerahops;
#SUBTITLE:;
#ARTIST:Too Many Zooz;
#TITLETRANSLIT:;
#SUBTITLETRANSLIT:;
#ARTISTTRANSLIT:;
#GENRE:;
#ORIGIN:;
#CREDIT:;
#BANNER:zooz-bn.png;
#BACKGROUND:zooz-bg.png;
#PREVIEWVID:;
#JACKET:;
#CDIMAGE:;
#DISCIMAGE:;
#LYRICSPATH:;
#CDTITLE:;
#MUSIC:zooz.ogg;
#OFFSET:0.000000;
#SAMPLESTART:12.000000;
#SAMPLELENGTH:12.000000;
#SELECTABLE:YES;
#BPMS:0.000=150.000,
30.000=300.000,
31.000=250.000,
31.500=200.000,
33.000=150.000,
97.000=75.000,
113.000=150.000,
145.000=300.000,
206.000=75.000,
206.250=150.000,
207.000=200.000,
207.500=250.000,
208.000=300.000,
270.000=150.000;
#STOPS:145.000=0.245;
#DELAYS:;
#WARPS:;
#TIMESIGNATURES:0.000=4=4;
#TICKCOUNTS:0.000=4;
#COMBOS:0.000=1;
#SPEEDS:0.000=1.000=0.000=0;
#SCROLLS:0.000=1.000;
#FAKES:;
#LABELS:0.000=Song Start;
#BGCHANGES:;
#KEYSOUNDS:;
#ATTACKS:
;

//---------------dance-single - ----------------
#NOTEDATA:;
#CHARTNAME:;
#STEPSTYPE:dance-single;
#DESCRIPTION:;
#CHARTSTYLE:Pad;
#DIFFICULTY:Hard;
#METER:10;
#RADARVALUES:0.423351,0.871246,0.243705,0.292446,0.126727,304.000000,279.000000,25.000000,30.000000,0.000000,0.000000,0.000000,0.000000,0.000000,0.423351,0.871246,0.243705,0.292446,0.126727,304.000000,279.000000,25.000000,30.000000,0.000000,0.000000,0.000000,0.000000,0.000000;
#CREDIT:Mozata;
#NOTES:
0001
0000
0000
0200
0310
0010
1000
0000
,
0000
0000
0000
0000
,
1000
0000
0000
0200
0310
0010
0001
0000
,
0000
0000
0000
0000
,
0010
0000
0000
2000
3100
0100
0010
0000
,
0000
0000
0000
0000
,
0020
0030
0000
0002
0103
0100
0010
0000
,
0000
0000
2010
0000
,
0000
3100
0100
1000
,
0001
0000
0100
0000
0100
0000
0000
0001
,
0100
0010
0010
1000
,
1000
0000
0001
0000
0001
0000
0000
0010
,
0001
1100
1000
0100
,
0100
0000
0010
0000
0010
0000
0000
0001
,
0010
1100
1000
0001
,
0001
0000
0100
0000
0100
0000
0000
0010
,
1000
0000
1010
0000
0010
0100
0000
0001
,
0200
0000
0000
0000
0310
0000
0100
0010
,
0100
0000
1000
0000
0001
0010
0000
0001
,
2000
0000
0000
0000
3100
0000
1000
0100
,
1000
0000
0000
1001
0000
0000
0000
0000
1000
0010
0000
0000
,
0000
0000
0100
0010
0000
0000
0000
0000
1000
0001
0000
0000
,
0000
0000
0100
0001
0000
0000
0000
0000
1000
0100
0000
0000
,
0000
0000
0010
0002
0000
0000
0000
0000
0000
0000
0000
0000
,
0003
0000
0000
0000
0120
0000
0130
0010
0100
0000
0002
0000
0000
1000
1003
0000
,
0001
0000
0010
0000
0200
0000
0310
0100
0010
0000
2000
0000
0000
0001
3001
0000
,
0010
0000
0100
0000
0002
0000
0103
0001
0100
0000
0002
0000
0000
1000
1003
0000
,
0010
0000
0100
0000
2000
0000
3010
1000
0010
0000
0200
0000
0000
0001
0301
0000
,
1000
0001
1000
0000
1100
0000
0000
0000
0000
0000
0001
0000
0000
0000
0100
0000
,
0001
0000
0101
0000
0010
1000
0000
0100
,
1000
0000
1010
0000
0100
0001
0000
0010
,
0001
0000
0011
0000
0100
1000
0000
0010
,
1000
0000
1000
0000
0002
0010
0003
0010
,
0002
0000
0103
0000
0002
0010
0003
0010
,
0002
0000
0000
0000
0103
0000
0010
0100
0010
0000
0100
0001
0100
0000
0001
1000
,
0001
0000
1000
0010
1000
0000
0100
1000
0100
0000
0010
0000
0011
0000
0101
0000
,
0110
1010
0020
0000
,
1030
0010
1000
0000
,
1000
0001
0010
0001
,
0100
0010
2000
0000
,
3100
0000
0010
0001
,
0010
0001
0001
0000
,
1000
0010
1000
0001
,
0010
0100
2000
0000
,
3001
0000
0010
0010
,
0100
0010
0100
0000
,
0001
0100
0010
1000
,
0100
0010
0100
0000
,
0011
0000
0010
0001
,
1000
0010
1000
0000
,
1000
0001
0010
0001
,
0100
0000
2100
0000
,
3100
0000
1000
0010
,
0100
0010
1000
0010
,
0100
0001
0010
0001
,
1000
0001
0022
0000
,
0033
0000
1000
0001
,
0010
0001
1000
0010
,
1000
0001
0100
0001
,
1000
0100
1000
0000
,
0100
0000
0000
0000
0100
0000
0010
0000
0000
0000
0010
0000
,
0001
0000
0000
0000
0001
0000
1000
0000
0000
0000
1000
0000
,
0010
0000
0000
0000
0010
0000
1000
0000
0000
0000
1000
0000
,
0001
0000
0101
0000
,
1001
0000
1100
0000
,
0110
0000
0011
0000
,
0101
0000
1100
0000
,
1020
0000
0000
0000
0130
0000
0000
0002
,
0013
0010
0100
0000
0000
0000
0000
0000
,
0000
0000
0000
0000
0100
0000
0000
2000
,
3010
0010
0100
0000
0000
0000
0000
0000
,
0000
0000
0100
0000
;

//---------------dance-single - ----------------
#NOTEDATA:;
#CHARTNAME:;
#STEPSTYPE:dance-single;
#DESCRIPTION:;
#CHARTSTYLE:Pad;
#DIFFICULTY:Medium;
#METER:7;
#RADARVALUES:0.306372,0.487898,0.165719,0.224209,0.000000,220.000000,203.000000,17.000000,23.000000,0.000000,0.000000,0.000000,0.000000,0.000000,0.306372,0.487898,0.165719,0.224209,0.000000,220.000000,203.000000,17.000000,23.000000,0.000000,0.000000,0.000000,0.000000,0.000000;
#CREDIT:Mozata;
#NOTES:
0010
0000
0000
1000
0000
0000
0100
0000
,
0000
0000
0000
0000
,
0010
0000
0000
0001
0000
0000
0100
0000
,
0000
0000
0000
0000
,
0100
0000
0000
0001
0000
0000
0010
0000
,
0000
0000
0000
0000
,
0100
0000
0000
1000
0000
0000
0010
0000
,
0000
0000
0020
0000
,
0000
0130
0010
0100
,
0010
1000
0001
1000
,
0001
0100
0010
0100
,
0010
0000
1000
0000
0001
0000
0000
1000
,
0001
0010
0001
0010
,
0001
1000
0100
1000
,
0100
1000
0010
1000
,
0010
0000
0100
0000
0001
0000
0000
0100
,
0001
0000
1010
0000
0000
1000
0000
0100
,
0010
0000
0001
0001
,
0001
0000
0011
0000
0000
0100
0000
1000
,
0100
0000
0100
0100
,
0100
0120
0000
0032
,
0000
0203
0000
0320
,
0000
2030
0000
3002
,
0000
0023
0000
0230
,
0000
0000
1300
0000
0010
1000
0000
0001
,
0010
0100
1000
0000
0010
1000
0000
0100
,
0010
0001
1000
0000
0010
0100
0000
0100
,
0001
0010
0100
0000
1000
0010
0000
0010
,
0010
0010
1001
0000
1000
0000
1000
0000
,
1000
1001
0001
0001
,
0001
0011
0010
0010
,
0010
1100
0100
0100
,
0100
1000
0010
1000
,
0001
0100
0001
0010
,
0100
1000
0010
0100
,
0010
0000
0100
0000
0001
0000
0010
0001
,
1000
0020
0130
0000
,
0101
0000
1100
0000
,
1000
0000
1100
0000
,
0101
0000
0002
0000
,
0013
0000
1010
0000
,
0011
0000
0001
0000
,
0011
0000
1010
0000
,
1000
0000
0200
0000
,
0310
0000
0010
0000
,
0100
0010
0100
0000
,
0010
0100
0010
0100
,
0010
0100
0020
0000
,
0130
0000
1001
0000
,
0001
1000
0001
0000
,
1000
0001
1000
0001
,
1000
0000
0200
0000
,
0300
0000
0010
1000
,
0010
0000
1000
0010
,
1000
0000
0010
0000
,
0001
0000
0220
0000
,
0330
0000
1000
0100
,
1000
0000
0001
0100
,
0001
0000
0010
0000
,
0010
0000
0100
0000
,
2000
0000
3200
0000
,
0302
0000
0203
0000
,
2300
0000
3020
0000
,
0230
0000
0301
0000
,
0010
0000
0001
0000
,
0100
0000
0001
0000
,
1000
0000
0010
0000
,
1000
0000
0000
0000
0100
0000
0000
1000
,
0000
0010
0000
0000
,
0000
0000
0000
0000
0100
0000
0000
0001
,
0000
0010
0000
0000
,
0000
0000
0100
0000
;

//---------------dance-single - ----------------
#NOTEDATA:;
#CHARTNAME:;
#STEPSTYPE:dance-single;
#DESCRIPTION:;
#CHARTSTYLE:Pad;
#DIFFICULTY:Easy;
#METER:5;
#RADARVALUES:0.222816,0.348498,0.136475,0.116978,0.000000,160.000000,146.000000,14.000000,12.000000,0.000000,0.000000,0.000000,0.000000,0.000000,0.222816,0.348498,0.136475,0.116978,0.000000,160.000000,146.000000,14.000000,12.000000,0.000000,0.000000,0.000000,0.000000,0.000000;
#CREDIT:Mozata;
#NOTES:
0010
0000
0000
0010
0000
0000
0010
0000
,
0000
0000
0000
0000
,
0010
0000
0000
0010
0000
0000
0010
0000
,
0000
0000
0000
0000
,
0100
0000
0000
0100
0000
0000
0100
0000
,
0000
0000
0000
0000
,
0100
0000
0000
1000
0000
0000
0100
0000
,
0000
0000
2000
0000
,
0000
3000
0001
0000
,
0010
0000
0001
0001
,
0001
0000
0010
0000
,
0100
0000
1000
0100
,
1000
0000
0010
0000
,
0100
0000
0010
0100
,
0010
0000
1000
0000
,
0001
0000
0010
0100
,
1000
0000
0010
0000
,
0010
0000
1000
0010
,
0100
0000
0001
0000
,
0001
0000
0001
1000
,
0010
0000
0100
0000
,
0100
0000
0100
0010
,
0100
0000
0100
0000
,
0100
0000
0010
1000
,
0010
0000
2000
0000
0000
0000
0000
3001
,
0001
0000
0210
0000
0000
0000
0000
0310
,
0010
0000
0002
0000
0000
0000
0000
0013
,
0001
0000
0200
0000
0000
0000
0000
0310
,
0100
1001
0000
1000
,
1000
1001
0000
1000
,
1000
1001
0000
0010
,
1000
1001
0000
0100
,
1000
1001
0020
0030
,
0200
0300
0002
0003
,
0100
0020
0000
2000
,
0000
0000
0000
0000
,
3030
1010
0000
0000
,
1000
0000
0010
0000
,
1000
0000
0010
0000
,
1000
0000
0010
0000
,
1001
0000
0001
0000
,
0010
0000
0001
0000
,
0010
0000
0001
0000
,
0010
0000
0100
0000
,
1001
0000
0010
0000
,
0100
0000
0010
0000
,
1000
0000
0010
0000
,
1000
0000
0010
0000
,
0000
0000
0010
0000
,
0010
0000
0100
0000
,
0010
0000
0100
0000
,
0001
0000
0002
0000
,
0003
0000
0001
0000
,
1000
0000
0001
0000
,
0001
0000
1000
0000
,
0001
0000
2000
0000
,
3000
0000
0010
0000
,
0100
0000
0010
0000
,
0010
0000
0100
0000
,
0010
0000
0100
0000
,
0000
0000
1001
0000
,
0000
0000
0110
0000
,
0000
0000
1001
0000
,
0000
0000
0110
0000
,
0110
0000
0100
0000
,
0001
0000
1000
0000
,
0010
0000
0100
0000
,
0001
0000
0000
0000
1000
0000
0000
1000
,
0000
1000
0000
0000
,
0000
0000
0000
0000
0001
0000
0000
0001
,
0000
0001
0000
0000
,
0000
0000
1000
0000
;

//---------------dance-single - ----------------
#NOTEDATA:;
#CHARTNAME:;
#STEPSTYPE:dance-single;
#DESCRIPTION:;
#CHARTSTYLE:;
#DIFFICULTY:Beginner;
#METER:4;
#RADARVALUES:0.147616,0.278799,0.019496,0.029245,0.000000,106.000000,104.000000,2.000000,3.000000,0.000000,0.000000,0.000000,0.000000,0.000000,0.147616,0.278799,0.019496,0.029245,0.000000,106.000000,104.000000,2.000000,3.000000,0.000000,0.000000,0.000000,0.000000,0.000000;
#CREDIT:;
#NOTES:
// measure 0
0000
0000
0000
0000
,  // measure 1
0000
0000
0000
0000
,  // measure 2
0000
0000
0000
0000
,  // measure 3
0000
0000
0000
0000
,  // measure 4
0000
0000
0000
0000
,  // measure 5
0000
0000
0000
0000
,  // measure 6
0000
0000
0000
0000
,  // measure 7
0000
0000
0020
0000
,  // measure 8
0000
0030
0000
0010
,  // measure 9
0000
0010
0000
0010
,  // measure 10
0000
0100
0000
0100
,  // measure 11
0000
0100
0000
0100
,  // measure 12
0000
0001
0000
0001
,  // measure 13
0000
0001
0000
0001
,  // measure 14
0000
1000
0000
1000
,  // measure 15
0000
1000
0000
1000
,  // measure 16
0000
0010
0000
0010
,  // measure 17
0000
1000
0000
0000
,  // measure 18
0000
0001
0000
0001
,  // measure 19
0000
0100
0000
0000
,  // measure 20
0000
0010
0000
0010
,  // measure 21
0000
0100
0000
0100
,  // measure 22
0000
0010
0000
0100
,  // measure 23
0000
0010
0000
0000
,  // measure 24
0000
1001
0000
0010
,  // measure 25
0010
0010
0000
0100
,  // measure 26
0100
0100
0000
0001
,  // measure 27
0000
1000
0000
1000
,  // measure 28
0000
0001
0000
0001
,  // measure 29
0001
0001
0000
1000
,  // measure 30
1000
1000
0000
0001
,  // measure 31
0001
0001
0000
1000
,  // measure 32
1000
1000
0000
0010
,  // measure 33
0000
1000
0000
0010
,  // measure 34
0000
0001
0000
0010
,  // measure 35
0000
0001
0000
0010
,  // measure 36
0000
1001
0000
0000
,  // measure 37
1000
0000
0000
0000
,  // measure 38
1000
0000
1000
0000
,  // measure 39
1000
0000
0000
0000
,  // measure 40
0010
0000
0000
0000
,  // measure 41
0001
0000
0000
0000
,  // measure 42
0001
0000
0001
0000
,  // measure 43
0001
0000
0000
0000
,  // measure 44
0010
0000
0000
0000
,  // measure 45
0100
0000
0000
0000
,  // measure 46
0100
0000
0100
0000
,  // measure 47
0100
0000
0000
0000
,  // measure 48
1000
0000
0000
0000
,  // measure 49
0001
0000
0000
0000
,  // measure 50
0100
0000
0100
0000
,  // measure 51
0100
0000
0200
0000
,  // measure 52
0300
0000
0000
0000
,  // measure 53
0010
0000
0000
0000
,  // measure 54
0010
0000
0010
0000
,  // measure 55
0000
0000
0020
0000
,  // measure 56
0030
0000
1000
0000
,  // measure 57
0000
0000
1000
0000
,  // measure 58
0000
0000
1000
0000
,  // measure 59
1000
0000
1000
0000
,  // measure 60
0000
0000
0001
0000
,  // measure 61
0000
0000
0001
0000
,  // measure 62
0000
0000
0001
0000
,  // measure 63
0001
0000
0001
0000
,  // measure 64
0000
0000
0010
0000
,  // measure 65
0000
0000
0100
0000
,  // measure 66
0000
0000
1000
0000
,  // measure 67
0000
0000
0100
0000
,  // measure 68
0100
0000
0100
0000
,  // measure 69
0000
0000
0100
0000
,  // measure 70
0100
0000
0100
0000
,  // measure 71
0000
0000
0001
0000
;
