#VERSION:0.83;
#TITLE:Time To Say Goodbye;
#SUBTITLE:(RWBY Volume 2);
#ARTIST:Jeff Williams;
#TITLETRANSLIT:;
#SUBTITLETRANSLIT:;
#ARTISTTRANSLIT:;
#GENRE:;
#ORIGIN:;
#CREDIT:;
#BANNER:rwby-bn.png;
#BACKGROUND:rwby-bg.png;
#PREVIEWVID:;
#JACKET:;
#CDIMAGE:;
#DISCIMAGE:;
#LYRICSPATH:;
#CDTITLE:;
#MUSIC:rwby.ogg;
#OFFSET:0.000000;
#SAMPLESTART:35.876999;
#SAMPLELENGTH:12.000000;
#SELECTABLE:YES;
#BPMS:0.000=37.000,
1.000=6.500,
1.125=3.100,
1.500=17.000,
1.750=29.000,
2.000=55.000,
3.000=110.000,
5.000=116.000,
7.000=119.000,
11.750=120.000,
13.000=115.000,
15.500=250.250,
86.000=125.250,
86.500=250.250,
151.000=250.000,
365.000=125.000,
365.500=250.000,
429.500=100.000;
#STOPS:86.000=0.125,
365.000=0.125;
#DELAYS:;
#WARPS:;
#TIMESIGNATURES:0.000=4=4;
#TICKCOUNTS:0.000=4;
#COMBOS:0.000=1;
#SPEEDS:0.000=1.000=0.000=0;
#SCROLLS:0.000=1.000;
#FAKES:;
#LABELS:0.000=Song Start;
#BGCHANGES:;
#KEYSOUNDS:;
#ATTACKS:
;

//---------------dance-single - ----------------
#NOTEDATA:;
#CHARTNAME:;
#STEPSTYPE:dance-single;
#DESCRIPTION:;
#CHARTSTYLE:Pad;
#DIFFICULTY:Challenge;
#METER:16;
#RADARVALUES:0.525581,0.948096,0.345832,0.419414,0.206028,500.000000,453.000000,47.000000,57.000000,0.000000,0.000000,0.000000,0.000000,0.000000,0.525581,0.948096,0.345832,0.419414,0.206028,500.000000,453.000000,47.000000,57.000000,0.000000,0.000000,0.000000,0.000000,0.000000;
#CREDIT:Mozata;
#NOTES:
0000
0000
0000
0000
0000
0000
0000
0000
0000
0000
0000
0000
0000
0000
0000
0000
2000
0000
3200
0320
0032
0000
0000
0000
0003
0000
0000
0000
0001
0000
0000
0000
0001
0000
0000
0000
0000
0000
0000
0000
0010
0000
0000
0000
0000
0000
0000
0000
0010
0000
0000
0000
0000
0000
0000
0000
0000
0000
0000
0000
0000
0000
0000
0000
,
0100
0100
1000
1000
,
0100
0000
0000
0000
0001
0000
0000
0000
0100
0000
0000
0000
1000
0000
0000
0020
,
0000
0200
0000
0000
0000
0330
0000
2001
,
0000
0000
0000
3100
,
1000
0000
0010
0000
0100
0001
0000
0021
,
0000
0000
0000
1030
,
0010
0000
0001
0000
1000
0100
0000
0102
,
0000
0000
0000
1003
,
0010
0000
1000
0000
0001
0010
0000
1100
,
0000
1000
0010
0100
0001
0100
0010
1000
,
0100
0010
0001
0010
0100
1000
0000
0201
,
0000
0000
0000
0310
,
1000
0000
0100
0000
1000
0010
0000
0120
,
0000
0000
0000
1030
,
0001
0000
0010
0000
0001
1000
0001
0000
,
2010
3100
0002
0103
,
0020
0000
1030
0000
0200
0000
0310
0110
,
0000
0001
0010
1000
0010
0000
0001
0101
,
0000
0001
0100
1000
0100
0000
0010
1000
,
1010
0000
0000
0011
0000
0000
0011
0000
,
1010
0000
0000
0000
0100
0200
0000
0000
,
0301
0000
0010
0000
0001
0100
0000
0010
,
1000
0000
0100
0000
1000
0010
0000
0200
,
0002
0303
2000
0000
3010
0000
0002
0000
,
0013
0000
2000
3100
0000
0110
0000
0000
,
0000
0000
0011
0110
,
0101
0000
0010
1000
0000
1010
0000
0100
,
0000
0201
0000
0000
0000
0000
0301
0010
,
0001
0000
0010
0000
0001
0010
0001
0000
0000
0000
1001
0000
0000
0000
0010
0000
,
1000
0000
0100
0010
0000
1001
0000
0010
,
0001
0000
0000
0000
0100
0000
0010
0000
0000
0000
1001
0000
0000
0000
1000
0100
,
0010
0000
0000
0000
0001
0000
1000
0000
0000
0000
0010
0000
0000
0000
1000
0010
,
0100
0000
0001
1000
0000
0020
0002
0033
,
0000
1100
0000
0011
,
0000
0000
1000
0010
0000
0100
0000
0001
,
0000
0010
0000
0100
0000
1000
0000
0010
,
0000
0100
0000
0001
0000
2000
0001
0000
,
0000
0000
0000
0000
0000
3200
0000
0000
,
0000
0000
0000
0000
0000
0302
0000
0000
,
0000
0000
0000
0000
0000
0023
0000
0000
,
0000
0000
0000
0000
0000
2030
0000
0000
,
0000
0000
0000
0000
0000
3020
0000
0000
,
0000
0000
0000
0000
0000
0230
0000
0000
,
0000
0000
0000
0000
0000
0301
0000
0000
,
0000
0000
0000
0000
0000
1020
0000
0000
,
0000
0000
0000
0000
0000
0230
0000
0000
,
0000
0000
0000
0000
0000
0302
0000
0000
,
0000
0000
0000
0000
0000
0023
0000
0000
,
0000
0000
0000
0000
0000
0130
0000
0000
,
0000
1000
0000
1000
,
0000
0000
0000
0000
0010
0000
0000
0000
0000
0000
0000
0000
0010
1000
0000
0000
,
0000
0001
0000
0001
,
0000
0000
0000
0000
0100
0000
0000
0000
0000
0000
0000
0000
0100
0001
0000
0000
,
0000
0000
0000
0000
0001
0010
0000
0000
0000
0000
0000
0000
0010
0100
0000
0000
,
0000
0000
0000
0000
0000
0000
0000
0000
0000
0000
0000
0000
0100
0000
0000
1000
0000
0000
0000
0000
0000
0000
0000
0000
0000
0000
0000
0000
0000
0000
0000
0000
0000
0000
0000
0000
0001
0000
0000
0000
0010
0000
0000
0000
0100
0000
0000
0000
,
1000
0010
0100
0001
0010
0001
0010
0100
1000
0100
1000
0010
,
1000
0000
0010
0000
1000
0000
0001
0000
0100
0000
0001
0000
0100
0000
0000
0101
0000
0000
0000
0000
0000
0100
0000
0000
,
0001
0010
0000
0100
1000
0010
0000
0100
,
0001
1000
0000
0100
1000
0001
0000
0010
,
0001
1000
0000
0010
1000
0002
0000
0023
,
0000
0230
0000
2300
0000
3010
0000
0000
,
1010
0000
1000
0100
0001
0100
1000
0010
,
0100
0000
0000
0000
0001
0000
0100
0000
1000
0000
0100
0000
0000
0000
0010
0100
,
0001
1000
0010
1000
0100
0010
0001
0010
,
0100
1000
0010
1000
0100
0020
0000
0000
,
0000
0000
0000
0030
0000
0100
0000
0100
,
1000
0001
0000
0001
1000
0010
0000
0010
,
1000
0100
0000
0100
0010
0002
0000
0203
,
0000
2300
0000
3200
0000
0320
0000
0030
,
1000
0000
1001
0000
1001
0010
0000
0000
,
0110
0000
0000
0110
0000
0000
0000
0000
0000
0001
0010
0100
,
1000
0100
0010
0001
0100
0010
1000
0010
0100
0001
0010
0001
,
1000
0000
0010
0000
1000
0000
0001
0000
0100
0000
0001
0000
1000
0000
0000
0200
0000
0000
0000
0000
0000
0000
0000
0000
,
0000
0300
0010
0001
,
0100
0000
0010
0100
0000
0120
0000
0000
,
0000
0000
1030
0100
,
1000
0000
0001
0100
0000
0120
0000
0000
,
0000
0000
0000
0030
1000
0000
0001
0000
,
1000
0000
0001
0100
0000
0000
1010
0000
,
0100
0011
0100
1010
,
0100
0000
0001
0010
0100
2000
0000
0000
,
0000
0000
3010
0100
,
0001
0000
0010
0100
0000
2000
0000
0000
,
0000
0000
3010
1000
,
0001
0000
0100
0001
0000
0000
0011
0000
,
0010
0100
1001
0000
1000
0010
1010
0000
,
1000
0010
0110
0000
0000
0000
0010
0000
,
0010
0100
0001
0010
0000
0000
0010
0001
0100
0010
0000
0000
,
0010
0100
0001
0010
0000
0000
0010
0100
1000
0100
0000
0000
,
0100
1000
0001
0010
0000
0000
0010
0001
1000
0010
0000
0000
,
0100
0000
0001
0000
1000
0000
0100
0000
0000
1100
0000
0000
0000
0000
0000
0000
0000
0000
0001
0000
0000
0000
0000
0000
,
0100
0001
0010
0100
0000
0010
0001
0000
,
0100
0001
1000
0000
0010
1000
0001
0000
,
0010
0001
1000
0000
0100
1000
0001
0010
,
0001
0100
1000
0100
0000
0001
0100
0000
,
0010
1000
0000
0010
0000
1000
0100
0000
,
0010
0001
0000
1001
0000
0100
0000
1001
,
0000
0010
0000
0110
0000
0001
0000
0010
,
0100
0100
0000
0210
0000
0000
1300
0001
,
0010
0001
1000
0100
1000
0000
0010
1000
,
0001
0100
0001
0000
2000
0000
0000
0000
,
3200
0000
0320
0000
,
0031
0001
0000
0000
2010
0000
0000
0000
,
3100
0000
0000
0010
0100
0000
0000
0000
,
0010
0001
0000
2002
0000
0000
0000
0000
,
0000
0000
0000
0000
,
0000
0000
0000
3003
0000
0000
0000
0000
;

//---------------dance-single - ----------------
#NOTEDATA:;
#CHARTNAME:;
#STEPSTYPE:dance-single;
#DESCRIPTION:;
#CHARTSTYLE:Pad;
#DIFFICULTY:Beginner;
#METER:4;
#RADARVALUES:0.137702,0.236748,0.014716,0.169237,0.003679,131.000000,129.000000,2.000000,23.000000,0.000000,0.000000,0.000000,0.000000,0.000000,0.137702,0.236748,0.014716,0.169237,0.003679,131.000000,129.000000,2.000000,23.000000,0.000000,0.000000,0.000000,0.000000,0.000000;
#CREDIT:Mozata;
#NOTES:
0000
0000
0000
0000
0002
0000
0003
0001
0000
0000
0001
0000
0000
0000
0000
0000
,
0001
0000
0001
0000
,
0001
0000
0001
0000
,
0001
0000
0001
0000
,
0001
0000
0001
0000
,
0001
0000
0010
0000
,
1000
0000
0000
0000
,
0010
0000
1000
0000
,
0001
0000
0000
0000
,
0001
0000
1000
0000
,
0100
0000
0010
0000
,
0100
0000
1000
0000
,
0010
0000
0000
0000
,
0100
0000
0010
0000
,
0100
0000
0000
0000
,
0001
0000
1000
0000
,
0001
0000
0010
0000
,
0100
0000
1000
0000
,
0020
0000
0000
0000
,
0000
0000
0000
0000
,
0200
0000
0000
0000
,
0000
0000
0330
0000
0000
0010
0000
0000
,
0000
0000
0000
1000
,
0000
0001
0000
1000
,
0000
0010
0000
1000
,
0000
0000
0000
0002
,
0000
0003
0000
0010
,
0000
0000
0000
2000
,
0000
3000
0000
0100
,
0000
0000
0000
0010
,
0000
0000
0000
0100
,
0000
0010
0000
0100
,
0000
0010
0000
0100
,
0000
0000
0000
2000
,
0000
3000
0000
0001
,
0000
0000
0000
0001
,
0000
0100
0000
0010
,
0000
1000
0000
2000
,
0000
0000
0000
0000
,
0000
0000
0000
3002
,
0000
0000
0000
0000
,
0000
0000
0000
0203
,
0000
0000
0000
0000
,
0000
0000
0000
0320
,
0000
0000
0000
0000
,
0000
0000
0000
2030
,
0000
0000
0000
0000
,
0000
0000
0000
3002
,
0000
0000
0000
0000
,
0000
0003
0000
0001
,
0000
0010
0000
0010
,
0000
0010
0000
0001
,
0000
0010
0000
0010
,
0000
0010
0000
1000
,
0000
0001
0000
0001
,
0000
0001
0000
1000
,
0000
0100
0000
0100
,
0000
0100
0000
0100
,
0000
0000
0000
0000
,
0000
0000
0000
1001
,
0000
0000
0000
0000
,
0000
0000
0000
0020
,
0000
0000
0000
0000
,
0000
0000
0000
0200
,
0000
0000
0000
0000
,
0000
0000
0330
0000
,
0000
0000
0000
0000
,
0000
0000
0000
1001
,
0000
0000
0000
0000
,
0000
0000
0000
2000
,
0000
0000
0000
0000
,
0000
0000
0000
0002
,
0000
0000
0000
0000
,
0000
0000
3003
0000
,
0000
0000
0000
1000
,
0000
0001
0000
0010
,
0000
0000
0000
0010
,
0000
0001
0000
1000
,
0000
0000
0000
1000
,
0000
0100
0000
0010
,
0000
0001
0000
0001
,
0000
0000
0000
1000
,
0000
0000
0000
1000
,
0000
0100
0000
0010
,
0000
0000
0000
0010
,
0000
0100
0000
1000
,
0000
1000
0000
1000
,
0000
1000
0000
0002
,
0000
0000
0000
0000
,
0000
0000
0000
2000
,
0000
0000
0000
3003
,
0000
0000
0000
0010
0000
0000
0000
0000
,
0000
0000
0100
0000
,
0010
0000
0100
0000
,
0010
0000
0100
0000
,
0000
0000
0020
0000
,
0030
0000
1000
0000
,
0000
0000
0200
0000
,
0300
0000
0001
0000
,
0000
0000
1000
0000
,
0000
0000
0001
0000
,
0010
0000
0100
0000
,
0010
0000
0001
0000
,
0000
0000
2000
0000
,
3000
0000
0100
0000
,
0000
0000
0002
0000
,
0003
0000
0200
0000
,
0000
0300
0000
0000
;

//---------------dance-single - ----------------
#NOTEDATA:;
#CHARTNAME:;
#STEPSTYPE:dance-single;
#DESCRIPTION:;
#CHARTSTYLE:Pad;
#DIFFICULTY:Easy;
#METER:6;
#RADARVALUES:0.237563,0.355122,0.095656,0.206028,0.003679,226.000000,213.000000,13.000000,28.000000,0.000000,0.000000,0.000000,0.000000,0.000000,0.237563,0.355122,0.095656,0.206028,0.003679,226.000000,213.000000,13.000000,28.000000,0.000000,0.000000,0.000000,0.000000,0.000000;
#CREDIT:Mozata;
#NOTES:
0000
0000
0000
0000
2002
0000
3003
0010
0000
0000
0100
0000
0000
0000
0000
0000
,
0010
0000
0100
0000
,
0010
0000
0100
0000
,
0020
0000
0000
0000
0200
0000
0330
0110
,
0000
0000
0000
0010
,
1000
0010
1000
0010
,
0100
0000
0000
0001
,
0010
0001
0010
0001
,
0100
0000
0000
0001
,
1000
0000
0000
0000
1000
0000
0000
0001
,
0000
0000
0110
0000
,
0110
0000
0000
0000
0110
0000
0000
1001
,
0000
0000
0000
0100
,
0001
0100
0001
0100
,
0010
0000
0000
1000
,
0100
1000
0100
1000
,
0010
0000
0100
0000
,
0001
0000
1000
0000
,
0200
0000
0000
0000
,
0000
0000
0000
0000
,
0020
0000
0000
0000
,
0000
0000
0330
1000
,
0001
1000
0001
1000
,
0001
1000
0001
0100
,
0001
0010
0001
0100
,
0001
0010
0000
0200
,
0000
0300
1000
0100
,
0000
0000
0000
0000
0000
0001
0000
0010
,
0000
0100
0000
1000
0000
0100
0000
0000
,
0000
0001
0000
0010
,
1000
0010
1000
0001
,
0100
0001
0100
0010
,
1000
0010
0100
0010
,
0000
0000
2000
0000
0000
3001
0000
0000
,
0000
0010
0000
0100
,
0000
1000
0000
0001
,
0000
0010
0000
0100
,
0000
1000
0000
2000
,
0000
0000
0000
3020
,
0000
0000
0000
0230
,
0000
0000
0000
0302
,
0000
0000
0000
2003
,
0000
0000
0000
3200
,
0000
0000
0000
0320
,
0000
0000
0000
0032
,
0000
0000
0000
0023
,
0000
0000
0000
0230
,
0000
0000
0000
2300
,
0000
0000
0000
3002
,
0000
0000
0000
1003
,
0000
0010
0000
0010
,
0000
1000
0000
0001
,
0000
0010
0000
0010
,
0000
0001
0000
1000
,
0000
0010
0000
0100
,
0000
0001
0000
1000
,
0000
0100
0000
0010
,
0000
0001
0000
1001
,
0000
0010
0000
0010
,
0010
0000
0010
0000
0000
1001
0000
0000
,
0000
0000
0000
0000
0000
0001
0000
1000
,
0000
0001
0000
1000
0000
0001
0000
0000
,
0000
0000
0000
0010
,
0000
0001
0000
0100
,
0000
0010
0000
1000
,
0000
0000
0100
0000
0000
0010
0000
0000
,
0000
0000
0000
0000
,
0000
1000
0000
0000
0000
0110
0000
0000
,
0000
0000
0000
0000
,
0000
0001
0000
0000
0000
0110
0000
0000
,
0000
0000
0000
1000
,
0000
0010
0000
0100
,
0000
0010
0000
1000
,
0000
0000
0001
0000
0000
0020
0000
0000
,
0000
0030
0000
0010
,
0000
0001
0000
0200
,
0000
0300
0000
0010
,
0000
1000
0000
0200
,
0000
0300
0000
0001
,
0000
0010
0000
0100
,
0000
1000
0000
0100
,
0000
0000
0000
0000
0000
0002
0000
0000
,
0000
0003
0000
0001
,
0000
1000
0000
0100
,
0000
0000
0000
0100
,
0000
1000
0000
0001
,
0000
0010
0000
0100
,
0000
0010
0000
0002
,
0000
0000
0000
0000
,
0000
0000
0000
2000
,
0000
0000
0000
0000
,
0000
0000
3003
0110
0000
0000
0000
0000
,
1000
0100
1000
0100
,
1000
0100
0010
0100
,
1000
0100
0010
0000
,
0010
0000
0000
1001
0000
0000
0000
0000
,
0000
0100
0010
0100
,
0010
0000
0000
1001
0000
0000
0000
0000
,
0000
0100
0010
0100
,
0010
0000
0000
0010
0000
0000
0000
0000
,
0001
0100
0001
0100
,
0001
0100
0010
1000
,
0001
0100
0010
1000
,
0001
0100
0020
0000
,
0000
0000
0000
0000
,
0000
0000
2000
0000
,
0000
0000
0000
0000
,
0000
3030
0000
0000
;

//---------------dance-single - ----------------
#NOTEDATA:;
#CHARTNAME:;
#STEPSTYPE:dance-single;
#DESCRIPTION:;
#CHARTSTYLE:Pad;
#DIFFICULTY:Medium;
#METER:9;
#RADARVALUES:0.302735,0.552412,0.250177,0.294325,0.014716,288.000000,254.000000,34.000000,40.000000,0.000000,0.000000,0.000000,0.000000,0.000000,0.302735,0.552412,0.250177,0.294325,0.014716,288.000000,254.000000,34.000000,40.000000,0.000000,0.000000,0.000000,0.000000,0.000000;
#CREDIT:Mozata;
#NOTES:
// measure 0
0000
0000
0000
0000
0000
0000
0000
0000
0000
0000
0000
0000
0000
0000
0000
0000
2000
0000
3200
0320
0032
0000
0000
0000
0003
0000
0000
0000
0001
0000
0000
0000
0001
0000
0000
0000
0000
0000
0000
0000
0010
0000
0000
0000
0000
0000
0000
0000
0010
0000
0000
0000
0000
0000
0000
0000
0000
0000
0000
0000
0000
0000
0000
0000
,  // measure 1
0100
0100
1000
1000
,  // measure 2
0100
0100
0010
0010
,  // measure 3
0001
0000
0001
0000
0002
0000
0000
1003
,  // measure 4
0000
0000
0000
0010
,  // measure 5
1000
0000
0001
0000
1000
0000
0000
0010
,  // measure 6
0000
0000
0000
0100
,  // measure 7
0001
0000
0100
0000
0010
0000
0000
0100
,  // measure 8
0000
0000
0000
0001
,  // measure 9
0010
0000
0001
0000
1000
0000
0000
1010
,  // measure 10
0000
0000
1001
0000
,  // measure 11
0011
0000
0000
0000
1001
0000
0000
1010
,  // measure 12
0000
0000
0000
0100
,  // measure 13
0001
0000
0010
0000
0001
0000
0000
1000
,  // measure 14
0000
0000
0000
0100
,  // measure 15
1000
0010
1000
0000
,  // measure 16
0020
0000
0230
0000
,  // measure 17
0302
0000
2003
0000
,  // measure 18
3200
0000
0000
0000
,  // measure 19
0000
0000
0000
0000
,  // measure 20
0020
0000
0000
0000
,  // measure 21
0000
0000
0330
0000
0000
1001
0000
0000
,  // measure 22
0010
1000
0010
1000
,  // measure 23
0001
0000
0100
0000
0000
1001
0000
0000
,  // measure 24
0000
0100
0100
0010
,  // measure 25
0100
0000
0001
0000
0000
2000
0000
0000
,  // measure 26
0000
0000
0100
3001
,  // measure 27
0000
0000
1000
0001
0000
0100
0000
0001
,  // measure 28
0000
1000
0000
0010
0000
1000
0000
0010
,  // measure 29
0000
0000
0100
0000
0000
1001
0000
0000
,  // measure 30
0000
0001
0010
0001
,  // measure 31
1000
0000
0100
0000
0000
1000
0000
0000
,  // measure 32
0000
0100
0010
0001
,  // measure 33
0010
0000
0100
0000
0000
2000
0000
0000
,  // measure 34
0000
3010
0000
0100
,  // measure 35
0000
0000
0001
0000
0000
0001
0000
0100
,  // measure 36
0000
1000
0000
0100
0000
0001
0000
0010
,  // measure 37
0000
0100
0000
0010
0000
0000
2001
0000
,  // measure 38
0000
0000
0000
3200
,  // measure 39
0000
0000
0000
0320
,  // measure 40
0000
0000
0000
0032
,  // measure 41
0000
0000
0000
2003
,  // measure 42
0000
0000
0000
3200
,  // measure 43
0000
0000
0000
0302
,  // measure 44
0000
0000
0000
0203
,  // measure 45
0000
0000
0000
2300
,  // measure 46
0000
0000
0000
3020
,  // measure 47
0000
0000
0000
0230
,  // measure 48
0000
0000
0000
0302
,  // measure 49
0000
0000
0000
0013
,  // measure 50
0000
0100
0000
0100
,  // measure 51
0000
1000
0000
0010
,  // measure 52
0000
0100
0000
0100
,  // measure 53
0000
0001
0000
0010
,  // measure 54
0000
0100
0000
1000
,  // measure 55
0000
0010
0000
0100
,  // measure 56
0000
0001
0000
1000
,  // measure 57
0000
0000
0001
0000
0000
1001
0000
0000
,  // measure 58
0000
0000
0000
0000
,  // measure 59
0000
0100
0000
0000
0000
2002
0000
0000
,  // measure 60
0000
0000
3000
0003
0000
0000
0000
0000
,  // measure 61
0000
0000
0000
0000
0000
0110
0000
0000
,  // measure 62
1000
0000
0100
0000
0000
0110
0000
0000
,  // measure 63
0010
0000
0001
0000
0000
0110
0000
0000
,  // measure 64
0100
1000
0010
0100
,  // measure 65
0001
0000
0010
0000
0000
2002
0000
0000
,  // measure 66
0000
3003
0000
0000
,  // measure 67
0000
0100
0000
0000
0000
2002
0000
0000
,  // measure 68
0000
0000
0000
3003
0000
0000
0000
0000
,  // measure 69
0000
0010
0000
0000
0000
1010
0000
0000
,  // measure 70
1000
0000
0100
0000
0000
1100
0000
0000
,  // measure 71
0100
1000
0001
1000
,  // measure 72
0010
1000
0001
1000
,  // measure 73
0100
0000
0010
0000
0000
1001
0000
0000
,  // measure 74
0000
0100
0010
1000
,  // measure 75
0010
0000
0100
0000
0000
0001
0000
0000
,  // measure 76
0000
0010
0001
0100
,  // measure 77
0001
0000
0010
0000
0000
0100
0000
0000
,  // measure 78
0000
1000
0010
1000
,  // measure 79
0001
0100
0010
1000
,  // measure 80
0010
0001
0010
1000
,  // measure 81
0010
0000
0100
0000
0000
1001
0000
0000
,  // measure 82
0000
1000
0001
1000
,  // measure 83
0001
0000
0010
0000
0000
0011
0000
0000
,  // measure 84
0000
0001
1000
0001
,  // measure 85
1000
0100
0000
1100
,  // measure 86
0000
1001
0000
0101
,  // measure 87
0000
1001
0000
2200
,  // measure 88
0000
0000
0000
0000
,  // measure 89
0000
0000
0300
0000
0000
0002
0000
0000
,  // measure 90
0000
0000
0000
0000
,  // measure 91
3003
0000
0000
0110
0000
0000
1000
0000
,  // measure 92
0010
0001
0010
1000
,  // measure 93
0001
0010
0011
0001
,  // measure 94
1000
0010
1000
0100
,  // measure 95
1000
0000
0000
0110
0000
0000
0100
0000
,  // measure 96
0001
0000
0000
0011
0000
0000
0001
0000
,  // measure 97
0100
0000
0000
1010
0000
1000
0000
0010
,  // measure 98
0000
1000
0000
0100
0000
0010
0000
0000
,  // measure 99
0100
0000
0000
1001
0000
0000
0010
0000
,  // measure 100
0100
0000
0000
1001
0000
0000
0001
0000
,  // measure 101
0010
0100
2000
0000
,  // measure 102
3200
0000
0320
0000
,  // measure 103
0031
0000
0000
2000
0000
0000
0000
0000
,  // measure 104
3100
0000
0001
0000
,  // measure 105
0001
0100
0000
0220
0000
0000
0000
0000
,  // measure 106
0000
0000
0000
0000
,  // measure 107
0000
0330
0000
0000
;

//---------------dance-single - ----------------
#NOTEDATA:;
#CHARTNAME:;
#STEPSTYPE:dance-single;
#DESCRIPTION:;
#CHARTSTYLE:Pad;
#DIFFICULTY:Hard;
#METER:13;
#RADARVALUES:0.420465,0.671568,0.301684,0.412056,0.040470,400.000000,359.000000,41.000000,56.000000,0.000000,0.000000,0.000000,0.000000,0.000000,0.420465,0.671568,0.301684,0.412056,0.040470,400.000000,359.000000,41.000000,56.000000,0.000000,0.000000,0.000000,0.000000,0.000000;
#CREDIT:Mozata;
#NOTES:
0000
0000
0000
0000
0000
0000
0000
0000
0000
0000
0000
0000
0000
0000
0000
0000
2000
0000
3200
0320
0032
0000
0000
0000
0003
0000
0000
0000
0001
0000
0000
0000
0001
0000
0000
0000
0000
0000
0000
0000
0010
0000
0000
0000
0000
0000
0000
0000
0010
0000
0000
0000
0000
0000
0000
0000
0000
0000
0000
0000
0000
0000
0000
0000
,
0100
0100
1000
1000
,
0010
0000
0000
0000
0100
0000
0000
0000
0001
0000
0000
0000
0010
0000
0000
0200
,
0000
0000
0000
0000
0000
0300
0000
2001
,
0000
0000
0000
3010
,
1000
0000
1000
0000
0100
0000
0000
2100
,
0000
0000
3000
1000
,
0010
0000
0010
0000
0100
0000
0000
0120
,
0000
0000
0000
1030
,
0010
0000
1000
0000
0001
0000
0000
1100
,
0000
0100
1000
0010
0000
0100
0001
0010
,
0000
0100
1000
0010
0000
0100
0001
0020
,
0000
0000
0030
0001
,
1000
0000
1000
0000
0010
0000
0000
2010
,
0000
0000
3000
1000
,
0001
0001
0010
1001
,
0200
0000
2300
0000
,
3002
0000
0000
0000
0103
0000
0000
1010
,
0000
0010
0000
1000
0000
0010
0000
0100
,
0000
0001
0000
0100
0010
1000
0100
0010
,
0001
0000
0000
1001
0000
0000
0110
0000
,
1001
0000
0000
0000
0100
1001
0000
0000
,
1000
0100
0010
0000
0001
0100
0010
0000
,
1000
0001
0100
0000
0010
0000
0101
0000
,
0000
1010
0000
0011
,
0000
0000
0010
0100
0000
0120
0000
0000
,
0000
0000
0031
0101
,
0000
0000
0010
1000
0000
0001
0000
0100
,
0000
0001
0000
0010
0000
0001
0000
1000
,
0000
0100
0010
0100
0010
0100
0000
0000
,
1001
0000
0001
0000
1001
0000
1000
0010
,
0100
0000
0100
0001
1000
0000
2000
0000
,
3010
0020
0130
0200
,
0310
0000
1000
0000
0000
0022
0000
0033
,
0000
0101
0000
1100
,
0000
0000
1000
0010
0000
0100
0000
0001
,
0000
0010
0000
0100
0000
1000
0000
0010
,
0000
0100
0000
0001
0000
0200
0000
0000
,
0000
0000
0000
0000
0000
0320
0000
0000
,
0000
0000
0000
0000
0000
0032
0000
0000
,
0000
0000
0000
0000
0000
0023
0000
0000
,
0000
0000
0000
0000
0000
2030
0000
0000
,
0000
0000
0000
0000
0000
3200
0000
0000
,
0000
0000
0000
0000
0000
0302
0000
0000
,
0000
0000
0000
0000
0000
0203
0000
0000
,
0000
0000
0000
0000
0000
2300
0000
0000
,
0000
0000
0000
0000
0000
3002
0000
0000
,
0000
0000
0000
0000
0000
0023
0000
0000
,
0000
0000
0000
0000
0000
0032
0000
0000
,
0000
0000
0000
0000
0000
1003
0000
0000
,
0000
0100
0000
0001
,
0000
0010
0000
0100
,
0000
1000
0000
0010
,
0000
1000
0000
0100
,
0000
1000
0000
0001
,
0000
0000
0000
1000
0000
0000
0000
0000
0000
0010
0000
1000
,
0000
0010
0000
1000
0000
0001
0000
1000
0000
0100
0000
1000
,
0000
0000
0100
0000
0000
0000
0010
0000
0000
0000
0000
0000
0000
0000
0000
0011
0000
0000
0000
0000
0000
0001
0000
0000
,
0010
0001
0000
1000
0001
1000
0000
0010
,
1000
0010
0000
0100
0010
0100
0000
0001
,
0100
0001
0000
1000
0010
1000
0000
0010
,
0000
0001
0000
0100
0000
2000
0000
0000
,
3010
0000
0010
0000
0010
1001
0000
0000
,
0100
0000
0100
0000
1001
0000
0100
0010
,
0100
0010
1000
0001
1000
0001
1000
0010
,
1000
0010
0100
0001
0010
0100
0000
0000
,
0000
0000
0000
0000
0000
0100
0000
1000
,
0000
0001
0000
1000
0000
0010
0000
1000
,
0000
0100
0000
0010
0000
0002
0000
0023
,
0000
0230
0000
2300
0000
3020
0000
0030
,
1000
0000
1000
0000
1000
0001
0000
0000
,
0010
0000
0010
0000
0000
0000
1000
0010
,
0100
0001
1000
0100
0010
0001
1000
0100
,
0001
0100
1000
0010
0100
0002
0000
0000
,
0000
0003
0010
0001
,
0001
0000
1000
0000
0000
2010
0000
0000
,
0000
3000
0100
0010
,
0010
0000
0100
0000
0000
1002
0000
0000
,
0000
0000
1003
0001
,
1000
0000
0001
0000
0001
0010
0001
0000
,
0001
0100
0001
0000
0001
1000
0001
0000
,
0010
0000
0100
0000
1000
0010
0200
0000
,
0000
0000
0310
0100
,
0100
0000
0001
0000
0000
2010
0000
0000
,
0000
0000
3010
1000
,
0001
0100
0000
0101
,
0000
1010
0000
1100
,
0000
0011
0000
0002
,
0013
0001
0020
0000
0031
0010
0002
0000
,
1003
0001
2000
0000
3010
1000
0020
0000
,
1030
0010
2000
0000
3010
1000
0020
0000
,
0130
0001
0100
0101
0000
0000
0001
1000
,
0100
0000
1000
0001
0100
0000
0001
1000
,
0010
1010
0020
0000
,
2030
0000
3002
0000
,
0103
0000
0000
0110
0000
0000
0010
0000
,
1000
0001
0100
0000
,
0100
0001
0000
1000
0000
0010
0000
1000
,
0000
0100
0000
0010
0000
0001
0000
0000
,
1000
0001
0000
0012
0000
0000
0000
0000
,
0000
0003
1000
0000
1010
0000
0001
0000
,
0011
0000
1001
0000
,
1100
0000
0110
0000
,
0001
0000
0000
0020
0000
0000
0000
0000
,
0031
0000
1000
0000
,
0010
0100
0000
2002
0000
0000
0000
0000
,
0000
0000
0000
0000
,
0000
0000
0000
3003
0000
0000
0000
0000
;
