#VERSION:0.83;
#TITLE:Tick Tick Boom;
#SUBTITLE:;
#ARTIST:The Hives;
#TITLETRANSLIT:;
#SUBTITLETRANSLIT:;
#ARTISTTRANSLIT:;
#GENRE:;
#ORIGIN:;
#CREDIT:;
#BANNER:tick.bn.png;
#BACKGROUND:tick-bg.png;
#PREVIEWVID:;
#JACKET:;
#CDIMAGE:;
#DISCIMAGE:;
#LYRICSPATH:;
#CDTITLE:;
#MUSIC:tick.ogg;
#OFFSET:0.000000;
#SAMPLESTART:6.444000;
#SAMPLELENGTH:12.000000;
#SELECTABLE:YES;
#BPMS:0.000=135.000,
15.000=136.000,
16.000=135.250,
96.000=134.000,
125.000=135.000,
141.000=135.250;
#STOPS:;
#DELAYS:116.000=3.100,
233.000=3.101;
#WARPS:;
#TIMESIGNATURES:0.000=4=4;
#TICKCOUNTS:0.000=4;
#COMBOS:0.000=1;
#SPEEDS:0.000=1.000=0.000=0;
#SCROLLS:0.000=1.000;
#FAKES:;
#LABELS:0.000=Song Start;
#BGCHANGES:;
#KEYSOUNDS:;
#ATTACKS:
;

//---------------dance-single - ----------------
#NOTEDATA:;
#CHARTNAME:;
#STEPSTYPE:dance-single;
#DESCRIPTION:;
#CHARTSTYLE:Pad;
#DIFFICULTY:Beginner;
#METER:2;
#RADARVALUES:0.139373,0.189431,0.065041,0.008130,0.000000,120.000000,112.000000,8.000000,1.000000,0.000000,0.000000,0.000000,0.000000,0.000000,0.139373,0.189431,0.065041,0.008130,0.000000,120.000000,112.000000,8.000000,1.000000,0.000000,0.000000,0.000000,0.000000,0.000000;
#CREDIT:Mozata;
#NOTES:
0000
0000
0000
0000
,
0000
0000
0000
0000
,
0000
0000
0000
0000
,
0000
0000
0000
0000
,
0100
0100
0100
0000
,
0010
0010
0010
0000
,
0100
0100
0100
0000
,
0010
0010
0010
0000
,
1000
0000
1000
0000
,
1000
0000
0000
0000
,
0010
0010
0010
0000
,
0100
0100
0100
0000
,
0001
0000
0001
0000
,
0001
0000
0000
0000
,
0100
0100
0100
0000
,
0010
0010
0010
0000
,
0100
0000
0010
0000
,
0100
0000
0000
0000
,
0001
0001
0001
0000
,
1000
1000
1000
0000
,
0010
0000
0100
0000
,
0010
0000
0000
0000
,
1000
1000
1000
0000
,
0001
0001
0001
0000
,
0010
0000
1000
0000
,
0010
0000
0001
0000
,
0010
0000
1000
0000
,
0010
0000
0001
0000
,
1000
0000
1000
0000
,
0200
0000
0000
0000
,
0000
0000
0000
0000
,
0000
0300
0000
0000
,
0010
0000
0010
0000
,
0010
0000
0000
0000
,
1000
0000
1000
0000
,
1000
0000
0100
0000
,
0001
0000
0001
0000
,
0001
0000
0100
0000
,
0010
0000
1000
0000
,
0010
0000
0100
0000
,
0001
0000
0010
0000
,
0001
0001
0000
1000
,
0000
0001
0000
1000
,
0000
0010
0010
0010
,
0000
0100
0100
0100
,
0000
0010
0010
0010
,
0000
0100
0100
0100
,
0000
0110
0000
0000
,
0000
1001
0000
0000
,
0000
0110
0000
0000
,
0000
1001
0000
0000
,
0000
0110
0000
0010
,
0000
1001
0000
1000
,
0000
0110
0000
0100
,
0000
1001
0000
0001
,
0000
0010
0000
0100
,
0000
0010
0000
0100
,
0000
0010
0000
0100
,
0000
0010
0000
0000
;

//---------------dance-single - ----------------
#NOTEDATA:;
#CHARTNAME:;
#STEPSTYPE:dance-single;
#DESCRIPTION:;
#CHARTSTYLE:Pad;
#DIFFICULTY:Easy;
#METER:4;
#RADARVALUES:0.209059,0.284146,0.121951,0.073171,0.000000,180.000000,165.000000,15.000000,9.000000,0.000000,0.000000,0.000000,0.000000,0.000000,0.209059,0.284146,0.121951,0.073171,0.000000,180.000000,165.000000,15.000000,9.000000,0.000000,0.000000,0.000000,0.000000,0.000000;
#CREDIT:Mozata;
#NOTES:
// measure 0
0000
0000
0000
0000
,  // measure 1
0000
0000
0000
0000
,  // measure 2
0000
0000
0000
0000
,  // measure 3
0000
0000
0000
0000
,  // measure 4
0001
0010
0001
0000
,  // measure 5
1000
0100
1000
0000
,  // measure 6
0010
1000
0010
0000
,  // measure 7
0100
0001
0100
0000
,  // measure 8
0010
0000
1000
0000
,  // measure 9
0100
0000
0010
0010
,  // measure 10
0010
0001
0010
0000
,  // measure 11
0100
1000
0100
0000
,  // measure 12
0001
0000
0010
0000
,  // measure 13
0100
0000
1000
1000
,  // measure 14
1000
0010
1000
0000
,  // measure 15
0001
0100
0001
0000
,  // measure 16
1000
0000
0010
0000
,  // measure 17
0100
0000
0001
0100
,  // measure 18
0010
1000
0010
0000
,  // measure 19
1000
0100
1000
0000
,  // measure 20
1000
0000
0100
0000
,  // measure 21
0010
0000
0001
0010
,  // measure 22
0100
0010
0100
0000
,  // measure 23
0001
1000
0001
0010
,  // measure 24
0110
0000
1000
1000
,  // measure 25
1001
0000
0100
0100
,  // measure 26
0110
0000
0001
0001
,  // measure 27
1001
0000
0010
0020
,  // measure 28
0030
2000
3000
0100
,  // measure 29
0002
0000
0000
0000
,  // measure 30
0000
0000
0000
0000
,  // measure 31
0000
0103
0100
0100
,  // measure 32
0100
0100
1001
0010
,  // measure 33
1001
0100
0100
0100
,  // measure 34
0100
0100
1001
0010
,  // measure 35
1001
0100
0001
0100
,  // measure 36
1000
0100
0100
0010
,  // measure 37
0010
0100
0001
0100
,  // measure 38
1000
0100
0100
0010
,  // measure 39
0010
0010
0001
0010
,  // measure 40
1000
0010
0010
0100
,  // measure 41
0100
0001
0000
1000
,  // measure 42
0000
0010
0000
0010
,  // measure 43
1000
1001
0100
0001
,  // measure 44
0000
1000
0100
1000
,  // measure 45
0000
0001
0010
0001
,  // measure 46
0000
0010
1000
0010
,  // measure 47
0100
0110
0000
0001
,  // measure 48
0001
1001
0000
0010
,  // measure 49
0010
0110
0000
1000
,  // measure 50
1000
1001
0000
0010
,  // measure 51
0010
1001
0001
0010
,  // measure 52
0100
0010
1000
0100
,  // measure 53
0001
1000
0001
0010
,  // measure 54
0001
0100
1000
0100
,  // measure 55
0002
0003
2000
3000
,  // measure 56
0020
0030
2000
3000
,  // measure 57
0002
0003
0200
0300
,  // measure 58
0001
1001
0000
0000
;

//---------------dance-single - ----------------
#NOTEDATA:;
#CHARTNAME:;
#STEPSTYPE:dance-single;
#DESCRIPTION:;
#CHARTSTYLE:Pad;
#DIFFICULTY:Medium;
#METER:6;
#RADARVALUES:0.270616,0.331504,0.065041,0.105691,0.000000,233.000000,225.000000,8.000000,13.000000,0.000000,0.000000,0.000000,0.000000,0.000000,0.270616,0.331504,0.065041,0.105691,0.000000,233.000000,225.000000,8.000000,13.000000,0.000000,0.000000,0.000000,0.000000,0.000000;
#CREDIT:Mozata;
#NOTES:
0000
0000
0000
0000
,
0000
0000
0000
0000
,
0000
0000
0000
0000
,
0000
0000
0000
0110
,
0001
0010
0001
0100
,
1000
0010
1000
0100
,
0001
0010
0001
0100
,
1000
0010
1000
0100
,
0002
0000
0023
0000
,
0230
1000
1000
1300
,
1000
0010
1000
0100
,
0001
0010
0001
0100
,
2000
0000
3020
0000
,
0230
0001
0001
0301
,
0001
0010
0001
0100
,
1000
0010
1000
0100
,
1002
0010
0023
0001
,
0031
1000
0001
0100
,
0001
0010
0001
0100
,
1000
0010
1000
0100
,
0020
0001
0032
1000
,
2003
3010
0100
0001
,
1000
0010
1000
0100
,
0001
0010
0001
0100
,
1000
0000
0000
0010
0000
0100
0010
0100
,
0001
0000
0000
1000
0000
0100
1000
0100
,
1000
0000
0000
0001
0000
1000
0001
1000
,
0001
0000
0000
0100
0000
0001
0100
0010
,
0000
1000
0100
0010
0000
0001
0100
0010
,
2000
0000
0000
0000
,
0000
0000
0000
0000
,
0000
3001
0000
0001
,
0000
0000
0001
0001
0010
0000
0001
0001
,
1000
0010
0000
0010
,
0000
0000
0100
0100
0010
0000
0100
0100
,
0001
1000
0000
1000
,
0000
0000
1000
1000
0100
0000
1000
1000
,
0010
0100
0000
0100
,
0000
0000
0100
0100
0001
0000
1000
1000
,
0001
0010
0110
0010
,
0000
0000
0010
0010
0001
0000
0100
0100
,
0001
1010
0000
1100
,
0000
1010
0000
1200
,
0310
0001
0010
0001
,
0100
1000
0010
1000
,
0100
0001
0010
0001
,
0100
1000
0010
1000
,
0100
0000
0001
0000
0000
0010
0000
0001
,
0010
0001
1000
0000
0000
0010
0000
1000
,
0010
1000
0100
0000
0000
0010
0000
0100
,
1000
0100
0010
0000
0000
0001
0000
0001
,
0010
0100
1000
0000
0000
0001
0000
1000
,
0010
0100
0001
0000
0000
1000
0000
0010
,
0100
0010
1000
0000
0000
0001
0000
0010
,
0100
0010
0001
0000
0000
1000
0000
0001
,
0100
0010
0000
1000
0100
0010
0000
0001
,
0100
0010
0000
1000
0100
0010
0000
0001
,
0100
0010
0000
1000
0100
0010
0000
0001
,
0100
0010
1010
0000
0000
0000
0000
0000
;

//---------------dance-single - ----------------
#NOTEDATA:;
#CHARTNAME:;
#STEPSTYPE:dance-single;
#DESCRIPTION:;
#CHARTSTYLE:Pad;
#DIFFICULTY:Hard;
#METER:10;
#RADARVALUES:0.353078,0.426220,0.252033,0.105691,0.032520,304.000000,273.000000,31.000000,13.000000,0.000000,0.000000,0.000000,0.000000,0.000000,0.353078,0.426220,0.252033,0.105691,0.032520,304.000000,273.000000,31.000000,13.000000,0.000000,0.000000,0.000000,0.000000,0.000000;
#CREDIT:Mozata;
#NOTES:
0000
0000
0000
0000
,
0000
0000
0000
0000
,
0000
0000
0000
0000
,
0000
0000
0000
0000
0000
0100
0100
0000
,
0001
0000
1100
0000
0001
0001
1001
0000
,
0100
0000
0101
0000
0001
0001
1001
0000
,
1000
0000
0100
0000
1000
0100
0010
0000
,
0000
0000
0001
0100
0001
0000
0000
0000
0000
0000
1000
0001
1000
0001
1000
0000
,
0020
0130
0200
0001
,
0300
0000
0100
0010
1000
0001
0100
0010
,
0100
0000
1010
0000
0001
0001
1001
0000
,
0100
0000
0011
0000
1000
1000
1001
0000
,
0020
0130
2000
3100
,
0002
0000
0103
0001
0100
0010
1000
0100
,
0000
0000
1100
0000
0001
0001
1001
0000
,
0100
0000
0101
0000
1000
1000
1002
0000
,
0013
0020
0130
0200
,
1300
0000
2000
0000
3001
0010
0100
1000
,
0001
0000
0100
0000
0001
0001
1001
0000
,
1000
0000
0010
0000
1000
1000
1010
0000
,
0200
0301
0020
0031
,
2000
0000
3001
0000
0100
0001
0010
0001
,
0100
0000
0110
0000
0001
0001
1001
0000
,
0000
0000
0100
0010
0100
0000
0000
0000
0000
0000
0000
0000
1000
0000
1000
0001
,
1000
0000
0000
1100
0000
1000
0001
1000
,
0001
0000
0000
0101
0000
0001
0010
0100
,
1000
0100
0010
0001
0000
1000
0010
0100
,
0001
0100
0010
1000
0000
1000
0010
0001
,
0000
1000
0100
0001
0000
1000
0010
0001
,
2000
0000
0000
0000
,
0000
0000
0000
0000
,
0000
3000
0010
0000
,
0001
0000
0000
0000
0100
0100
0000
0000
,
1000
1000
0000
0000
0010
0000
0000
0000
,
1000
0000
0000
0000
0100
0100
0000
0000
,
0001
0001
0000
1000
0010
0000
1000
0000
,
0001
0100
0000
0000
0010
0100
0010
0000
,
0100
0000
0000
0000
0001
0100
0010
0000
,
0000
0100
0000
0000
0100
1000
0001
0000
,
1000
0000
0000
0000
0110
0010
1000
0000
,
1001
0010
0000
0000
0100
1000
0010
0000
,
1000
1010
0000
0101
,
0000
0011
0000
1100
,
1001
0000
0011
0000
0001
0000
1000
1000
,
0100
0010
0001
0000
0001
0000
1000
0010
,
0100
0010
1000
0000
0001
0000
0010
0100
,
0010
0000
0001
0000
0100
0000
0010
0100
0010
0000
1000
0001
1000
0000
0001
0010
,
0001
0000
0001
0000
0000
1100
0000
1000
,
0100
1000
0100
0000
0000
0011
0000
0001
,
0010
0100
1000
0000
0000
0101
0000
0100
,
0010
1000
0010
0000
0000
0100
0000
0100
,
0100
0100
0100
0000
0000
1001
0000
0010
,
0001
1000
0100
1000
0001
0010
0000
0001
,
0010
0100
0010
0001
1000
0010
0000
0010
,
0100
0001
0100
0010
1000
0100
0000
0001
,
0010
1000
0000
0001
0100
1000
0000
0001
,
0010
1000
0000
0001
0100
1000
0000
0001
,
0010
1000
0000
0001
0100
1000
0000
0001
,
0010
1000
1001
0000
0000
0000
0000
0000
;
