#TITLE:Thrift Shop;
#SUBTITLE:;
#ARTIST:Macklemore & Ryan Lewis;
#TITLETRANSLIT:;
#SUBTITLETRANSLIT:;
#ARTISTTRANSLIT:;
#GENRE:;
#CREDIT:;
#BANNER:ts-bn.png;
#BACKGROUND:ts-bg.png;
#LYRICSPATH:;
#CDTITLE:;
#MUSIC:ts.ogg;
#OFFSET:0.000000;
#SAMPLESTART:20.180000;
#SAMPLELENGTH:12.000000;
#SELECTABLE:YES;
#BPMS:0.000000=95.000000
;
#STOPS:
;
#BGCHANGES:;
#KEYSOUNDS:;
#ATTACKS:;

//---------------dance-single - ----------------
#NOTES:
     dance-single:
     :
     Beginner:
     1:
     0.091711,0.131358,0.000000,0.108642,0.000000,65.000000,65.000000,0.000000,11.000000,0.000000,0.000000,0.091711,0.131358,0.000000,0.108642,0.000000,65.000000,65.000000,0.000000,11.000000,0.000000,0.000000:
// measure 0
0000
0000
0000
0000
,  // measure 1
0000
0000
0000
0000
,  // measure 2
0000
0000
0000
0000
,  // measure 3
0000
0000
0000
0000
,  // measure 4
0100
0000
1000
0000
,  // measure 5
0100
0000
1000
0000
,  // measure 6
0100
0000
0010
0000
,  // measure 7
0100
0000
0010
0000
,  // measure 8
0002
0000
0000
0000
0000
0003
0000
0000
,  // measure 9
2000
0000
0000
0000
0000
3000
0000
0000
,  // measure 10
0020
0000
0000
0000
0000
0030
0000
0000
,  // measure 11
0010
0010
0010
0000
,  // measure 12
0001
0000
1000
0000
,  // measure 13
0100
0000
1000
0000
,  // measure 14
0001
0000
0010
0000
,  // measure 15
0001
0001
0000
0000
,  // measure 16
0001
0000
1000
0000
,  // measure 17
0010
0000
1000
0000
,  // measure 18
0001
0000
0100
0000
,  // measure 19
0001
0000
0100
0000
,  // measure 20
0020
0000
0000
0000
,  // measure 21
0000
0000
0000
0000
,  // measure 22
0030
0000
0100
0100
,  // measure 23
0100
0000
0001
0001
,  // measure 24
0001
0000
1000
1000
,  // measure 25
1000
0000
0100
0100
,  // measure 26
0200
0000
0000
0000
0000
0300
0000
0000
,  // measure 27
0020
0000
0000
0000
0000
0030
0000
0000
,  // measure 28
0002
0000
0000
0000
0000
0003
0000
0000
,  // measure 29
2000
0000
0000
0000
0000
3000
0000
0000
,  // measure 30
0200
0300
0100
0000
,  // measure 31
2000
3000
1000
0000
,  // measure 32
0020
0030
0010
0000
,  // measure 33
0001
0001
0001
0001
,  // measure 34
0001
0000
0010
0000
,  // measure 35
1000
0000
0010
0000
,  // measure 36
0001
0000
0100
0000
,  // measure 37
1000
0000
0100
0000
,  // measure 38
0010
0000
0000
0000
;

//---------------dance-single - ----------------
#NOTES:
     dance-single:
     :
     Easy:
     3:
     0.141093,0.186420,0.069136,0.177778,0.000000,100.000000,93.000000,7.000000,18.000000,0.000000,0.000000,0.141093,0.186420,0.069136,0.177778,0.000000,100.000000,93.000000,7.000000,18.000000,0.000000,0.000000:
0000
0000
0000
0000
,
0000
0000
0000
0000
,
0000
0000
0000
0000
,
0000
0000
0000
0000
,
0001
0010
1000
0000
,
1000
0010
0001
0000
,
0001
0100
1000
0000
,
1000
0100
0001
0000
,
0002
0000
0000
0000
,
0023
0000
0000
0000
,
0230
0000
0000
0000
,
2300
0000
0000
0000
,
3001
0010
0002
0003
,
1000
0010
2000
3000
,
0001
0100
0002
0003
,
1000
1001
0000
0000
,
1001
0100
0010
0010
,
0001
0010
0100
0100
,
1000
0010
0001
0001
,
0100
1000
0010
0010
,
0010
0000
0000
0000
,
0000
0000
2000
0000
0002
0000
3003
1001
,
0000
0001
0000
0010
0000
0100
0000
1000
,
0000
1000
0000
0100
0000
0010
0000
0001
,
0000
0100
0010
0100
,
0000
1000
0001
1000
,
0020
0000
0000
0000
,
2030
0000
0000
0000
,
3002
0000
0000
0000
,
0203
0000
0020
0330
,
0110
0000
0000
0010
0010
0000
0000
0000
,
1001
0000
0000
1000
1000
0000
0000
0000
,
0110
0100
1000
0010
,
0001
1000
0010
0000
,
1000
0100
2000
3000
,
0001
0010
0002
0003
,
1000
0200
0310
0001
,
0010
0200
1300
1001
;

//---------------dance-single - ----------------
#NOTES:
     dance-single:
     :
     Medium:
     7:
     0.228571,0.319012,0.118519,0.266667,0.009877,162.000000,150.000000,12.000000,27.000000,0.000000,0.000000,0.228571,0.319012,0.118519,0.266667,0.009877,162.000000,150.000000,12.000000,27.000000,0.000000,0.000000:
0000
0000
0000
0000
,
0000
0000
0000
0000
,
0000
0000
0000
0000
,
0000
0000
0000
0000
,
1000
0001
1000
0100
2000
0000
3001
0000
,
0001
0100
0001
1000
0002
0000
0013
0000
,
0010
0001
0010
0100
0020
0000
0031
0000
,
0001
0010
0100
1000
0020
0000
0130
0000
,
0200
0000
0302
0000
,
2003
0000
3002
0000
,
0023
0000
0230
0000
,
2300
3200
0320
0032
,
1003
0000
0010
0100
0100
0000
0001
0100
,
0010
0000
0010
1000
1000
0000
1000
0100
,
0010
0000
0001
1000
0100
0000
1000
0010
,
0100
0001
0001
0000
0000
0000
0000
0000
,
1010
0000
0010
1000
0100
0000
0100
1000
,
0010
0000
0010
1000
0001
0000
0001
1000
,
0100
0000
0100
0010
0001
0000
0001
0010
,
0100
0000
0100
1000
0100
0010
0001
1000
,
0000
0000
0000
0000
,
0000
0000
0010
0000
0100
0010
0100
0110
,
1001
0000
0000
0001
0000
0000
0001
0000
0100
0000
0000
0010
0000
0000
0100
0000
,
1000
0001
0100
0001
2000
0000
3100
0000
,
0100
0001
0010
0001
0200
0000
0300
0000
,
0100
1000
0010
1000
0200
0000
0300
0000
,
0022
0000
0030
0000
,
2003
0000
0000
0000
,
0020
0000
0000
3000
,
0200
0030
0002
0303
,
0101
1001
1000
1000
,
1100
1001
0001
0001
,
0011
0110
0100
0100
,
1100
0110
0010
0001
,
0010
0001
1000
0001
0200
0000
0300
0000
,
0010
1000
0001
1000
0200
0000
0300
0000
,
0010
0010
0010
0000
0010
0100
0010
0000
,
0010
0001
0010
0100
2000
0002
0000
0000
,
3003
0000
0000
0000
;

//---------------dance-single - ----------------
#NOTES:
     dance-single:
     :
     Hard:
     8:
     0.300529,0.412840,0.177778,0.306173,0.079012,213.000000,195.000000,18.000000,31.000000,0.000000,0.000000,0.300529,0.412840,0.177778,0.306173,0.079012,213.000000,195.000000,18.000000,31.000000,0.000000,0.000000:
0010
0010
0000
0010
0000
0010
0000
0000
,
0010
0010
0000
0010
0000
0010
0000
0000
,
0010
0000
2000
0000
0000
0000
3001
0000
0200
0000
0000
0000
0310
0000
0000
1000
0000
0000
0100
0000
0000
0000
0000
0000
,
0010
0000
0002
0000
0000
0000
1003
0000
0200
0000
0000
0000
0310
0000
0000
0001
0000
0000
0100
0000
0000
1010
0000
0000
,
0100
0010
0001
0100
0020
0000
1030
1000
,
0100
0010
0001
0100
0020
0000
1030
1000
,
1000
0100
0001
0100
2000
0000
3010
0010
,
0001
0010
1000
0010
0002
0000
1003
0100
,
0020
1030
0200
1300
,
0002
0013
0200
1300
,
0002
0103
2000
3100
,
0020
0000
2030
0000
3200
0000
0300
1001
,
0000
0001
0001
0010
0100
0010
0100
1001
,
0000
1000
1000
0001
0100
0010
1000
1100
,
0000
0001
0010
0001
0100
0010
0100
0101
,
0100
0100
0100
0000
0000
0000
0000
0000
,
1100
0000
1000
0001
0101
0000
0100
0010
,
1010
0000
1000
0100
0110
0000
0010
1001
,
0101
0000
0001
1000
1010
0000
1000
0100
,
1100
0010
0100
0010
0001
1000
0001
0200
,
0300
0200
0000
0000
,
0000
0000
0000
0000
0000
0000
0300
0110
,
0001
0100
0001
0000
1000
0000
0100
0000
0010
0001
0010
0000
0100
0000
1000
0000
,
0010
0100
0010
0000
1000
0000
0001
0000
0010
0100
0010
0000
0100
0000
1000
0000
,
1001
0100
0001
0100
2000
0000
3000
0000
,
1001
1000
0100
0010
0002
0000
0003
0000
,
0022
0000
0000
0000
0000
0000
0000
0030
,
2000
0000
0000
0000
0000
0000
0000
3000
,
0200
0000
0000
0000
0000
0000
0000
0003
,
0020
0000
0000
0300
2000
0000
0000
0030
,
0200
0000
0000
0000
0000
0000
0000
0300
,
0002
0000
0000
0000
0000
0000
0000
0003
,
0020
0000
0000
0000
0000
0000
0000
0030
,
3100
0010
0001
0010
0100
1000
0100
0110
,
0001
0000
0010
0001
0010
0000
0010
0000
0100
0000
0000
0000
0100
0000
0100
0000
,
1000
0010
1000
0000
0001
0000
1000
0000
0010
0000
1000
0000
0000
0000
0000
0010
,
0000
0010
0000
0010
0100
0001
0000
0000
0001
0100
0010
0000
0100
0001
0000
0000
,
0001
0010
0100
1000
0200
0000
0000
0000
,
0300
0000
0000
0000
;
