#VERSION:0.83;
#TITLE:Tattoos;
#SUBTITLE:;
#ARTIST:Caravan Palace;
#TITLETRANSLIT:;
#SUBTITLETRANSLIT:;
#ARTISTTRANSLIT:;
#GENRE:;
#ORIGIN:;
#CREDIT:;
#BANNER:tat-bn.png;
#BACKGROUND:tat-bg.png;
#PREVIEWVID:;
#JACKET:;
#CDIMAGE:;
#DISCIMAGE:;
#LYRICSPATH:;
#CDTITLE:;
#MUSIC:tattoos.ogg;
#OFFSET:0.000000;
#SAMPLESTART:20.000000;
#SAMPLELENGTH:12.000000;
#SELECTABLE:YES;
#BPMS:0.000=240.000;
#STOPS:;
#DELAYS:;
#WARPS:;
#TIMESIGNATURES:0.000=4=4;
#TICKCOUNTS:0.000=4;
#COMBOS:0.000=1;
#SPEEDS:0.000=1.000=0.000=0;
#SCROLLS:0.000=1.000;
#FAKES:;
#LABELS:0.000=Song Start;
#BGCHANGES:;
#KEYSOUNDS:;
#ATTACKS:
;

//---------------dance-single - ----------------
#NOTEDATA:;
#CHARTNAME:;
#STEPSTYPE:dance-single;
#DESCRIPTION:;
#CHARTSTYLE:Pad;
#DIFFICULTY:Beginner;
#METER:3;
#RADARVALUES:0.140837,0.238934,0.000000,0.021908,0.000000,90.000000,90.000000,0.000000,2.000000,0.000000,0.000000,0.000000,0.000000,0.000000,0.140837,0.238934,0.000000,0.021908,0.000000,90.000000,90.000000,0.000000,2.000000,0.000000,0.000000,0.000000,0.000000,0.000000;
#CREDIT:Mozata;
#NOTES:
0000
0000
0000
0000
,
0000
0000
0000
0000
,
0000
0000
0000
0000
,
0000
0000
0000
0000
,
0100
0000
0000
0000
,
0100
0000
0000
0000
,
0001
0000
0000
0000
,
0001
0000
0000
0000
,
1000
0000
0000
0000
,
1000
0000
0000
0000
,
0010
0000
0000
0000
,
0010
0000
0000
0000
,
0010
0000
0000
0000
,
0010
0000
0000
0000
,
1000
0000
0000
0000
,
1000
0000
0000
0000
,
0001
0000
0000
0000
,
0001
0000
0000
0000
,
0100
0000
0000
0000
,
0100
0000
0100
0000
,
0100
0000
0000
0000
,
1000
0000
0000
0000
,
0010
0000
0000
0000
,
0001
0000
0000
0000
,
0010
0000
0000
0000
,
1000
0000
0000
0000
,
0100
0000
0000
0000
,
0000
0000
0000
0000
,
0100
0000
0000
0000
,
0010
0000
0000
0000
,
0001
0000
0000
0000
,
0010
0000
0000
0000
,
0100
0000
0000
0000
,
1000
0000
0000
0000
,
0100
0000
0000
0000
,
0001
0000
0000
0000
,
0200
0000
0000
0000
,
0300
0000
0000
0000
,
2000
0000
0000
0000
,
3000
0000
0000
0000
,
0010
0000
0000
0000
,
0010
0000
0000
0000
,
0010
0000
0010
0000
,
0010
0000
0000
0000
,
0001
0000
0000
0000
,
0001
0000
0000
0000
,
0001
0000
0001
0000
,
0001
0000
0001
0000
,
1000
0000
0000
0000
,
1000
0000
0000
0000
,
0100
0000
0100
0000
,
0100
0000
0000
0000
,
0100
0000
0000
0000
,
0010
0000
0000
0000
,
1000
0000
1000
0000
,
0001
0000
0001
0000
,
0100
0000
0000
0000
,
0010
0000
0000
0000
,
1000
0000
0000
0000
,
0001
0000
0000
0000
,
0100
0000
0000
0000
,
0010
0000
0000
0000
,
1000
0000
0000
0000
,
0001
0000
0000
0000
,
0001
0000
0000
0000
,
0010
0000
0000
0000
,
0100
0000
0100
0000
,
1000
0000
0000
0000
,
1000
0000
0000
0000
,
0100
0000
0000
0000
,
0010
0000
0010
0000
,
0001
0000
0000
0000
,
0000
0001
0000
0000
,
0000
1000
0000
0000
,
0000
0010
0000
0000
,
0000
0100
0000
0000
,
0000
0100
0000
0000
,
0000
1000
0000
0000
,
0000
0010
0000
0000
,
0000
0001
0000
0000
,
0000
1000
0000
0000
,
0000
0100
0000
0000
,
0000
0010
0000
0000
,
0000
0001
0000
0000
,
0000
1000
0000
0000
,
0000
0010
0000
0000
,
0000
0100
0000
0000
,
0000
0001
0000
0000
;

//---------------dance-single - ----------------
#NOTEDATA:;
#CHARTNAME:;
#STEPSTYPE:dance-single;
#DESCRIPTION:;
#CHARTSTYLE:Pad;
#DIFFICULTY:Easy;
#METER:5;
#RADARVALUES:0.255071,0.481975,0.087632,0.021908,0.000000,163.000000,155.000000,8.000000,2.000000,0.000000,0.000000,0.000000,0.000000,0.000000,0.255071,0.481975,0.087632,0.021908,0.000000,163.000000,155.000000,8.000000,2.000000,0.000000,0.000000,0.000000,0.000000,0.000000;
#CREDIT:Mozata;
#NOTES:
0000
0000
0000
0000
,
0000
0000
0000
0000
,
0000
0000
0000
0000
,
0000
0000
0000
0000
,
1001
0000
0000
0000
,
0010
0000
0000
0000
,
1001
0000
0000
0000
,
0100
0000
0000
0000
,
0001
0000
0000
0000
,
0010
0000
0000
0000
,
1000
0000
0000
0000
,
0100
0000
0000
0000
,
1001
0000
0000
0000
,
0100
0000
0000
0000
,
1001
0000
0000
0000
,
0010
0000
0000
0000
,
0110
0000
0000
0000
,
1000
0000
0000
0000
,
0110
0000
0000
0000
,
0001
0000
0001
0000
,
0000
0001
0000
0010
,
0000
0100
0000
1000
,
0000
0010
0000
0100
,
0000
0001
0000
0010
,
0000
1000
0000
0010
,
0000
0001
0000
0100
,
0000
1000
0000
0100
,
0000
0010
0000
0001
,
0000
1000
0000
0010
,
0000
0100
0000
0001
,
0000
1000
0000
0010
,
0000
1000
0000
0100
,
0000
0001
0000
0100
,
0000
1000
0000
0001
,
0000
0010
0000
0100
,
0000
1000
0000
0010
,
0002
0000
0000
0000
,
1003
0000
0100
0000
,
0002
0000
0000
0000
,
1003
0000
0010
0000
,
0000
0010
0000
0010
,
0000
0100
0000
0100
,
0000
0010
0000
1000
,
0000
0001
0000
1000
,
0000
0100
0000
0100
,
0000
0010
0000
0010
,
0000
0100
0000
0100
,
0000
0001
0000
1000
,
0000
0100
0000
0010
,
0000
0001
0000
0010
,
0000
0100
0000
1000
,
0000
1000
0000
1000
,
0000
0010
0000
1000
,
0000
0001
0000
0100
,
0000
0001
0000
0010
,
1001
0000
0000
0000
,
0000
0010
0000
0100
,
0000
0010
0000
0100
,
0000
0001
0000
1000
,
0000
0001
0000
1000
,
0000
0100
0000
0010
,
0000
0100
0000
0010
,
0000
0001
0000
1000
,
0000
0001
0000
1000
,
0000
1000
0000
0100
,
0000
0010
0000
0001
,
0000
0001
0000
0010
,
0000
0100
0000
1000
,
0000
0001
0000
0010
,
0000
1000
0000
0010
,
0000
0100
0000
0001
,
0000
0100
0000
1000
,
1000
0000
0000
1000
,
0100
0000
0000
0100
,
0001
0000
0000
0001
,
0010
0000
0000
0010
,
1000
0000
0000
1000
,
0001
0000
0000
0001
,
0010
0000
0000
0100
,
1000
0000
0000
1000
,
0010
0000
0000
0100
,
0001
0000
0000
0001
,
0100
0000
0000
0010
,
1000
0000
0000
1000
,
0100
0000
0000
0010
,
0001
0000
0000
0100
,
0001
1000
0001
1000
,
0010
0100
0010
0100
,
0110
0000
0000
0000
;

//---------------dance-single - ----------------
#NOTEDATA:;
#CHARTNAME:;
#STEPSTYPE:dance-single;
#DESCRIPTION:;
#CHARTSTYLE:Pad;
#DIFFICULTY:Medium;
#METER:7;
#RADARVALUES:0.439724,0.578370,0.087632,0.043816,0.158833,281.000000,273.000000,8.000000,4.000000,0.000000,0.000000,0.000000,0.000000,0.000000,0.439724,0.578370,0.087632,0.043816,0.158833,281.000000,273.000000,8.000000,4.000000,0.000000,0.000000,0.000000,0.000000,0.000000;
#CREDIT:Mozata;
#NOTES:
0000
0000
0000
0000
,
0000
0000
0000
0000
,
0000
0000
0000
0000
,
0000
0000
0000
0000
,
1000
0000
0000
0000
0000
0000
0000
0000
1000
0000
0000
0000
,
0010
0000
0000
0000
0000
0000
0000
0000
0010
0000
0000
0000
,
0100
0000
0000
0000
0000
0000
0000
0000
0100
0000
0000
0000
,
0001
0000
0000
0000
0000
0000
0000
0000
0001
0000
0000
0000
,
0010
0000
0000
0000
0000
0000
0000
0000
0010
0000
0000
0000
,
0100
0000
0000
0000
0000
0000
0000
0000
0100
0000
0000
0000
,
0010
0000
0000
0000
0000
0000
0000
0000
0010
0000
0000
0000
,
0001
0000
0000
0000
0000
0000
0000
0000
0001
0000
0000
0000
,
1000
0000
0000
0000
0000
0000
0000
0000
0010
0000
0000
0000
,
1000
0000
0000
0000
0000
0000
0000
0000
0010
0000
0000
0000
,
0100
0000
0000
0000
0000
0000
0000
0000
0001
0000
0000
0000
,
0010
0000
0000
0000
0000
0000
0000
0000
0100
0000
0000
0000
,
0010
0000
0000
0000
0000
0000
0000
0000
0001
0000
0000
0000
,
1000
0000
0000
0000
0000
0000
0000
0000
0100
0000
0000
0000
,
0001
0000
0000
0000
0000
0000
0000
0000
0010
0000
0000
0000
,
1000
0000
0000
1000
0000
0000
1000
0000
,
1000
0010
0010
0100
,
0100
0001
0001
1000
,
1000
0001
0001
0010
,
0010
0100
0100
0010
,
0010
0001
0001
1000
,
1000
0010
0010
0100
,
0100
0001
0001
0001
,
0010
0100
1000
0000
,
0011
0001
0100
0010
,
1000
0010
0100
0001
,
1000
0010
0100
0001
,
0100
0010
1000
0000
,
1010
1000
0100
0010
,
0001
0010
0100
1000
,
0001
0100
0010
1000
,
0010
0100
0001
1000
,
0200
0000
0000
0000
,
0001
0000
2300
0000
,
3020
0000
0000
0000
,
0001
0000
2030
0000
,
3010
0100
0010
1000
,
0010
0001
0010
0100
,
1000
0100
0010
0100
,
0001
0100
0010
0000
,
1000
0100
1000
0010
,
1000
0001
1000
0010
,
1000
0001
0100
0001
,
0010
0001
1000
0000
,
0100
0001
0100
0001
,
1000
0010
1000
0010
,
1000
0100
0010
0001
,
0010
0100
1000
0000
,
1001
0001
0010
0100
,
1001
1000
0010
0100
,
0010
1000
0001
0010
,
0100
0000
0000
0100
0000
0000
0100
0000
,
1000
1000
0010
0010
,
1000
1000
0001
0001
,
0010
0010
0001
0001
,
0100
0100
0100
0000
,
1001
1000
0010
1000
,
0001
0010
0001
1000
,
0100
1000
0001
0100
,
0001
1000
1000
0000
,
0100
0010
0100
1000
,
0100
0010
0001
0010
,
0001
1000
0100
1000
,
0010
1000
0010
0000
,
0100
0010
1000
1000
,
0100
0010
0001
0001
,
1000
0001
0100
0001
,
0010
0001
1001
0110
,
1001
0000
0000
0001
0000
0000
0000
0000
0010
0000
0000
0000
,
0100
0000
0000
0100
0000
0000
0000
0000
1000
0000
0000
0000
,
0010
0000
0000
0010
0000
0000
0000
0000
0100
0000
0000
0000
,
0010
0000
0000
0010
0000
0000
0000
0000
1000
0000
0000
0000
,
0100
0000
0000
0001
0000
0000
0000
0000
0100
0000
0000
0000
,
0010
0000
0000
1000
0000
0000
0000
0000
0010
0000
0000
0000
,
0001
0000
0000
1000
0000
0000
0000
0000
0100
0000
0000
0000
,
0010
0001
1000
0100
,
0001
0000
0000
0001
0000
0000
0000
0000
0001
0000
0000
0000
,
1000
0000
0000
1000
0000
0000
0000
0000
1000
0000
0000
0000
,
0010
0000
0000
1000
0000
0000
0000
0000
0001
0000
0000
0000
,
0010
0000
0000
1000
0000
0000
0000
0000
0001
0000
0000
0000
,
1000
0000
0000
0100
0000
0000
0000
0000
0001
0000
0000
0000
,
0100
0000
0000
0100
0000
0000
0000
0000
1000
0000
0000
0000
,
0010
0000
0000
0100
0000
0000
0000
0000
0100
0000
0000
0000
,
0100
0001
0010
1000
,
0100
0000
0000
0000
;

//---------------dance-single - ----------------
#NOTEDATA:;
#CHARTNAME:;
#STEPSTYPE:dance-single;
#DESCRIPTION:;
#CHARTSTYLE:Pad;
#DIFFICULTY:Hard;
#METER:11;
#RADARVALUES:0.552394,0.578370,0.580561,0.054770,0.596992,353.000000,300.000000,53.000000,5.000000,0.000000,0.000000,0.000000,0.000000,0.000000,0.552394,0.578370,0.580561,0.054770,0.596992,353.000000,300.000000,53.000000,5.000000,0.000000,0.000000,0.000000,0.000000,0.000000;
#CREDIT:Mozata;
#NOTES:
// measure 0
0000
0000
0000
0000
,  // measure 1
0000
0000
0000
0000
,  // measure 2
0000
0000
0000
0000
,  // measure 3
0000
0000
0000
0000
,  // measure 4
1100
0000
0000
0000
0000
0000
0000
0000
1001
0000
0000
0000
,  // measure 5
0101
0000
0000
0000
0000
0000
0000
0000
1001
0000
0000
0000
,  // measure 6
1010
0000
0000
0000
0000
0000
0000
0000
1001
0000
0000
0000
,  // measure 7
0011
0000
0000
0000
0000
0000
0000
0000
1001
0000
0000
0000
,  // measure 8
1100
0000
0000
0000
0000
0000
0000
0000
0110
0000
0000
0000
,  // measure 9
0101
0000
0000
0000
0000
0000
0000
0000
0110
0000
0000
0000
,  // measure 10
1010
0000
0000
0000
0000
0000
0000
0000
0110
0000
0000
0000
,  // measure 11
0011
0000
0000
0000
0000
0000
0000
0000
0110
0000
0000
0000
,  // measure 12
1100
0000
0000
0000
0000
0000
0000
0000
0101
0000
0000
0000
,  // measure 13
1010
0000
0000
0000
0000
0000
0000
0000
0011
0000
0000
0000
,  // measure 14
1100
0000
0000
0000
0000
0000
0000
0000
0110
0000
0000
0000
,  // measure 15
1001
0000
0000
0000
,  // measure 16
0101
0000
0000
0000
0000
0000
0000
0000
1100
0000
0000
0000
,  // measure 17
1010
0000
0000
0000
0000
0000
0000
0000
0011
0000
0000
0000
,  // measure 18
1001
0000
0000
0000
0000
0000
0000
0000
1010
0000
0000
0000
,  // measure 19
0110
0000
0100
0010
0000
0000
0100
0000
,  // measure 20
0000
0000
0010
0001
0000
0000
0000
0000
0010
1000
0000
0000
,  // measure 21
0000
0000
0010
0001
0000
0000
0000
0000
0010
1000
0000
0000
,  // measure 22
0000
0000
0100
0001
0000
0000
0000
0000
0100
1000
0000
0000
,  // measure 23
0000
0000
0100
0001
0000
0000
0000
0000
0100
1000
0000
0000
,  // measure 24
0000
0000
0010
0001
0000
0000
0000
0000
1000
0001
0000
0000
,  // measure 25
0000
0000
0100
0001
0000
0000
0000
0000
0100
0010
0000
0000
,  // measure 26
0000
0000
0010
1000
0000
0000
0000
0000
0001
1000
0000
0000
,  // measure 27
0000
0000
0100
1000
0000
0000
0000
0000
0100
0010
0000
0000
,  // measure 28
0000
0000
0001
1000
0000
0000
0000
0000
0010
0100
0000
0000
,  // measure 29
0000
0000
1000
0001
0000
0000
0000
0000
0100
0001
0000
0000
,  // measure 30
0000
0000
0100
0010
0000
0000
0000
0000
1000
0010
0000
0000
,  // measure 31
0000
0000
0010
1000
0000
0000
0000
0000
0001
0010
0000
0000
,  // measure 32
0000
0000
0100
1000
0000
0000
0000
0000
0001
0100
0000
0000
,  // measure 33
0000
0000
1000
0100
0000
0000
0000
0000
0001
0010
0000
0000
,  // measure 34
0000
0000
1000
0010
0000
0000
0000
0000
0001
0010
0000
0000
,  // measure 35
0000
0000
1000
0010
0000
0000
0000
0000
1000
0001
0000
1000
,  // measure 36
0002
0100
0100
0100
,  // measure 37
0203
0000
0320
0000
,  // measure 38
2030
0001
0001
0001
,  // measure 39
3200
0000
0310
0000
,  // measure 40
1001
0000
0000
1000
0000
0000
0100
0000
1000
0000
0000
0000
,  // measure 41
1001
0000
0000
0001
0000
0000
0010
0000
0001
0000
0000
0000
,  // measure 42
0011
0000
0000
0001
0000
0000
0100
0000
0001
0000
0000
0000
,  // measure 43
1100
0000
0000
1000
0000
0000
0100
0000
1000
0000
0000
0000
,  // measure 44
1010
0000
0000
0010
0000
0000
1000
0000
0010
0000
0000
0000
,  // measure 45
0101
0000
0000
0100
0000
0000
0010
0000
0100
0000
0000
0000
,  // measure 46
1010
0000
0000
1000
0000
0000
0001
0000
1000
0000
0000
0000
,  // measure 47
1001
0000
0000
0001
0000
0000
1000
0000
0001
0000
0000
0000
,  // measure 48
1000
0000
0000
0010
0000
0000
1000
0000
1000
0010
0000
0000
,  // measure 49
0100
0000
0000
0001
0000
0000
0100
0000
0100
0001
0000
0000
,  // measure 50
0001
0000
0000
0010
0000
0000
0001
0000
0001
0010
0000
0000
,  // measure 51
0100
0000
0000
1000
0000
0000
0100
0000
0100
1000
0000
0000
,  // measure 52
0010
0000
0000
1000
0000
0000
0010
0000
0010
1000
0000
0000
,  // measure 53
0001
0000
0000
0100
0000
0000
0001
0000
0001
0100
0000
0000
,  // measure 54
1000
0100
0001
0100
,  // measure 55
0010
0000
0100
0010
0000
0000
0000
0000
,  // measure 56
0000
0000
0010
1000
0000
0000
0000
0000
0010
0001
0000
0000
,  // measure 57
0000
0000
0010
1000
0000
0000
0000
0000
0010
0001
0000
0000
,  // measure 58
0000
0000
0100
1000
0000
0000
0000
0000
0100
0001
0000
0000
,  // measure 59
0000
0000
0100
1000
0000
0000
0000
0000
0100
0001
0000
0000
,  // measure 60
0000
0000
1000
0100
0000
0000
0000
0000
0001
0010
0000
0000
,  // measure 61
0000
0000
1000
0010
0000
0000
0000
0000
0001
0100
0000
0000
,  // measure 62
0000
0000
1000
0100
0000
0000
0000
0000
0001
0100
0000
0000
,  // measure 63
0000
0000
0010
1000
0000
0000
0000
0000
0010
0001
0000
0000
,  // measure 64
0000
0000
0010
1000
0000
0000
0000
0000
0010
0001
0000
0000
,  // measure 65
0000
0000
0100
1000
0000
0000
0000
0000
0100
0001
0000
0000
,  // measure 66
0000
0000
0100
1000
0000
0000
0000
0000
0100
0001
0000
0000
,  // measure 67
0000
0000
0010
1000
0000
0000
0000
0000
0010
0001
0000
0000
,  // measure 68
0000
0000
0001
0010
0000
0000
0000
0000
0010
0100
0000
0000
,  // measure 69
0000
0000
0100
1000
0000
0000
0000
0000
1000
0010
0000
0000
,  // measure 70
0000
0000
0010
0100
0000
0000
0000
0000
0100
0001
0000
0000
,  // measure 71
0000
0000
0001
1000
0000
0000
1000
0000
0000
1000
0000
0000
,  // measure 72
0001
0000
0000
0101
0000
0000
0000
0000
0001
1000
0000
0000
,  // measure 73
0000
0000
0000
1100
0000
0000
0000
0000
1000
0001
0000
0000
,  // measure 74
0000
0000
0000
0011
0000
0000
0000
0000
0001
1000
0000
0000
,  // measure 75
0000
0000
0000
1010
0000
0000
0000
0000
0010
0100
0000
0000
,  // measure 76
0000
0000
0000
0101
0000
0000
0000
0000
0100
1000
0000
0000
,  // measure 77
0000
0000
0000
0011
0000
0000
0000
0000
0010
1000
0000
0000
,  // measure 78
0000
0000
0000
0101
0000
0000
0001
0000
0100
0001
0000
0000
,  // measure 79
1000
0000
0000
1100
0000
0000
0000
0000
1000
0001
0000
0000
,  // measure 80
0000
0000
0000
0101
0000
0000
0000
0000
0001
1000
0000
0000
,  // measure 81
0000
0000
0000
1010
0000
0000
0000
0000
1000
0001
0000
0000
,  // measure 82
0000
0000
0000
0011
0000
0000
0000
0000
0010
0001
0000
0000
,  // measure 83
0000
0000
0000
1001
0000
0000
0000
0000
0100
1000
0000
0000
,  // measure 84
0000
0000
0000
1001
0000
0000
0000
0000
1000
0010
0000
0000
,  // measure 85
0000
0000
0000
0110
0000
0000
0000
0000
0100
0010
0000
0100
,  // measure 86
0010
1000
0100
0010
,  // measure 87
0001
0000
0010
0100
0000
0000
1000
0000
0010
0100
0000
0000
,  // measure 88
0101
0000
0000
0000
;
