#VERSION:0.83;
#TITLE:Stayin Alive;
#SUBTITLE:;
#ARTIST:The Beegees;
#TITLETRANSLIT:;
#SUBTITLETRANSLIT:;
#ARTISTTRANSLIT:;
#GENRE:;
#ORIGIN:;
#CREDIT:;
#BANNER:sa-bn.png;
#BACKGROUND:sabg.png;
#PREVIEWVID:;
#JACKET:;
#CDIMAGE:;
#DISCIMAGE:;
#LYRICSPATH:;
#CDTITLE:;
#MUSIC:beegees.ogg;
#OFFSET:0.000000;
#SAMPLESTART:32.464001;
#SAMPLELENGTH:12.000000;
#SELECTABLE:YES;
#BPMS:0.000=103.500,
56.000=103.800,
100.000=103.500;
#STOPS:;
#DELAYS:;
#WARPS:;
#TIMESIGNATURES:0.000=4=4;
#TICKCOUNTS:0.000=4;
#COMBOS:0.000=1;
#SPEEDS:0.000=1.000=0.000=0;
#SCROLLS:0.000=1.000;
#FAKES:;
#LABELS:0.000=Song Start;
#BGCHANGES:0.000=sabg.png=1.000=1=0=1===CrossFade==,
99999=-nosongbg-=1.000=0=0=0 // don't automatically add -songbackground-
;
#KEYSOUNDS:;
#ATTACKS:
;

//---------------dance-single - ----------------
#NOTEDATA:;
#CHARTNAME:;
#STEPSTYPE:dance-single;
#DESCRIPTION:;
#CHARTSTYLE:Pad;
#DIFFICULTY:Beginner;
#METER:1;
#RADARVALUES:0.100635,0.149232,0.009269,0.064883,0.000000,76.000000,75.000000,1.000000,7.000000,0.000000,0.000000,0.000000,0.000000,0.000000,0.100635,0.149232,0.009269,0.064883,0.000000,76.000000,75.000000,1.000000,7.000000,0.000000,0.000000,0.000000,0.000000,0.000000;
#CREDIT:Mozata;
#NOTES:
0000
0000
0000
0000
,
0000
0000
0000
0000
,
0002
0000
0000
0003
,
0001
0000
0000
0000
,
1000
0000
0000
0000
,
1000
0000
0000
0000
,
0001
0001
0000
0000
,
1000
1000
0000
0000
,
0010
0010
0000
0000
,
0100
0100
0000
0000
,
0002
0000
0000
0000
,
0003
0000
0000
0000
,
0002
0000
0000
0000
,
0003
0000
0000
0000
,
1000
1000
1000
0000
,
1000
0000
1000
0000
,
0010
0010
0010
0000
,
0010
0000
0010
0000
,
0100
0100
0100
0000
,
0100
0000
0100
0000
,
0001
0001
0001
0000
,
0002
0000
0003
0000
,
0020
0000
0030
0000
,
0200
0000
0300
0000
,
2000
0000
3000
0000
,
1000
0000
0001
0000
,
1000
0000
0001
0000
,
0010
0010
0010
0000
,
0010
0010
0010
0000
,
0001
0000
0000
1000
,
1000
0000
0000
0100
,
0100
0000
0000
0100
,
0100
0000
0000
0000
,
0010
0000
0010
0000
,
0010
0000
0010
0000
,
0010
0000
0010
0000
,
0100
0000
0000
0000
,
0100
0000
0000
0000
,
0010
0000
0010
0000
,
0010
0000
0010
0000
,
1001
0000
0000
0000
,
1000
0000
0001
0000
,
1000
0000
0000
0000
,
0001
0000
0000
0000
,
0010
0000
0010
0000
,
0010
0000
0010
0000
,
0010
0000
0000
0000
;

//---------------dance-single - ----------------
#NOTEDATA:;
#CHARTNAME:;
#STEPSTYPE:dance-single;
#DESCRIPTION:;
#CHARTSTYLE:Pad;
#DIFFICULTY:Easy;
#METER:2;
#RADARVALUES:0.146981,0.213188,0.101959,0.148305,0.000000,111.000000,100.000000,11.000000,16.000000,0.000000,0.000000,0.000000,0.000000,0.000000,0.146981,0.213188,0.101959,0.148305,0.000000,111.000000,100.000000,11.000000,16.000000,0.000000,0.000000,0.000000,0.000000,0.000000;
#CREDIT:Mozata;
#NOTES:
0000
0000
0000
0000
,
0000
0000
0000
0000
,
0001
0000
1000
0000
,
0001
0001
1000
0000
,
0001
0000
0100
0000
,
0010
0000
1000
1000
,
0001
0000
0100
0000
,
0010
0010
0100
0000
,
1000
1000
0100
0000
,
0010
0010
0100
0000
,
2000
0000
3002
0000
,
0203
0000
2300
0000
,
3200
0000
0302
0000
,
0023
0000
0230
0000
,
1300
0001
1000
1000
,
0001
0000
0001
0000
,
0001
1000
0001
0001
,
1000
0000
1000
0000
,
1001
1001
1001
0000
,
0001
0000
1000
0000
,
0110
0000
0110
0000
,
0220
0000
0000
0330
,
0002
0000
0000
0000
,
2003
0000
0000
0000
,
3010
0010
0010
0010
,
0010
0000
0001
0000
,
0100
0100
0100
0100
,
0020
0000
0000
0000
,
0030
0000
1000
0000
,
0100
0000
0000
1000
,
0000
0010
0000
0001
,
0000
0100
0000
1000
,
0000
0010
0010
0010
,
0200
0000
0000
0000
,
0300
0000
0000
0000
,
0110
1001
0110
0000
,
1000
1001
0000
0100
,
0000
0010
0000
0100
,
0020
0000
0000
0000
,
0030
0000
0100
0100
,
0001
0001
0000
0100
,
0010
0010
0000
0100
,
0100
0000
0010
1000
,
1000
0000
1000
1000
,
0200
0000
0000
0000
,
0300
0000
0010
0010
,
1001
0000
0000
0000
;

//---------------dance-single - ----------------
#NOTEDATA:;
#CHARTNAME:;
#STEPSTYPE:dance-single;
#DESCRIPTION:;
#CHARTSTYLE:Pad;
#DIFFICULTY:Medium;
#METER:5;
#RADARVALUES:0.230402,0.300085,0.296609,0.213188,0.032442,174.000000,142.000000,32.000000,23.000000,0.000000,0.000000,0.000000,0.000000,0.000000,0.230402,0.300085,0.296609,0.213188,0.032442,174.000000,142.000000,32.000000,23.000000,0.000000,0.000000,0.000000,0.000000,0.000000;
#CREDIT:Mozata;
#NOTES:
0000
0000
0000
0000
,
0000
0000
0000
0000
,
1000
0001
1000
1000
,
0001
1000
0001
0001
,
1000
0000
0001
0000
,
1000
0001
1000
0001
,
0100
0100
0010
0010
,
1000
1000
0010
0010
,
0001
0001
0100
0100
,
1000
1000
0010
0010
,
1001
0000
0101
0000
,
1001
0000
1100
0000
,
0110
0000
0011
0000
,
0110
0000
1010
0000
,
1000
0100
0010
0001
,
0002
0000
0000
0010
0003
0000
0000
0000
0002
0000
0000
0010
0003
0000
0000
0000
,
0001
0010
0100
1000
,
2000
0000
0000
0100
3000
0000
0000
0000
2000
0000
0000
0100
3000
0000
0000
0000
,
1100
0110
0011
0110
,
2000
0000
0000
0100
3000
0000
0000
0000
2000
0000
0000
0100
3000
0000
0000
0000
,
0101
1001
1010
1001
,
0002
0000
0000
0200
0000
0000
0000
0000
0000
0000
0000
0000
0000
0000
0300
0000
,
2000
0000
0000
0000
0000
0000
0000
3000
,
0020
0000
0000
0000
0000
0000
0000
0030
,
0200
0000
0000
0303
,
1000
1001
0000
0010
,
0100
0000
0010
0000
0000
0000
0010
0001
,
0200
0010
0310
0000
,
0002
1000
1003
0000
,
0010
0101
0000
1000
,
0100
0000
0010
0000
0000
0000
1000
0001
,
1000
0100
0000
0010
,
0001
1000
0000
1001
,
0210
0001
0301
0000
,
0120
1000
1030
0000
,
1001
0110
1001
0110
,
1000
0000
0011
0000
0000
0000
0000
0001
,
0100
1010
0000
0200
,
0020
0000
0000
0330
,
2002
3003
2020
3030
,
1000
1000
0001
0000
0001
0001
1000
0000
,
1000
0001
1000
0001
,
1000
1000
0001
1000
,
0001
0001
1000
0001
,
2001
0010
3100
0000
,
1002
0010
0103
0000
,
0010
1001
0000
0000
;

//---------------dance-single - ----------------
#NOTEDATA:;
#CHARTNAME:;
#STEPSTYPE:dance-single;
#DESCRIPTION:;
#CHARTSTYLE:Pad;
#DIFFICULTY:Hard;
#METER:7;
#RADARVALUES:0.373410,0.364389,0.380031,0.268802,0.185381,282.000000,241.000000,41.000000,29.000000,0.000000,0.000000,0.000000,0.000000,0.000000,0.373410,0.364389,0.380031,0.268802,0.185381,282.000000,241.000000,41.000000,29.000000,0.000000,0.000000,0.000000,0.000000,0.000000;
#CREDIT:Mozata;
#NOTES:
0001
0000
0000
1000
0000
0000
0001
0000
1000
0000
0000
0000
1000
0000
0000
0000
,
0001
0000
0000
0001
0000
0000
1000
0000
0001
0000
0000
0000
0001
0000
0000
0000
,
2100
0000
0000
3000
0001
0000
0000
0000
0102
0000
0000
0003
1000
0000
0000
0000
,
1020
0000
0000
0030
0100
0000
0000
0000
0021
0000
0000
0030
0100
0000
0000
0000
,
1000
0000
0000
0001
0000
0000
0001
0000
1000
0000
0000
0000
1000
0000
0000
0000
,
0001
0000
0000
1000
0000
0000
1000
0000
0001
0000
0100
0000
0001
0000
0010
0000
,
0100
0000
1000
0000
0100
0000
0000
0010
0000
0001
0000
0010
0000
0000
0000
0000
,
0010
0000
0001
0000
0000
0000
0000
0000
0100
0000
0100
0001
0000
0000
0000
0000
,
0010
0000
1000
0000
0100
0000
0000
0100
0000
0001
0000
0010
0000
0000
0000
0000
,
1001
0000
0010
0000
0100
0000
0000
0000
1000
0000
1000
0001
0000
0000
0010
0000
,
2100
0000
0000
3001
0000
0000
0000
0000
0102
0000
0000
1003
0000
0000
0000
0000
,
2010
0000
0000
3001
0000
0000
0000
0000
0012
0000
0000
1003
0000
0000
0000
0000
,
1200
0000
0000
0310
0000
0000
0000
0000
0201
0000
0000
0310
0000
0000
0000
0000
,
1020
0000
0000
0130
0000
0000
0000
0000
0021
0000
0000
0130
0000
0000
0000
0000
,
1000
1000
0100
0100
0010
0010
0001
0001
,
0100
0000
0000
1000
0000
0000
0000
0000
0100
0000
0000
0001
0000
0000
0000
0000
,
0001
0001
0100
0100
0010
0010
1000
1000
,
0100
0000
0000
0001
0000
0000
0000
0000
0100
0000
0000
1000
0000
0000
0000
0000
,
1010
1001
0011
0110
,
2100
0000
0000
3001
0000
0000
0000
0000
2100
0000
0000
3001
0000
0000
0000
0000
,
1001
0101
0110
1010
,
1000
0000
1000
0002
0000
0000
0000
0000
1000
0000
0000
0000
1003
0000
0000
0000
,
0200
0000
0000
0000
0010
0000
0310
0100
,
2002
0000
0000
3003
,
0210
0000
0000
0001
0000
0000
0010
0000
1000
0000
0300
0000
0110
0000
0000
0000
,
0001
0000
1100
0000
1000
0000
0101
0010
,
0001
1001
0100
1000
,
0200
0000
0010
0000
0010
0000
0010
0000
0010
0000
0000
0010
0000
0000
0000
0000
,
0000
0010
1000
0300
,
1000
0100
0011
0000
0010
0100
0001
0000
,
0001
1000
0100
0000
0100
1000
0001
0000
,
0100
0000
0000
0100
0000
0000
0100
0000
0010
0000
0001
0000
0010
0000
0000
0000
,
1000
0000
0000
1000
0000
0000
1000
0000
0001
0000
0100
0000
1000
0000
0000
0000
,
0102
0000
0100
0000
0100
0000
0000
0000
1000
0000
0000
0010
0000
0000
0000
0000
,
0010
0000
0010
0000
0010
0000
0000
0000
1000
0000
0000
0100
0000
0000
0003
0000
,
0022
0000
0000
0033
2002
0000
0000
3003
0202
0000
0000
0303
0000
0000
0000
0000
,
0100
0000
0110
0000
0100
0100
1000
0001
,
0010
0100
0010
0000
0000
0000
0000
0000
1000
0010
1000
0000
0000
0000
0000
0000
,
0201
0000
1000
0000
1000
0000
1000
0000
1000
0000
0000
0001
0000
0000
0000
0000
,
1000
0000
0000
0000
0001
0000
0001
0000
0001
0000
0000
0001
0300
0000
0100
0000
,
0010
1001
0100
1001
,
0010
0010
1001
0000
0100
0100
1001
0000
,
1000
0010
0010
1000
0001
0100
0100
0001
,
0010
1000
1000
0100
0010
0001
0010
0100
,
2000
0000
0001
0000
0001
0000
0100
0000
0001
0000
0000
0100
0000
0000
0000
0000
,
3001
0000
0000
0000
0001
0000
0001
0000
1000
0000
1000
0001
0000
0001
0010
0000
,
0010
1100
0000
0000
;

//---------------dance-single - ----------------
#NOTEDATA:;
#CHARTNAME:;
#STEPSTYPE:dance-single;
#DESCRIPTION:;
#CHARTSTYLE:Pad;
#DIFFICULTY:Challenge;
#METER:12;
#RADARVALUES:0.443590,0.535142,0.407838,0.296609,0.398569,335.000000,291.000000,44.000000,32.000000,0.000000,0.000000,0.000000,0.000000,0.000000,0.443590,0.535142,0.407838,0.296609,0.398569,335.000000,291.000000,44.000000,32.000000,0.000000,0.000000,0.000000,0.000000,0.000000;
#CREDIT:Mozata;
#NOTES:
// measure 0
1000
0001
0000
0001
0000
0000
0001
0000
1000
0000
1000
0000
0010
0000
0010
0000
,  // measure 1
0100
0001
0000
0001
0000
0000
0100
0000
0010
0000
0010
0000
0001
0000
0001
0000
,  // measure 2
2100
0000
0000
3100
0000
0000
0000
0000
0201
0000
0000
0301
0000
0000
0000
0000
,  // measure 3
0012
0000
0000
0013
0000
0000
0000
0000
1020
0000
0000
1030
0000
0000
0000
0000
,  // measure 4
0100
0010
0000
1000
0000
0000
0010
0000
0100
0000
0001
0000
0100
0000
0010
0000
,  // measure 5
1000
0100
0000
0001
0000
0000
0100
0000
1000
0000
1000
0000
0010
0010
0000
1001
,  // measure 6
0000
0000
0100
0100
0010
0100
0000
0001
0000
0001
0000
0001
0000
1000
0100
1000
,  // measure 7
0000
0100
1000
0000
0000
0000
0100
0000
0010
0000
0100
0010
0000
0000
0000
0000
,  // measure 8
1001
0001
0000
0100
0000
0000
0000
1010
0000
1010
0000
0110
0000
0000
0000
0000
,  // measure 9
0001
0000
0100
1000
0000
0000
0000
1000
0000
0100
0000
0001
0000
0001
1000
0100
,  // measure 10
0020
0000
0000
0031
0000
0000
0000
0000
2000
0000
0000
3001
0000
0000
0000
0000
,  // measure 11
0200
0000
0000
0301
0000
0100
0000
1000
0000
0100
0000
0001
0000
0000
0000
0000
,  // measure 12
0201
0000
0000
0301
0000
0000
0000
0000
2001
0000
0000
3001
0000
0000
0000
0000
,  // measure 13
0021
0000
0000
0031
0000
0011
0000
1001
0000
1100
0000
0110
0000
0000
0000
0000
,  // measure 14
0001
0010
0001
0000
1000
0010
1000
0000
0001
0100
0001
0000
1000
0100
1000
0000
,  // measure 15
1001
0000
0100
0010
0000
0000
0000
0000
1001
0000
0100
0010
0000
0000
0000
0000
,  // measure 16
0010
0001
0010
0000
0100
1000
0100
0000
0010
1000
0010
0000
0100
0001
0100
0000
,  // measure 17
1001
0000
0100
0010
0000
0000
0000
0000
1001
0000
0100
0010
0000
0000
0000
0000
,  // measure 18
0202
0303
2002
3003
2200
3300
2002
3003
,  // measure 19
1001
0000
0100
0010
0000
0000
0000
0000
1001
0000
0100
0010
0000
0000
0000
0000
,  // measure 20
0022
0033
2200
3300
2020
3030
0202
0303
,  // measure 21
0100
0010
0100
2000
0000
0000
0000
0000
0001
0000
0000
0000
0001
0000
0000
0000
,  // measure 22
0010
0010
0100
0100
,  // measure 23
0010
0010
0100
0100
,  // measure 24
0010
0000
0010
0000
0001
0000
3001
1000
,  // measure 25
1000
0000
0011
0000
0100
0100
0010
0100
,  // measure 26
0001
0000
0000
1000
0000
0000
0100
0000
0010
0000
0001
0000
0010
0000
0100
0000
,  // measure 27
2000
0000
0100
0000
0001
0000
0100
0000
0010
0000
0000
0001
0000
0000
0000
0000
,  // measure 28
0000
0000
0000
0000
0000
0000
0100
0000
0010
0000
0000
0010
3000
0000
0010
0000
,  // measure 29
0100
0000
1001
0100
0010
0000
1001
0010
,  // measure 30
0001
0010
0100
0010
1000
0010
0001
1000
,  // measure 31
1000
1000
0001
0000
0100
0100
0001
0000
,  // measure 32
0010
0000
0010
0000
0001
0000
0000
0000
0001
0000
0001
0000
0001
2000
0000
3000
,  // measure 33
0210
0000
0010
0000
0010
0000
0010
0000
0010
0000
0000
0010
0000
0000
0000
0000
,  // measure 34
0000
0000
0010
0000
0010
0000
0010
0000
0010
0000
0000
0010
0000
0000
0000
0000
,  // measure 35
1000
0000
0001
0000
1000
0000
0001
0300
,  // measure 36
1100
0000
0101
0000
0011
0010
1010
0000
,  // measure 37
1000
0100
0010
0001
0000
0000
0000
0000
0001
0010
0100
1000
0000
0000
0000
0000
,  // measure 38
0120
0000
1000
0000
1000
0000
1000
0000
1000
0000
0000
0001
0000
0000
0000
0000
,  // measure 39
0000
0000
0000
0000
0000
0000
0001
0000
0001
0000
0000
1000
0030
0000
0001
0000
,  // measure 40
1000
0000
0000
0000
1001
0000
0000
0000
0000
0000
1001
0000
0001
0010
0100
0010
,  // measure 41
0000
0000
1000
0000
1000
0010
0100
0010
0000
0000
0001
0000
0001
0100
1000
0100
,  // measure 42
0000
0000
1000
0000
1000
0100
0001
0100
0000
0000
0010
0000
0110
0000
0100
0000
,  // measure 43
0001
0000
1001
1000
0001
0000
1001
0001
,  // measure 44
2000
0000
0010
0000
0010
0000
0100
0000
0010
0000
0000
0100
0000
0000
0000
0000
,  // measure 45
0000
0000
0000
0000
0000
0000
0100
0000
0010
0000
0000
0010
0000
0000
0100
0000
,  // measure 46
0100
0000
0000
3000
0000
0000
0000
0000
0000
0000
0000
0000
0000
0000
0000
0000
;
