#VERSION:0.83;
#TITLE:STARSTRUKK;
#SUBTITLE:;
#ARTIST:3OH!3;
#TITLETRANSLIT:;
#SUBTITLETRANSLIT:;
#ARTISTTRANSLIT:;
#GENRE:;
#ORIGIN:;
#CREDIT:;
#BANNER:3o-bn.png;
#BACKGROUND:3o-bg.png;
#PREVIEWVID:;
#JACKET:;
#CDIMAGE:;
#DISCIMAGE:;
#LYRICSPATH:;
#CDTITLE:;
#MUSIC:star.ogg;
#OFFSET:0.010000;
#SAMPLESTART:8.561000;
#SAMPLELENGTH:12.000000;
#SELECTABLE:YES;
#BPMS:0.000=140.000;
#STOPS:;
#DELAYS:;
#WARPS:;
#TIMESIGNATURES:0.000=4=4;
#TICKCOUNTS:0.000=4;
#COMBOS:0.000=1;
#SPEEDS:0.000=1.000=0.000=0;
#SCROLLS:0.000=1.000;
#FAKES:;
#LABELS:0.000=Song Start;
#BGCHANGES:;
#KEYSOUNDS:;
#ATTACKS:
;

//---------------dance-single - ----------------
#NOTEDATA:;
#CHARTNAME:;
#STEPSTYPE:dance-single;
#DESCRIPTION:;
#CHARTSTYLE:Pad;
#DIFFICULTY:Beginner;
#METER:3;
#RADARVALUES:0.127852,0.190585,0.021565,0.107827,0.000000,83.000000,81.000000,2.000000,10.000000,0.000000,0.000000,0.000000,0.000000,0.000000,0.127852,0.190585,0.021565,0.107827,0.000000,83.000000,81.000000,2.000000,10.000000,0.000000,0.000000,0.000000,0.000000,0.000000;
#CREDIT:Mozata;
#NOTES:
0000
0000
0000
0000
,
0000
0000
0000
0000
,
0000
0000
0000
0000
,
0000
0000
0000
0000
,
0000
0000
0000
0000
,
0001
0000
1000
0000
,
0001
0001
0001
0000
,
1000
0000
0001
0000
,
1000
0000
0001
0000
,
0100
0000
0010
0000
,
0100
0100
0100
0000
,
0001
0000
0100
0000
,
0010
0000
1000
0000
,
1001
0000
0002
0000
,
0003
0000
0002
0000
,
0003
0000
0002
0000
,
0003
0000
1000
1000
,
1000
0000
0020
0000
,
0030
0000
0020
0000
,
0030
0000
0020
0000
,
0030
0000
0100
0100
,
0100
0000
0000
0000
,
0110
0000
0000
0000
,
0010
0000
0000
0000
,
0000
0000
0000
0000
,
0001
0001
0000
0000
,
0010
0000
0000
1000
,
1000
1000
0000
0000
,
0100
0000
0000
0000
,
0001
0001
0000
0000
,
0010
0000
0000
1000
,
1000
1000
0000
0000
,
0100
0000
0000
0000
,
0020
0000
0030
0000
,
0200
0000
0300
0000
,
0010
0010
0010
0010
,
0010
0000
0100
0000
,
0002
0000
0003
0000
,
2000
0000
3000
0000
,
0001
0001
0001
0001
,
0001
0000
0100
0000
,
1000
0000
0000
0000
,
0100
0000
0000
0000
,
0001
0000
0010
0000
,
0100
0000
1000
0000
,
0001
0000
0010
0000
,
0100
0000
1000
0000
,
1000
0000
0010
0000
,
0100
0000
0001
0000
,
1000
0000
0010
0000
,
0100
0000
0001
0000
;

//---------------dance-single - ----------------
#NOTEDATA:;
#CHARTNAME:;
#STEPSTYPE:dance-single;
#DESCRIPTION:;
#CHARTSTYLE:Pad;
#DIFFICULTY:Easy;
#METER:6;
#RADARVALUES:0.241841,0.357447,0.183306,0.043131,0.000000,157.000000,140.000000,17.000000,4.000000,0.000000,0.000000,0.000000,0.000000,0.000000,0.241841,0.357447,0.183306,0.043131,0.000000,157.000000,140.000000,17.000000,4.000000,0.000000,0.000000,0.000000,0.000000,0.000000;
#CREDIT:Mozata;
#NOTES:
0000
0000
0000
0000
,
0000
0000
0000
0000
,
0000
0000
0000
0000
,
0000
0000
0000
0000
,
0000
0000
0000
0000
,
0010
0010
0001
0010
,
1000
1000
0100
0000
,
0010
0001
0010
1000
,
0100
0000
0100
0000
,
0010
0010
1000
0001
,
1000
0001
0100
0000
,
0010
0010
1000
0001
,
0100
0000
0100
0000
,
1000
1000
0010
0001
,
0001
0001
0010
1000
,
1000
1000
0010
0001
,
0001
0010
0100
1000
,
0001
0001
0100
1000
,
1000
1000
0100
0001
,
0001
0001
0100
1000
,
1000
0010
0100
0001
,
0100
0000
0000
0000
,
0110
0000
0000
0000
,
1001
0000
0000
0000
,
2000
0000
0000
0000
,
3001
1001
0010
0001
,
0010
0000
0010
0100
,
0010
0010
1000
0010
,
0100
0100
0001
0100
,
0010
0000
0000
0000
,
1001
0000
0000
0000
,
0001
0010
0100
1000
,
0100
0010
0002
0000
,
0013
0000
0000
0000
,
0110
0000
0000
0000
,
1000
1000
0100
0100
,
0001
0001
0010
0010
,
0110
0000
0000
0000
,
2001
0000
0000
0000
,
3100
0010
0100
1000
,
0100
0010
0100
2000
,
3000
0000
0000
0000
,
1001
0000
0000
0000
,
1001
0110
1001
0110
,
0010
1000
0010
1000
,
0001
0100
0001
0100
,
0010
0100
0010
0100
,
1001
0110
1001
0110
,
0001
0010
0001
0010
,
0100
1000
0100
1000
,
0001
0010
0100
1000
,
1001
0000
0000
0000
;

//---------------dance-single - ----------------
#NOTEDATA:;
#CHARTNAME:;
#STEPSTYPE:dance-single;
#DESCRIPTION:;
#CHARTSTYLE:Pad;
#DIFFICULTY:Medium;
#METER:8;
#RADARVALUES:0.345047,0.493714,0.398961,0.140175,0.048522,224.000000,187.000000,37.000000,13.000000,0.000000,0.000000,0.000000,0.000000,0.000000,0.345047,0.493714,0.398961,0.140175,0.048522,224.000000,187.000000,37.000000,13.000000,0.000000,0.000000,0.000000,0.000000,0.000000;
#CREDIT:Mozata;
#NOTES:
0000
0000
0000
0000
,
0000
0000
0000
0000
,
0000
0000
0000
0000
,
0000
0000
0000
0000
,
0000
0000
0000
0000
,
2001
0000
3010
0000
0010
0100
0010
0000
,
0100
0010
0100
0000
1001
0000
0000
0000
,
1000
0010
0100
0001
0100
0010
1000
0000
,
1001
0000
1001
0000
,
0201
0000
0310
0000
0010
1000
0010
0000
,
1000
0010
1000
0000
1001
0000
0000
0000
,
0010
0100
0010
0000
0100
0010
0100
0000
,
1001
0000
0000
0000
1001
0000
0000
0001
,
0000
0000
0000
0000
0001
0000
0000
0000
0010
0000
0000
0001
0000
0000
0100
0000
,
0000
0000
0000
0000
1000
0000
0000
0000
0010
0000
0000
1000
0000
0000
0100
0000
,
0000
0000
0000
0000
0001
0000
0000
0000
0010
0000
0000
0001
0000
0000
0100
0000
,
0000
2000
3020
0230
,
0301
0000
0000
0000
0001
0000
0000
0000
0100
0000
0000
0001
0000
0000
0010
0000
,
0000
0000
0000
0000
1000
0000
0000
0000
0100
0000
0000
1000
0000
0000
0010
0000
,
0000
0000
0000
0000
0001
0000
0000
0000
0100
0000
0000
0001
0000
0000
0010
0000
,
0000
0100
1000
0010
,
0110
0000
0000
0000
1000
0000
0000
1000
0000
0000
1000
0000
0000
0000
0000
0000
,
0110
0000
0000
0000
0001
0000
0000
0001
0000
0000
0001
0000
0000
0000
0000
0000
,
1001
0000
0000
0000
0100
0000
0000
0100
0000
0000
0100
0000
0000
0000
0000
0000
,
0010
0010
0010
0010
,
1001
0001
0100
1000
,
0100
0000
0000
0000
0000
0010
0010
0000
,
1000
0001
1000
0001
1000
0001
1000
0000
,
0001
1000
0001
1000
0001
0000
0000
0010
,
0000
0100
0001
0010
,
0100
0000
0000
0000
,
1000
0010
1000
0010
1000
0010
1000
0000
,
0001
0010
0001
0010
0001
0000
0000
0100
,
0000
0000
2002
0000
0000
3003
0000
0000
,
0010
0000
2002
0000
0000
3003
0000
0000
,
0010
1000
0001
0100
0010
1000
0001
0100
,
0010
1000
0001
0100
0010
0000
0000
0100
,
0000
0000
2002
0000
0000
3003
0000
0000
,
0010
0000
2002
0000
0000
3003
0000
0000
,
0001
0010
0100
1000
0001
0010
0100
1000
,
0001
0010
0100
1000
0100
0000
0000
0010
,
0000
0000
0000
0000
,
0101
0000
0000
0000
,
0101
0101
1001
1001
,
1010
1010
1001
1001
,
0011
0011
1001
1001
,
1100
1100
1001
1001
,
0011
0010
0001
0010
,
1001
1000
0001
1000
,
1010
0010
1000
0010
,
0101
0000
0001
0000
0100
0000
0000
0010
;

//---------------dance-single - ----------------
#NOTEDATA:;
#CHARTNAME:;
#STEPSTYPE:dance-single;
#DESCRIPTION:;
#CHARTSTYLE:Pad;
#DIFFICULTY:Hard;
#METER:11;
#RADARVALUES:0.406662,0.493714,0.215654,0.161741,0.080870,264.000000,244.000000,20.000000,15.000000,0.000000,0.000000,0.000000,0.000000,0.000000,0.406662,0.493714,0.215654,0.161741,0.080870,264.000000,244.000000,20.000000,15.000000,0.000000,0.000000,0.000000,0.000000,0.000000;
#CREDIT:Mozata;
#NOTES:
// measure 0
0000
0000
0000
0000
,  // measure 1
0010
0000
0000
0010
0000
0010
0000
0000
,  // measure 2
0010
0000
0000
0010
0000
0010
0000
0000
,  // measure 3
0100
0000
0000
0100
0000
0100
0000
0000
,  // measure 4
0100
0000
0000
0100
0000
0100
0000
0000
,  // measure 5
0001
0000
0001
0000
0010
0100
0010
0000
,  // measure 6
1000
0100
1000
0100
0000
0000
0000
0000
,  // measure 7
1000
0000
0000
0010
1000
0000
0100
0000
0010
0000
0001
0000
0010
0000
0100
0000
,  // measure 8
0000
0000
0000
0000
,  // measure 9
0002
1003
2000
3001
,  // measure 10
0010
0001
0100
0001
0000
0000
0000
0000
,  // measure 11
0001
0000
0000
1000
0001
0000
0010
0000
0100
0000
1000
0000
0100
0000
0010
0000
,  // measure 12
0000
0000
0000
0000
0000
0000
1000
0012
,  // measure 13
0000
0000
0000
0000
1000
0000
0000
0000
1000
0000
0000
1000
0000
0000
2003
0000
,  // measure 14
0000
0000
0000
0000
0010
0000
0000
0000
0010
0000
0000
0010
0000
0000
3020
0000
,  // measure 15
0000
0000
0000
0000
0100
0000
0000
0000
0100
0000
0000
0100
0000
0000
0230
0000
,  // measure 16
0000
0001
1000
0001
,  // measure 17
0320
0000
0000
0000
1000
0000
0000
0000
1000
0000
0000
1000
0000
0000
2030
0000
,  // measure 18
0000
0000
0000
0000
0001
0000
0000
0000
0001
0000
0000
0001
0000
0000
3002
0000
,  // measure 19
0000
0000
0000
0000
0010
0000
0000
0000
0010
0000
0000
0010
0000
0000
0023
0000
,  // measure 20
0000
0100
1000
0130
,  // measure 21
0101
0000
0000
0000
0100
0000
0000
0100
0000
0000
0100
0000
0000
0000
0100
0000
,  // measure 22
1010
0000
0000
0000
0010
0000
0000
0010
0000
0000
0010
0000
1000
0000
0001
0000
,  // measure 23
0110
0000
0000
0000
1000
0000
0000
1000
0000
0000
1000
0000
0000
0000
0000
0000
,  // measure 24
0001
0010
0100
1000
0001
0010
0100
1000
,  // measure 25
1000
0000
0000
0000
1000
0000
0000
0100
0000
0000
0001
0000
0000
0000
0100
0000
,  // measure 26
1000
0000
0000
0000
1000
0000
0000
0010
0000
0000
0100
0000
0000
0000
0001
0000
,  // measure 27
0010
0001
0100
0001
0010
0100
1000
1000
,  // measure 28
0010
1000
0100
1000
0010
0100
0001
0100
,  // measure 29
0010
0000
0000
0000
0100
0000
0000
1000
0000
0000
0001
0000
0000
0000
1000
0000
,  // measure 30
0100
0000
0000
0000
0001
0000
0000
0100
0000
0000
1000
0000
0000
0000
0000
0000
,  // measure 31
0100
0010
0100
0001
1000
0001
1000
0010
,  // measure 32
0100
0001
1000
0100
0010
0001
0010
0100
,  // measure 33
1000
0000
2000
0000
0000
3000
0000
0000
,  // measure 34
1001
0000
0102
0000
0000
0003
0000
0000
,  // measure 35
0001
0010
0001
0010
0100
1000
0010
0100
,  // measure 36
0001
0010
0001
0010
0001
0010
0100
1000
,  // measure 37
0000
0000
1002
0000
0000
0003
0000
0000
,  // measure 38
0010
0000
2020
0000
0000
3030
0000
0000
,  // measure 39
0100
1000
0010
1000
0100
1000
0001
0010
,  // measure 40
1000
0010
0001
0010
0100
1000
0001
1000
,  // measure 41
0000
0000
0000
0000
,  // measure 42
0011
0000
0000
0100
0010
0100
0010
0000
,  // measure 43
1001
0101
1001
1100
,  // measure 44
1001
0011
1001
1010
,  // measure 45
1001
0010
1000
0010
,  // measure 46
1001
0010
0001
0010
,  // measure 47
1001
0010
1000
0100
0010
0001
0100
1000
,  // measure 48
0100
0010
1000
0001
1000
0010
0100
0001
,  // measure 49
0010
0100
0010
0001
1000
0010
1000
0010
,  // measure 50
1000
0010
1000
0001
0010
0100
1000
1000
;
