#TITLE:SOS;
#SUBTITLE:;
#ARTIST:Rihanna;
#TITLETRANSLIT:;
#SUBTITLETRANSLIT:;
#ARTISTTRANSLIT:;
#GENRE:;
#CREDIT:;
#BANNER:sos-bn.png;
#BACKGROUND:sos-bg.png;
#LYRICSPATH:;
#CDTITLE:;
#MUSIC:sos.ogg;
#OFFSET:0.000000;
#SAMPLESTART:31.530001;
#SAMPLELENGTH:12.000000;
#SELECTABLE:YES;
#BPMS:0.000000=137.000000
;
#STOPS:
;
#BGCHANGES:;
#KEYSOUNDS:;
#ATTACKS:;

//---------------dance-single - ----------------
#NOTES:
     dance-single:
     :
     Beginner:
     2:
     0.146313,0.198153,0.011380,0.011380,0.000000,90.000000,89.000000,1.000000,1.000000,0.000000,0.000000,0.146313,0.198153,0.011380,0.011380,0.000000,90.000000,89.000000,1.000000,1.000000,0.000000,0.000000:
// measure 0
0000
0000
0000
0000
,  // measure 1
0000
0000
0000
0000
,  // measure 2
0000
0100
0000
0100
,  // measure 3
0000
0100
0000
0000
,  // measure 4
0000
0001
0000
1000
,  // measure 5
0000
0001
0000
0000
,  // measure 6
0000
0100
0000
0100
,  // measure 7
0000
0100
0000
0000
,  // measure 8
0010
0000
0000
0000
,  // measure 9
0200
0000
0000
0300
,  // measure 10
0000
1000
0000
1000
,  // measure 11
0000
0001
0000
0000
,  // measure 12
0000
0001
0000
0001
,  // measure 13
0000
0010
0000
0000
,  // measure 14
0000
0100
0000
0100
,  // measure 15
0000
1000
0000
0000
,  // measure 16
1000
0000
0001
0000
,  // measure 17
0100
0000
0000
0000
,  // measure 18
0010
0010
0010
0000
,  // measure 19
0001
0001
0001
0000
,  // measure 20
0100
0100
0100
0000
,  // measure 21
0000
0000
0000
0000
,  // measure 22
0100
0100
0100
0000
,  // measure 23
1000
1000
1000
0000
,  // measure 24
0010
0000
0000
0000
,  // measure 25
0001
0000
0000
0000
,  // measure 26
0001
0000
1000
0000
,  // measure 27
0010
0000
0100
0000
,  // measure 28
0001
0000
0010
0000
,  // measure 29
0100
0000
1000
0000
,  // measure 30
1000
0000
0010
0000
,  // measure 31
0100
0000
0001
0000
,  // measure 32
1000
0000
0100
0000
,  // measure 33
0010
0000
0001
0000
,  // measure 34
0010
0000
0010
0000
,  // measure 35
0100
0000
0010
0000
,  // measure 36
1000
0000
1000
0000
,  // measure 37
0001
0000
1000
0000
,  // measure 38
0100
0000
0100
0000
,  // measure 39
0010
0000
0100
0000
,  // measure 40
0001
0000
0010
0000
,  // measure 41
0100
0000
1000
0000
,  // measure 42
1000
1000
0000
0010
,  // measure 43
0000
0010
0000
0010
,  // measure 44
0000
0001
0000
0100
,  // measure 45
0000
0100
0000
0100
,  // measure 46
0000
0010
0000
1000
,  // measure 47
0000
0001
0000
1000
,  // measure 48
0000
0010
0000
0010
,  // measure 49
0000
0010
0000
1001
;

//---------------dance-single - ----------------
#NOTES:
     dance-single:
     :
     Easy:
     5:
     0.300755,0.339691,0.330018,0.022760,0.000000,185.000000,156.000000,29.000000,2.000000,0.000000,0.000000,0.300755,0.339691,0.330018,0.022760,0.000000,185.000000,156.000000,29.000000,2.000000,0.000000,0.000000:
0000
0000
0000
0000
,
0000
0000
0000
0000
,
1000
1000
0010
0010
,
0001
0001
0100
0100
,
1000
1000
0100
0100
,
0001
0001
0010
0000
,
0001
0010
0100
1000
,
0100
0010
0001
0000
,
0001
0000
0110
0000
,
1001
0000
1000
0000
,
1000
0010
1000
0001
,
0100
0001
0100
0000
,
0010
0001
0010
0001
,
1000
0100
1000
0000
,
1000
0010
0100
0001
,
0100
0010
1000
0000
,
1001
0000
0001
0000
,
0100
0000
0010
0000
,
1001
1000
0100
0010
,
1001
0001
0010
0100
,
1001
1000
0001
0001
,
0000
0010
0000
0010
,
1001
0100
0010
0001
,
1001
0010
0100
1000
,
1001
0000
1000
0000
,
0010
0000
0000
0010
,
0110
0100
0001
0010
,
0110
0100
1000
0010
,
0110
0010
1000
0100
,
0000
0010
0000
0001
,
0010
0100
1000
0001
,
0100
0010
1000
0001
,
0100
0000
1000
0000
,
0100
0000
0001
0000
,
1001
1001
1001
0000
,
0010
0001
0010
0000
,
1001
1001
1001
0000
,
0010
1000
0001
1000
,
0200
0310
1001
0000
,
0010
1000
0010
1000
,
1001
0001
0100
0001
,
1001
0000
0200
0310
,
0110
0110
0000
1000
,
0000
0001
0000
1000
,
0110
0110
0000
0001
,
0010
0100
1000
0001
,
1001
1001
0000
0010
,
1000
0100
0001
0100
,
1000
0010
0001
0010
,
1000
1001
0000
1001
;

//---------------dance-single - ----------------
#NOTES:
     dance-single:
     :
     Medium:
     8:
     0.378789,0.424614,0.421057,0.250358,0.165009,233.000000,196.000000,37.000000,22.000000,0.000000,0.000000,0.378789,0.424614,0.421057,0.250358,0.165009,233.000000,196.000000,37.000000,22.000000,0.000000,0.000000:
0000
0000
0000
0000
,
0000
0000
0000
0000
,
0000
0000
0000
0010
0000
0010
2000
0000
0000
3000
0000
0000
,
0100
0000
0100
0010
0000
0000
0001
0000
0001
0010
0000
0000
,
1010
0000
0000
1000
0000
1000
0001
0000
0000
0000
0000
0000
,
0001
0000
0010
0100
0000
0000
1000
0000
0000
0100
0000
0000
,
1001
0000
0000
0010
0000
0010
0002
0000
0000
0003
0000
0000
,
1000
0000
0001
1000
0000
0000
0010
0000
0000
0001
0000
0100
,
0000
0000
0110
0010
,
0110
0100
0110
0010
,
1001
0000
0000
0010
0000
1000
0020
0000
0000
0030
0000
0000
,
0100
0000
0001
0100
0000
0000
0010
0000
0000
1000
0000
0000
,
0000
0000
0000
1000
0000
0010
0002
0000
0000
0003
0000
0000
,
0010
0000
0010
1000
0000
0000
0001
0000
0000
1000
0000
0000
,
0000
0000
0000
0100
0000
0010
0200
0000
0000
0300
0000
0000
,
0001
0000
0000
0100
0000
0000
1000
0000
0000
0100
0000
0001
,
0000
0000
0000
0100
0000
0001
0000
0000
0000
0001
0000
0000
,
1001
1000
1001
0001
,
0010
0100
1000
1100
,
1000
0010
0100
0110
,
0001
0010
1000
1010
,
0000
0000
0000
0101
0000
0001
0100
0000
0001
0100
0000
0001
,
0000
1000
0100
1100
,
0100
0010
0001
0011
,
0010
1000
0100
1001
,
0010
1001
0110
1001
,
0001
0100
0020
1030
,
0100
0001
0200
1300
,
0010
0001
0100
1000
,
0000
0000
1000
0001
0000
1000
0001
0000
0000
1000
0000
0001
,
0000
0010
0200
0301
,
0010
0100
2000
3001
,
0020
0032
0203
0302
,
0023
0230
2300
3100
,
0100
0011
1100
1001
,
0001
0110
1010
0101
,
0100
0000
0000
0000
0000
1000
0100
0000
0000
0000
0000
0001
,
0100
0010
1000
0100
,
0101
1010
1100
1000
,
1010
0101
0011
0010
,
0002
1003
2000
3001
,
0020
0000
0230
0000
,
0310
1001
0100
0100
,
0010
0000
0100
0010
0000
0100
0010
0000
0000
0001
0000
0000
,
1001
1100
1000
0100
,
0010
0000
0100
0010
0000
0100
0010
0000
0000
0001
0000
0000
,
1001
0101
0010
1000
,
0100
0000
0010
0100
0000
0010
0100
0000
0000
0000
0000
0000
,
0200
0000
0320
0000
,
1030
0101
0000
1001
;

//---------------dance-single - ----------------
#NOTES:
     dance-single:
     :
     Hard:
     11:
     0.516974,0.537844,0.625896,0.295878,0.546237,318.000000,263.000000,55.000000,26.000000,0.000000,0.000000,0.516974,0.537844,0.625896,0.295878,0.546237,318.000000,263.000000,55.000000,26.000000,0.000000,0.000000:
0000
0000
0000
0000
,
0000
0000
0000
0000
,
0000
0000
0000
0100
0000
0010
0200
0000
0310
0000
0000
0000
,
0001
0000
0000
1000
0000
0000
0100
0000
0010
0001
0000
0000
,
1001
0000
0000
1000
0000
0100
2000
0000
3100
0000
0000
0000
,
1000
0000
0010
0100
0000
0001
0100
0000
0010
1000
0000
0000
,
1010
0000
0000
0100
0000
0001
0200
0000
0301
0000
0000
0001
,
1000
0000
0010
1000
0000
0100
1000
0000
0100
0010
0000
0001
,
0000
0000
0001
0000
0000
1000
0002
0000
0000
0203
0000
0000
,
2300
3200
0320
0032
,
0103
0000
0000
1100
0000
1000
0200
0000
1300
0000
0000
0001
,
0010
0000
0100
1000
0000
0100
0010
0000
0000
0001
0000
0000
,
0101
0000
0000
0010
0000
0100
0020
0000
0130
0000
0000
0100
,
0010
0000
1000
0010
0000
0100
0001
0000
0000
0010
0000
0000
,
0110
0000
0000
0100
0000
1000
0200
0000
1300
0100
0000
0000
,
0000
0000
0100
0001
0000
0100
1000
0000
0010
1000
0000
1010
,
0000
0000
1000
0001
0000
0011
0000
0000
0001
1000
0000
0000
,
0010
0000
1000
0001
0000
0010
0001
0100
0010
1000
0100
0010
,
0002
0013
0110
1100
,
2000
3010
0110
0101
,
1001
1010
1100
0200
,
0310
0000
0100
0010
0000
0100
0010
0000
0100
0010
0000
1001
,
0000
0011
0110
1100
,
2000
3010
0110
0101
,
0001
0000
0001
1000
0000
0000
1001
0000
1000
0001
0000
0000
,
0100
0000
0001
1000
0000
0100
0000
0000
0000
0100
0000
0000
,
2000
3100
1001
0011
,
0002
0103
1001
1010
,
0110
0101
1100
0110
,
0000
0000
0001
0010
0000
1000
0100
0000
0001
0010
0000
1100
,
0000
0000
0000
1001
0000
0000
0011
0000
0001
0010
0000
0000
,
1001
0000
0000
1010
0000
0000
0101
0000
0100
0001
0000
0000
,
0010
0000
0100
0010
0000
0100
0010
0000
0010
0100
0000
0010
,
0000
0000
0100
0010
0000
0100
0001
1000
0001
1000
0001
1000
,
1002
0100
0013
0011
,
2001
0100
3010
1010
,
0120
0000
0000
1030
0000
0100
0001
0000
0010
0001
0000
0100
,
0000
0000
0010
1000
0010
1000
0010
0000
0000
0100
0000
0000
,
0201
0010
1300
0101
,
0021
0100
1030
0011
,
0100
0000
0000
0100
0000
0001
0010
0000
0100
0000
0000
1000
,
0000
0000
0100
1000
0000
0100
1000
0010
0100
0001
0010
0100
,
2000
0010
3001
0011
,
0002
0100
1003
1010
,
0100
0000
0000
0000
0000
0010
1000
0000
0001
0100
0000
2000
,
0000
0000
3000
0100
0000
0001
0010
0000
0100
1000
0000
0000
,
1001
0000
1000
0001
0000
0000
0011
0000
0000
0101
0000
0000
,
1010
0000
0000
1100
0000
0100
1000
0000
0100
0000
0000
0110
,
0000
0000
0000
0010
0000
0001
0010
0000
0100
0000
0000
0110
,
0000
0000
0000
1001
0000
0001
0010
0100
1000
1001
0000
0000
;
