#TITLE:P.Y.T;
#SUBTITLE:;
#ARTIST:Michael Jackson;
#TITLETRANSLIT:;
#SUBTITLETRANSLIT:;
#ARTISTTRANSLIT:;
#GENRE:;
#CREDIT:;
#BANNER:pyt-bn.png;
#BACKGROUND:pyt-bg.png;
#LYRICSPATH:;
#CDTITLE:;
#MUSIC:pyt.ogg;
#OFFSET:0.000000;
#SAMPLESTART:36.696003;
#SAMPLELENGTH:12.000000;
#SELECTABLE:YES;
#BPMS:0.000000=127.400009
;
#STOPS:
;
#BGCHANGES:;
#KEYSOUNDS:;
#ATTACKS:;

//---------------dance-single - ----------------
#NOTES:
     dance-single:
     :
     Beginner:
     3:
     0.131137,0.190228,0.066358,0.066358,0.000000,83.000000,77.000000,6.000000,6.000000,0.000000,0.000000,0.131137,0.190228,0.066358,0.066358,0.000000,83.000000,77.000000,6.000000,6.000000,0.000000,0.000000:
0000
0000
0000
0000
,
0000
0000
0000
0000
,
0000
0000
0000
0000
,
0000
0000
0000
0000
,
0100
0100
0000
0000
,
0010
0010
0000
0000
,
0100
0000
1000
0000
,
0010
0000
0000
0000
,
0010
0010
0000
0000
,
0001
0001
0000
0000
,
0001
0000
0010
0000
,
0100
0000
0000
0000
,
1001
0000
1000
0000
,
1000
0000
0100
0000
,
0001
0000
0010
0000
,
0001
0000
0000
0000
,
1001
0000
0001
0000
,
0001
0000
0010
0000
,
0100
0000
1000
0000
,
0010
0000
0000
0000
,
0010
0010
0010
0010
,
0010
0000
2000
0000
,
3000
0000
0001
0001
,
0001
0000
0200
0000
,
0300
0000
0100
0000
,
0020
0000
0030
0000
,
2002
0000
3003
0000
,
1000
0000
1000
1000
,
0000
0000
0010
0000
,
0001
0000
0001
0001
,
0000
0000
0100
0000
,
0010
0000
0100
0100
,
0000
0000
1000
0000
,
1000
0000
0110
0110
,
0000
0000
0010
0000
,
0100
0100
0100
0000
,
0010
0010
0010
0010
,
0010
0000
2000
0000
,
3000
0000
0001
0001
,
0001
0000
0010
0000
,
1000
0000
0100
0000
,
1000
0000
0010
0000
,
0010
0000
0001
0000
,
1001
0000
0000
0000
;

//---------------dance-single - ----------------
#NOTES:
     dance-single:
     :
     Easy:
     5:
     0.214875,0.264604,0.165896,0.110597,0.000000,136.000000,121.000000,15.000000,10.000000,0.000000,0.000000,0.214875,0.264604,0.165896,0.110597,0.000000,136.000000,121.000000,15.000000,10.000000,0.000000,0.000000:
0000
0000
0000
0000
,
0000
0000
0000
0000
,
0000
0000
0000
0000
,
0000
0000
0000
0000
,
1000
0100
0010
0000
,
0001
0001
0010
0000
,
0100
0010
1000
0000
,
0000
0001
1000
1001
,
1000
0100
0010
0000
,
0001
0100
0100
0000
,
0100
1000
0010
1000
,
0100
0000
0010
0010
,
0000
0010
1000
0001
,
0000
1000
0010
0000
,
0001
0010
0100
1000
,
0200
0000
0300
0100
,
0000
0100
0010
0001
,
0000
0010
0100
0000
,
1000
1000
0100
0001
,
0001
0100
1000
1001
,
0010
0000
0010
0000
0010
0100
0010
0000
,
0000
1000
1001
0000
,
0001
0000
0001
0000
0001
1000
0001
0000
,
0000
0100
0110
0200
,
0000
0310
1000
0000
,
1000
0010
0100
0000
,
0002
0003
0200
0300
,
2000
3000
1001
0110
,
0010
0000
0100
0000
,
0010
0000
0110
1001
,
0001
0000
1000
0000
,
0001
0000
1001
0110
,
0100
0000
1000
0000
,
0010
0000
0110
1001
,
0001
0000
0010
0200
,
0301
1000
0001
1001
,
0010
0000
0010
0000
0010
1000
0010
0000
,
0000
0010
1000
0010
,
1000
0000
1000
0000
1000
0001
1000
0000
,
0000
0001
1000
0100
,
0010
0001
0010
0000
,
2002
0000
3000
0000
,
0203
0000
0320
0000
,
1030
0001
1001
0000
;

//---------------dance-single - ----------------
#NOTES:
     dance-single:
     :
     Medium:
     8:
     0.255954,0.336769,0.331792,0.232255,0.000000,162.000000,132.000000,30.000000,21.000000,0.000000,0.000000,0.255954,0.336769,0.331792,0.232255,0.000000,162.000000,132.000000,30.000000,21.000000,0.000000,0.000000:
0000
0000
0000
0000
,
0000
0000
0000
0000
,
0000
0000
0000
0000
,
0000
0000
0000
0000
,
0010
0000
0110
0000
0100
0010
1000
0010
,
0100
1001
0000
0010
,
0002
0000
2003
0000
,
3001
0010
0001
0000
,
1000
0000
1000
0100
0010
0000
0000
0001
,
0000
0000
0010
0000
0000
0100
0000
0000
,
0001
1000
0010
1000
,
0001
0000
0000
0000
0001
0100
0010
2000
,
0000
0000
3000
0000
0000
0001
0100
0020
,
0000
0030
0100
0010
0000
0000
0000
0000
,
1010
0000
1001
0000
0101
0000
0001
0100
,
0000
0000
0000
0000
0000
1000
1000
2000
,
0000
0000
3000
0000
0000
0010
0100
0002
,
0000
0003
0100
0001
0000
0000
0000
0000
,
0011
0000
1010
0000
,
0011
0000
1010
0000
0011
0000
0001
0010
,
0200
0000
0000
0000
0310
0100
0010
0000
,
1001
0000
1010
0000
1000
0000
0010
0100
,
0002
0000
0000
0000
1003
0001
1000
0000
,
1001
0000
0100
0000
0010
0100
0010
0000
,
0000
0000
0010
0000
0010
0000
0000
2000
,
0000
0000
0000
0000
3000
0000
0000
0200
,
0000
0000
0000
0000
0300
0000
0000
0020
,
0000
0000
0000
0000
0031
1000
0100
0010
,
0000
0101
1000
1010
,
1001
0000
0000
0000
1000
0100
0010
0001
,
0000
0011
0100
2200
,
0000
0000
3300
0000
1000
1000
0001
0001
,
0000
0110
0000
1001
,
0110
0000
0000
0000
0010
0010
0100
0010
,
0000
0000
0000
0012
,
1003
0000
0101
0000
0110
0000
0010
1000
,
0200
0000
0300
0000
0010
0001
0010
0000
,
0000
1000
1002
0003
,
0101
0000
0000
0000
0100
0010
0100
0000
,
0001
0010
0100
2000
,
3000
0100
0000
0010
0000
0000
0000
2002
,
0000
0000
0000
0000
3003
0000
0000
2020
,
0000
0000
3030
0010
,
0101
0010
1010
0000
;

//---------------dance-single - ----------------
#NOTES:
     dance-single:
     :
     Hard:
     9:
     0.331792,0.457044,0.387091,0.265434,0.066358,210.000000,175.000000,35.000000,24.000000,0.000000,0.000000,0.331792,0.457044,0.387091,0.265434,0.066358,210.000000,175.000000,35.000000,24.000000,0.000000,0.000000:
// measure 0
0000
0000
0000
0000
,  // measure 1
0000
0000
0000
0000
,  // measure 2
0000
0000
0000
0000
,  // measure 3
0000
0000
0000
0000
,  // measure 4
0100
1000
0010
0000
0100
0001
0010
0001
,  // measure 5
0000
1000
0000
0000
0100
0000
0000
0000
0010
0100
0000
0100
0000
0000
1000
0000
,  // measure 6
0002
0000
1003
0100
1000
0001
0100
0000
,  // measure 7
0001
0100
0000
0001
0100
0000
0101
0000
,  // measure 8
0000
0000
1000
1000
1000
0010
0100
0001
,  // measure 9
0000
0010
0000
0000
0100
0000
0000
0000
0000
0000
0100
0000
1000
0000
0002
0000
,  // measure 10
0000
0000
0013
0000
0100
0000
0001
0100
,  // measure 11
0000
0000
0000
0000
0010
0010
0100
0020
,  // measure 12
0000
0000
1030
0000
0000
1000
0100
0002
,  // measure 13
0000
0000
0103
1000
0000
0000
0000
0000
,  // measure 14
0010
1000
0010
1000
0001
0000
0010
0001
,  // measure 15
0010
0001
0100
0000
0000
0100
0100
0020
,  // measure 16
0000
0000
1030
0000
0000
1000
0010
0200
,  // measure 17
0000
0000
0301
0010
0000
0000
0000
0000
,  // measure 18
1001
0100
0001
0010
0001
1000
0001
0000
,  // measure 19
1000
0100
0010
0000
0000
0000
0000
0000
,  // measure 20
1100
0000
0000
1000
0100
0000
0000
0000
1100
0000
0101
0000
1100
0000
0000
0000
,  // measure 21
2000
0000
3001
0000
0010
0001
0100
0000
,  // measure 22
0101
0000
0000
0001
0100
0000
0000
0000
0101
0000
1100
0000
0101
0000
0000
0000
,  // measure 23
1000
0001
0100
0000
0000
0010
0020
0000
,  // measure 24
0000
0000
0130
0000
0000
0000
0000
0022
,  // measure 25
0000
0000
0000
0000
0033
0000
0000
0202
,  // measure 26
0000
0000
0000
0000
0303
0000
0000
2200
,  // measure 27
0000
0000
3300
0000
0100
1000
0100
0010
,  // measure 28
0000
1001
0100
1001
,  // measure 29
0110
0000
0000
0000
0010
1000
0001
0100
,  // measure 30
0000
0100
0000
0100
0000
0100
0101
2200
,  // measure 31
0000
0000
3300
0000
1000
0100
0010
0001
,  // measure 32
0010
1100
0010
0101
,  // measure 33
1001
0000
0000
0000
0010
0010
0100
0010
,  // measure 34
0000
1000
0000
0002
,  // measure 35
1003
0000
0000
0000
0110
0000
0000
0000
1000
0002
0000
0000
0013
0000
0001
0000
,  // measure 36
0101
0000
0000
0100
0001
0000
0000
0000
0101
0000
1100
0000
0101
0000
0000
0000
,  // measure 37
0001
1000
0010
0000
0220
0000
0330
0000
,  // measure 38
1010
0000
0000
1000
0010
0000
0000
0000
1010
0000
0011
0000
1010
0000
0000
0000
,  // measure 39
1000
0000
0010
0000
0100
0000
0000
0000
0000
0000
0100
0000
0000
0010
0000
0000
,  // measure 40
0000
0100
0001
0010
0000
0000
0000
2200
,  // measure 41
0000
0000
0000
0000
3300
0000
0000
2020
,  // measure 42
0000
0000
0000
0000
3030
0000
0000
0000
0000
0000
0000
0000
0010
1000
0001
0010
,  // measure 43
0100
1100
0101
0000
;
