#VERSION:0.83;
#TITLE:Musikk per Automatikk;
#SUBTITLE:;
#ARTIST:Elliot Berlin;
#TITLETRANSLIT:;
#SUBTITLETRANSLIT:;
#ARTISTTRANSLIT:;
#GENRE:;
#ORIGIN:;
#CREDIT:;
#BANNER:bn.png;
#BACKGROUND:Musikk per Automatikk-bg.jpg;
#PREVIEWVID:;
#JACKET:;
#CDIMAGE:;
#DISCIMAGE:;
#LYRICSPATH:;
#CDTITLE:;
#MUSIC:Elliot Berlin Musikk per Automatikk.ogg;
#OFFSET:-0.080000;
#SAMPLESTART:28.360001;
#SAMPLELENGTH:12.000000;
#SELECTABLE:YES;
#BPMS:0.000=140.000;
#STOPS:77.500=0.420,
141.000=0.210,
141.500=0.210,
142.000=0.210,
142.500=0.210;
#DELAYS:;
#WARPS:;
#TIMESIGNATURES:0.000=4=4;
#TICKCOUNTS:0.000=4;
#COMBOS:0.000=1;
#SPEEDS:0.000=1.000=0.000=0;
#SCROLLS:0.000=1.000;
#FAKES:;
#LABELS:0.000=Song Start;
#BGCHANGES:;
#KEYSOUNDS:;
#ATTACKS:
;

//---------------dance-single - ----------------
#NOTEDATA:;
#CHARTNAME:;
#STEPSTYPE:dance-single;
#DESCRIPTION:;
#CHARTSTYLE:Pad;
#DIFFICULTY:Beginner;
#METER:2;
#RADARVALUES:0.138201,0.183544,0.000000,0.076626,0.000000,101.000000,101.000000,0.000000,8.000000,0.000000,0.000000,0.000000,0.000000,0.000000,0.138201,0.183544,0.000000,0.076626,0.000000,101.000000,101.000000,0.000000,8.000000,0.000000,0.000000,0.000000,0.000000,0.000000;
#CREDIT:Mozata;
#NOTES:
// measure 0
0000
0000
0000
0000
,  // measure 1
0000
0000
0000
0000
,  // measure 2
0000
0000
0000
0000
,  // measure 3
0000
0000
0000
0000
,  // measure 4
0000
0000
0100
0000
,  // measure 5
0000
0000
0010
0000
,  // measure 6
0000
0000
0100
0000
,  // measure 7
0000
0000
0000
0000
,  // measure 8
0000
0000
0010
0010
,  // measure 9
0000
0000
0001
0001
,  // measure 10
0000
0000
0100
0100
,  // measure 11
0000
0000
1000
1000
,  // measure 12
0000
0000
1000
0000
,  // measure 13
1000
0000
0100
0000
,  // measure 14
0100
0000
0001
0000
,  // measure 15
0001
0000
0010
0000
,  // measure 16
0010
0000
0020
0000
,  // measure 17
0030
0000
0020
0000
,  // measure 18
0030
0000
0200
0000
,  // measure 19
0300
0000
0002
0003
,  // measure 20
0000
0002
0000
0003
,  // measure 21
0000
0002
0000
0003
,  // measure 22
0000
2000
0000
3000
,  // measure 23
0000
2000
0000
3000
,  // measure 24
0000
1000
0000
0001
,  // measure 25
0000
1000
0000
0001
,  // measure 26
0000
1000
0000
0001
,  // measure 27
0000
1000
0000
0001
,  // measure 28
0000
1000
1000
1000
,  // measure 29
0000
0001
0001
0001
,  // measure 30
0000
1000
1000
1000
,  // measure 31
0000
0001
0001
0001
,  // measure 32
0000
0010
0000
0001
,  // measure 33
0000
0100
0000
1000
,  // measure 34
0000
1000
0000
0010
,  // measure 35
0000
0001
0000
0010
,  // measure 36
0000
0001
0000
0100
,  // measure 37
0000
0100
0100
0100
,  // measure 38
0000
1000
0000
0010
,  // measure 39
0000
0001
0001
0001
,  // measure 40
0000
1000
0000
0001
,  // measure 41
0000
1000
1000
1000
,  // measure 42
0000
0100
0000
0010
,  // measure 43
0000
1000
1000
1000
,  // measure 44
0000
1000
0000
0100
,  // measure 45
0000
0100
0000
0010
,  // measure 46
0000
0010
0000
0001
,  // measure 47
0000
0001
0000
0001
,  // measure 48
0001
0001
0000
0100
,  // measure 49
0100
0100
0000
0010
,  // measure 50
0010
0010
0000
1000
,  // measure 51
1000
1000
0000
0010
,  // measure 52
0000
0100
0000
0001
,  // measure 53
0000
0100
0000
0010
,  // measure 54
0000
0100
0000
1000
;

//---------------dance-single - ----------------
#NOTEDATA:;
#CHARTNAME:;
#STEPSTYPE:dance-single;
#DESCRIPTION:;
#CHARTSTYLE:Pad;
#DIFFICULTY:Hard;
#METER:11;
#RADARVALUES:0.600694,0.820868,0.450179,0.000000,0.081415,439.000000,392.000000,47.000000,0.000000,0.000000,0.000000,0.000000,0.000000,0.000000,0.600694,0.820868,0.450179,0.000000,0.081415,439.000000,392.000000,47.000000,0.000000,0.000000,0.000000,0.000000,0.000000,0.000000;
#CREDIT:Mozata;
#NOTES:
0000
0000
0000
0000
,
0000
0000
0000
0000
,
0000
0000
0000
0000
,
0000
0000
0000
0000
,
0000
0000
0000
0000
1000
0100
1100
0000
,
0001
0010
0011
0000
0100
0010
0110
0100
,
0010
0000
0000
0000
1000
0000
0000
1000
0001
0000
0010
0000
0011
0000
0000
0000
,
1000
0010
1010
0100
0000
0000
0000
0000
,
0000
0000
0000
0000
0001
0100
0001
0100
0010
0000
0001
0000
0101
0000
0000
0000
,
0100
0000
1010
0000
1000
0100
0011
0000
,
1001
0010
1001
0100
0010
1000
0001
0000
,
0001
0100
0010
0000
0010
0001
1100
0000
,
0110
0000
0000
0000
0010
0001
0000
0001
0010
0000
0010
0000
1000
0000
0000
0000
,
0010
1000
0001
0000
0001
0100
1000
0000
,
1000
0010
0100
0010
0001
0010
0110
0000
,
1000
0010
0110
0000
0001
0000
0110
1000
,
0100
1000
1100
0000
0001
0100
0001
0100
,
0010
1000
0010
1000
0100
0010
0100
0010
,
0001
1000
0001
1000
0010
0100
0010
0100
,
0001
0010
0001
0010
0100
0010
0001
1000
,
0001
1000
0010
1000
0010
1000
0001
0100
,
0001
0100
1000
0100
1000
0100
0010
0100
,
0010
0100
0001
0100
0001
0100
0001
0010
,
0001
0010
0100
1000
0100
1000
0100
0010
,
0100
0010
0001
0010
0100
0010
0001
0010
,
0100
0010
0001
0010
0100
0010
0001
0010
,
0100
1000
1000
0010
0100
0010
1000
0010
,
0100
0010
1000
0010
0100
0010
1000
0010
,
0100
0001
0001
0010
0100
1000
0010
0100
,
0001
1000
0001
0010
0100
1000
0010
0100
,
0001
1000
1000
0010
0100
0001
0010
0100
,
1000
0001
1000
0010
0100
0001
0010
0100
,
1000
0001
1000
0000
1100
0000
0001
0000
,
0011
0100
0101
0010
,
1010
0000
0100
0001
1001
0000
0010
1000
,
0110
0000
0100
0100
0100
0100
1000
0010
,
0100
0010
1000
0010
0100
0010
1000
0010
,
0100
0010
1000
0010
0100
0001
0001
0010
,
0100
0010
0001
0010
0100
0010
0001
0010
,
0100
0010
0001
0010
0100
1000
1000
0010
,
0100
0001
1000
0010
0100
0001
1000
0010
,
0100
0001
0010
0100
1000
1000
0001
0010
,
0100
1000
0001
0010
0100
1000
0001
0010
,
0100
1000
0100
0010
0001
1000
0001
0100
,
1010
0000
0000
0000
0001
0100
0001
0000
1010
0000
0000
0000
0001
0000
0010
0000
,
1100
0000
0000
0000
0010
0001
0010
0000
1100
0000
0000
0000
1001
0000
0100
0000
,
0110
0010
1000
0001
0110
0000
0100
0000
,
0100
0001
0000
1000
0100
0000
0010
0000
1100
0000
0100
0000
1000
0000
0010
0000
,
0100
0010
1000
0010
0110
0000
0001
0010
,
0100
0010
0001
0010
1001
0000
1001
0000
,
1000
0100
0000
0100
0010
0001
0000
0001
1000
0000
0000
0000
0010
0000
1000
0000
,
1010
0000
0101
0000
0010
0010
0001
0010
,
0100
0010
0001
0010
0100
0010
0001
0010
,
0001
0010
0001
0010
0001
0100
0001
0010
,
0100
0010
0001
0010
0100
0010
0011
0011
,
1001
1010
0110
0110
0101
1001
1100
1100
,
0110
0011
0001
1000
0010
1000
0100
0001
,
0100
0010
0001
0100
0010
1000
0100
0000
,
0000
0000
0000
0000
0000
0000
0000
0000
0000
0000
0000
0000
0000
0000
0000
0000
0000
0000
0000
0000
0000
0000
0000
0000
0000
0000
0000
0000
0000
0000
0000
0000
0010
0000
0000
0000
0000
0000
0000
0000
0000
0000
0000
0000
0000
0000
0000
0000
0000
0000
0000
0000
0000
0000
0000
0000
0000
0000
0000
0000
0000
0000
0000
0000
0000
0000
0000
0000
0000
0000
0000
0000
0000
0000
0000
0000
0000
0000
0000
0000
0000
0000
0000
0000
0000
0000
0000
0000
0000
0000
0000
0000
0000
0000
0000
0000
0000
0000
0000
0000
0000
0000
0000
0000
0001
0000
0000
0000
0000
0000
0000
0000
0000
0000
0000
0000
0000
0000
0000
0000
0000
0000
0000
0000
0000
0000
0000
0000
0000
0000
0000
0000
0000
0000
0000
0000
0000
0000
0000
0000
0000
0000
0000
1000
0000
0000
0000
0000
0000
0000
0000
0000
0000
0000
0000
0000
0000
0000
0000
0000
0000
0000
0000
0000
0000
0000
0000
0000
0000
0000
0000
0000
0000
0000
0000
0000
0000
0000
0000
0000
0000
0000
0000
0000
0000
0000
0000
0000
0000
0000
0000
0000
,
0000
0000
0000
0000
0000
0100
0000
0000
0000
0000
0000
0000
0000
0000
0000
0000
0000
0000
0000
0000
0000
0000
0000
0000
0000
0000
0000
0000
0000
0000
0000
0000
0000
0000
0000
0000
0000
0000
0000
0000
0000
0000
0000
0000
0000
0000
0000
0000
;

//---------------dance-single - ----------------
#NOTEDATA:;
#CHARTNAME:;
#STEPSTYPE:dance-single;
#DESCRIPTION:;
#CHARTSTYLE:Pad;
#DIFFICULTY:Easy;
#METER:4;
#RADARVALUES:0.238088,0.277770,0.057470,0.067048,0.000000,174.000000,168.000000,6.000000,7.000000,0.000000,0.000000,0.000000,0.000000,0.000000,0.238088,0.277770,0.057470,0.067048,0.000000,174.000000,168.000000,6.000000,7.000000,0.000000,0.000000,0.000000,0.000000,0.000000;
#CREDIT:Mozata;
#NOTES:
0000
0000
0000
0000
,
0000
0000
0000
0000
,
0000
0000
0000
0000
,
0000
0000
0000
0000
,
0000
0000
0010
0001
,
0010
0000
1000
0010
,
1000
0000
0100
1000
,
0100
0000
0100
0000
,
0000
0000
0001
0001
,
0010
0010
0100
0100
,
1000
1000
1000
1000
,
0100
0100
0010
0010
,
0001
0001
0100
0100
,
0010
0010
1000
1000
,
0001
0001
0010
0010
,
1000
1000
0001
0001
,
0100
0100
0000
0010
,
0000
0010
0000
1000
,
0000
0001
0000
0010
,
0000
0010
0100
0000
,
1000
0000
0010
0000
,
0100
0000
0001
0000
,
0100
0000
1000
0000
,
0100
0000
0010
0000
,
0001
1000
0100
0001
,
0100
1000
0100
0001
,
0100
1000
0010
0001
,
0010
1000
0010
0001
,
0010
0100
1000
0100
,
0010
0001
0100
0010
,
0100
0001
0010
0100
,
0010
0100
1000
0100
,
0010
0100
0000
1001
,
0000
1001
0000
1001
,
0000
1001
0000
1001
,
0000
1001
0000
0001
,
0001
1000
1000
0100
,
1000
0010
1000
0100
,
0100
0010
0010
1000
,
0010
0001
0010
1000
,
1000
0001
0001
0010
,
0001
0100
0001
0010
,
0010
0100
0100
0001
,
0100
0000
1000
0000
0100
0000
0001
1000
,
0001
0100
0100
0010
,
0010
0000
1000
0000
0000
0000
0100
0010
,
0100
0010
0010
0001
,
0001
0000
1000
0000
0000
0000
0010
1000
,
0010
0100
0100
0001
,
0001
0000
0100
0000
0000
0000
0010
0100
,
0010
1000
1000
0100
,
0100
0000
0000
0000
0010
0000
0000
0000
0000
0000
0000
0000
0002
0000
0000
0003
,
0000
0000
0000
0000
0200
0000
0000
0300
0000
0000
0000
0000
2000
0000
0000
3000
,
0000
0000
0000
0000
0020
0000
0000
0030
0000
0000
0000
0000
0002
0000
0000
0003
,
0000
0000
0000
0000
0200
0000
0000
0300
0000
0000
0000
0000
2000
0000
0000
0000
,
0000
0000
0000
0000
,
0000
0000
0000
0000
,
0000
0000
0000
0000
,
3000
0000
0000
0000
;

//---------------dance-single - ----------------
#NOTEDATA:;
#CHARTNAME:;
#STEPSTYPE:dance-single;
#DESCRIPTION:;
#CHARTSTYLE:Pad;
#DIFFICULTY:Medium;
#METER:5;
#RADARVALUES:0.281875,0.393906,0.363974,0.545961,0.000000,206.000000,168.000000,38.000000,57.000000,0.000000,0.000000,0.000000,0.000000,0.000000,0.281875,0.393906,0.363974,0.545961,0.000000,206.000000,168.000000,38.000000,57.000000,0.000000,0.000000,0.000000,0.000000,0.000000;
#CREDIT:Mozata;
#NOTES:
0000
0000
0000
0000
,
0000
0000
0000
0000
,
0000
0000
0000
0000
,
0000
0000
0000
0000
,
0000
0000
0000
0000
0001
0010
0001
0000
,
1000
0000
1000
0000
1000
0100
1000
0000
,
0010
0000
0010
0000
0010
0100
0010
0000
,
0001
0001
0000
0000
,
0000
0000
1000
1000
,
1100
1100
0001
0001
,
0011
0011
0100
0100
,
0101
0101
0010
0010
,
1010
1010
0100
0100
,
0110
0110
0001
0001
,
1001
1001
1000
1000
,
1010
1010
0001
0001
,
0101
0101
0020
0000
,
2030
0000
3002
0000
,
0203
0000
0302
0000
,
0023
0000
0230
2300
,
0000
3020
0000
0032
,
0000
0023
0000
2030
,
0000
3200
0000
0302
,
0000
0203
0000
2300
,
0000
0000
3020
0030
0200
0300
0020
0030
,
0200
0300
0002
0003
2000
3000
0002
0003
,
2000
3000
0020
0030
2000
3000
0020
0030
,
2000
3000
0002
0003
0200
0300
0002
0003
,
0200
0300
0020
0030
0002
0003
0020
0030
,
0002
0003
0020
0030
0002
0003
0020
0030
,
0200
0300
2000
3000
0200
0300
2000
3000
,
0200
0300
2000
3000
0200
0300
0002
0003
,
0020
0030
0110
0000
0000
0000
1010
0000
,
0000
0101
0000
0011
,
0000
1100
0000
1001
,
0000
0000
0100
0100
0100
0100
0200
0000
,
0300
0020
0030
1000
,
0001
0001
1000
0020
,
0030
0200
0300
0010
,
1000
0001
0100
2000
,
3000
0002
0003
0010
,
0100
1000
0001
0002
,
0003
0200
0300
0010
,
0010
1000
1000
0100
,
0100
0110
0110
0001
,
0001
1001
1001
1000
,
1000
1100
1100
0001
,
0001
0011
0011
0100
,
0100
1010
1010
0010
,
0010
0101
0101
0100
,
0100
1001
1001
0010
,
0010
0110
0110
1000
,
0000
0100
0000
0001
,
0000
0010
0000
0100
,
0000
0001
0000
2000
,
0000
0000
0000
0000
,
0000
0000
0000
0000
,
0000
0000
0000
0000
,
0000
0000
0000
3000
;
