#VERSION:0.83;
#TITLE:Mighty;
#SUBTITLE:(feat. JFTH);
#ARTIST:Caravan Palace;
#TITLETRANSLIT:;
#SUBTITLETRANSLIT:;
#ARTISTTRANSLIT:;
#GENRE:;
#ORIGIN:;
#CREDIT:;
#BANNER:mighty-bn.png;
#BACKGROUND:mighty-bg.png;
#PREVIEWVID:;
#JACKET:;
#CDIMAGE:;
#DISCIMAGE:;
#LYRICSPATH:;
#CDTITLE:;
#MUSIC:mighty.ogg;
#OFFSET:-0.010000;
#SAMPLESTART:53.750000;
#SAMPLELENGTH:12.000000;
#SELECTABLE:YES;
#DISPLAYBPM:124.000000;
#BPMS:0.000=124.000,
76.000=128.000,
80.000=124.000;
#STOPS:144.000=0.750,
144.500=0.500,
147.500=0.280,
148.500=0.250,
151.500=0.200,
155.500=0.220,
157.500=0.500,
160.000=0.490,
161.000=0.250,
164.000=0.210,
167.500=0.230;
#DELAYS:;
#WARPS:;
#TIMESIGNATURES:0.000=4=4;
#TICKCOUNTS:0.000=4;
#COMBOS:0.000=1;
#SPEEDS:0.000=1.000=0.000=0;
#SCROLLS:0.000=1.000;
#FAKES:;
#LABELS:0.000=Song Start;
#BGCHANGES:;
#KEYSOUNDS:;
#ATTACKS:
;

//---------------dance-single - ----------------
#NOTEDATA:;
#CHARTNAME:;
#STEPSTYPE:dance-single;
#DESCRIPTION:;
#CHARTSTYLE:Pad;
#DIFFICULTY:Medium;
#METER:8;
#RADARVALUES:0.359789,0.414103,0.258310,0.073803,0.230634,273.000000,245.000000,28.000000,8.000000,0.000000,0.000000,0.000000,0.000000,0.000000,0.359789,0.414103,0.258310,0.073803,0.230634,273.000000,245.000000,28.000000,8.000000,0.000000,0.000000,0.000000,0.000000,0.000000;
#CREDIT:Mozata;
#DISPLAYBPM:124.000000;
#NOTES:
0000
0000
0000
0000
,
0100
0000
0100
0000
,
0100
0000
0100
0000
,
0100
0000
0100
0000
,
0100
0100
0100
0100
,
0001
0010
0100
0100
,
0100
0100
0100
0100
,
1000
0010
0100
0100
,
0100
0100
0100
0100
,
0010
0010
0100
0100
,
0100
0100
0100
0100
,
0110
1001
0110
0000
,
0101
0000
0000
0000
0000
0001
1000
0000
0000
0000
0000
0000
1100
0000
0000
0000
0000
1000
0001
0000
0000
0000
0000
0000
,
0101
0000
0000
0000
0000
0001
1000
0000
0000
0000
0000
0000
1100
0000
0000
0000
0000
1000
0001
0000
0000
0000
0000
0000
,
0011
0000
0000
0000
0000
0001
1000
0000
0000
0000
0000
0000
1010
0000
0000
0000
0000
1000
0001
0000
0000
0000
0000
0000
,
0011
0000
0000
0000
0000
0001
1000
0000
0000
0000
0000
0000
0000
0000
0000
0001
0000
0000
2000
0000
0000
3000
0000
0000
,
0010
0000
0000
0000
0000
0010
0100
0000
0000
0000
0000
0000
0101
0000
0000
0000
0000
0100
0010
0000
0000
0000
0000
0000
,
1010
0000
0000
0000
0000
0010
0100
0000
0000
0000
0000
0000
0101
0000
0000
0000
0000
0001
1000
0000
0000
0000
0000
0000
,
1100
0000
0000
0000
0000
0100
0010
0000
0000
0000
0000
0000
0011
0000
0000
0000
0000
0010
0100
0000
0000
0000
0000
0000
,
1100
0000
0000
0000
0000
1000
0001
0000
0000
0000
0000
0000
0011
0000
0000
0000
0000
0000
0000
0000
0000
0000
0000
0000
,
0010
0010
0001
0100
0010
0010
1000
0100
,
0020
0000
0000
0000
0030
0000
0100
1000
,
0200
0000
0300
0011
,
0001
0000
0000
0001
0000
0000
0001
0000
0000
0000
0000
0000
0001
0000
1000
0000
,
0010
0010
1000
0100
0010
0010
0001
0100
,
0020
0000
0000
0000
0030
0000
0100
0001
,
0200
0000
0302
0000
,
2000
0000
3003
0000
,
0010
0000
0000
0010
1000
0000
0000
1000
0001
0000
0000
0001
0100
0000
0000
0000
,
0001
0000
0000
0001
0010
0000
0000
0010
0100
0000
0000
0100
1000
0000
0000
0000
,
0010
0000
0000
0010
0001
0000
0000
0001
1000
0000
0000
1000
0100
0000
0000
0000
,
0001
0000
0000
0001
1000
0000
0000
1000
0100
0000
0000
0000
0110
0000
0000
0000
,
0010
0000
0000
0010
0001
0000
0000
0001
0100
0000
0000
0100
0010
0000
0000
0000
,
1000
0000
0000
1000
0100
0000
0000
0100
0010
0000
0000
0010
0001
0000
0000
0000
,
1000
0000
0000
0001
1000
0000
0000
1000
0010
0000
0000
0010
1000
0000
0000
0000
,
0100
0000
0000
0100
0010
0000
0000
0010
0100
0000
0000
0000
1001
0000
0000
0000
,
0010
0100
1000
0000
0000
0000
0000
0001
,
0010
0000
0001
0000
0000
0100
0000
0110
,
1000
0000
0000
1000
0000
0000
1000
0000
0000
0000
0000
0000
0001
0000
0000
0000
,
1001
0000
0000
1010
1100
0000
0000
0000
,
0000
1000
0010
0001
0000
0001
0100
1000
,
0000
0000
0010
0000
0000
0010
0000
0000
0010
0000
0000
0000
0000
0000
1001
0000
,
1001
0000
0000
0001
0100
0000
0000
0100
0010
0000
0000
0010
1000
0000
0000
1000
,
0100
0000
0000
0100
0010
0000
0000
0010
0001
0000
0000
0001
1000
0000
0000
1000
,
0010
0000
0000
0010
1000
0000
0000
1000
0100
0000
0000
0000
0110
0000
0000
0000
,
0010
0000
0000
0010
0000
0000
0010
0000
0000
0000
0000
0000
1001
0000
0000
0000
,
0001
0001
0100
0001
1000
1000
0100
1000
,
0020
0000
0000
0000
0030
0000
0010
0100
,
0010
0100
0010
1000
0001
1000
0001
1000
,
0100
0010
0001
0010
0100
0000
0001
1000
;

//---------------dance-single - ----------------
#NOTEDATA:;
#CHARTNAME:;
#STEPSTYPE:dance-single;
#DESCRIPTION:;
#CHARTSTYLE:Pad;
#DIFFICULTY:Easy;
#METER:4;
#RADARVALUES:0.188461,0.275377,0.110704,0.138380,0.000000,143.000000,131.000000,12.000000,15.000000,0.000000,0.000000,0.000000,0.000000,0.000000,0.188461,0.275377,0.110704,0.138380,0.000000,143.000000,131.000000,12.000000,15.000000,0.000000,0.000000,0.000000,0.000000,0.000000;
#CREDIT:Mozata;
#DISPLAYBPM:124.000000;
#NOTES:
0000
0000
0000
0000
,
0100
0000
0000
0000
,
0100
0000
0000
0000
,
0100
0000
0000
0000
,
0001
0000
0001
0000
,
0010
0100
1000
0000
,
1000
0000
1000
0000
,
0100
0010
0001
0000
,
0001
0000
0001
0000
,
0100
0010
1000
0000
,
1000
0000
1000
0000
,
1000
0000
0010
0100
,
1001
0000
0100
0100
,
1000
0000
0100
0100
,
0001
0000
0010
0010
,
0001
0000
0000
0000
,
1001
0000
0010
0010
,
0001
0000
0100
0100
,
1000
0000
1000
1000
,
0001
0000
1000
0000
,
1000
0000
0001
0000
,
0200
0300
0020
0030
,
0100
0000
0000
0010
0100
0000
0000
0000
,
2002
0000
0000
3003
0000
0000
0000
0000
,
0010
0000
0001
0000
,
2000
3000
0002
0003
,
0200
0000
0000
0000
,
0000
0000
0300
0000
,
0100
0100
0001
0001
,
1000
1000
0001
0001
,
0100
0100
0001
0001
,
1000
1000
0001
0000
,
0110
0110
0010
0010
,
1000
1000
0100
0100
,
0110
0110
0010
0010
,
0001
0001
0100
0100
,
0010
0010
0000
0020
0000
0000
0030
1000
,
0001
0000
0001
0000
0000
0100
0000
1001
,
0020
0000
0000
0030
0000
0000
0000
0000
,
1000
0000
0000
0001
0000
2000
0000
3000
,
0000
0001
0000
0200
0000
0000
0300
0000
,
0010
0001
0000
1000
0000
0001
0000
1001
,
1001
0000
1000
0000
0000
0000
0000
0020
,
0000
0030
0200
0300
,
0001
0001
1000
1000
,
0110
0000
0110
0000
,
0100
0001
0100
0001
,
0200
0300
0020
0030
,
1000
0010
1000
0010
,
1000
1000
0001
0001
;

//---------------dance-single - ----------------
#NOTEDATA:;
#CHARTNAME:;
#STEPSTYPE:dance-single;
#DESCRIPTION:;
#CHARTSTYLE:Pad;
#DIFFICULTY:Beginner;
#METER:2;
#RADARVALUES:0.109386,0.160636,0.000000,0.018451,0.000000,83.000000,83.000000,0.000000,2.000000,0.000000,0.000000,0.000000,0.000000,0.000000,0.109386,0.160636,0.000000,0.018451,0.000000,83.000000,83.000000,0.000000,2.000000,0.000000,0.000000,0.000000,0.000000,0.000000;
#CREDIT:Mozata;
#DISPLAYBPM:124.000000;
#NOTES:
0000
0000
0000
0000
,
0000
0000
0000
0000
,
0000
0000
0000
0000
,
0000
0000
0000
0000
,
0010
0000
0010
0000
,
0010
0010
0010
0000
,
0100
0000
0100
0000
,
0100
0100
0100
0000
,
0010
0000
0010
0000
,
0010
0010
0010
0000
,
0100
0000
0100
0000
,
0100
0100
0100
0000
,
0001
0000
0000
0000
,
1000
0000
0000
0000
,
0001
0000
0000
0000
,
1000
0000
0000
0000
,
0010
0000
0000
0000
,
0001
0000
0000
0000
,
0100
0000
0000
0000
,
1000
0000
0000
0000
,
1000
0000
0100
0000
,
0001
0000
0100
0000
,
2000
0000
3000
0000
,
1000
0000
0000
0000
,
0001
0000
0010
0000
,
1000
0000
0010
0000
,
0002
0000
0000
0000
,
0000
0000
0003
0000
,
0100
0000
0100
0000
,
0010
0000
0010
0000
,
0100
0000
0100
0000
,
0010
0000
0010
0000
,
0001
0000
1000
0000
,
0001
0000
1000
0000
,
1000
0000
0001
0000
,
1000
0000
0001
0000
,
0010
0010
0000
0010
0000
0000
0000
0010
,
0000
0000
0000
0001
0000
0001
0000
0000
,
0001
0000
0001
0000
,
0000
0000
0000
0100
0000
0100
0000
0000
,
0000
0100
0000
0000
0100
0000
0000
0000
,
0000
1000
0000
0000
0000
1000
0000
0000
,
1000
0000
0000
0000
,
0001
0000
0000
0000
,
0100
0000
0000
0000
,
0010
0000
0000
0000
,
1000
1000
0000
0000
,
0001
0001
0000
0000
,
0100
0100
0000
0000
,
0010
0010
0010
0010
;

//---------------dance-single - ----------------
#NOTEDATA:;
#CHARTNAME:;
#STEPSTYPE:dance-single;
#DESCRIPTION:;
#CHARTSTYLE:Pad;
#DIFFICULTY:Hard;
#METER:11;
#RADARVALUES:0.448088,0.483120,0.433591,0.166056,0.212183,340.000000,293.000000,47.000000,18.000000,0.000000,0.000000,2.000000,0.000000,0.000000,0.448088,0.483120,0.433591,0.166056,0.212183,340.000000,293.000000,47.000000,18.000000,0.000000,0.000000,2.000000,0.000000,0.000000;
#CREDIT:Mozata;
#DISPLAYBPM:124.000000;
#NOTES:
// measure 0
0000
0000
0000
0000
,  // measure 1
0100
0100
0100
0100
,  // measure 2
0100
0100
0100
0100
,  // measure 3
0100
0100
0100
0100
,  // measure 4
0100
0100
1100
0101
,  // measure 5
0011
1010
1100
0100
,  // measure 6
0100
0100
1100
1001
,  // measure 7
0011
0110
1100
0100
,  // measure 8
0100
0100
0101
1010
,  // measure 9
1100
0011
0101
0100
,  // measure 10
0100
0100
0100
0110
,  // measure 11
1001
0000
0000
0000
0000
0000
1001
0000
0000
0000
0000
0000
1000
0000
0000
0000
0100
0000
0001
0000
0000
0010
0000
0000
,  // measure 12
0110
0000
0000
0000
0000
0100
1000
0000
0000
1000
0000
0000
0010
0000
0000
0000
0000
0100
0001
0000
0000
0010
0000
0000
,  // measure 13
1000
0000
0000
0000
0000
1000
0100
0000
0000
1000
0000
0000
1000
0000
0000
0000
0000
0001
0010
0000
0000
0100
0000
0000
,  // measure 14
1000
0000
0000
0000
0000
1000
0100
0000
0000
0010
0000
0000
0001
0000
0000
0000
0000
1000
0001
0000
0000
1000
0000
0000
,  // measure 15
0010
0000
0000
0000
0000
0100
0010
0000
0000
0001
0000
0000
1000
0000
0000
0110
0000
0000
0001
0000
0000
0000
0000
0000
,  // measure 16
1100
0000
0000
0000
0000
0100
0001
0000
0000
0100
0000
0000
1000
0000
0000
0000
0000
1000
0010
0000
0000
0001
0000
0000
,  // measure 17
0010
0000
0000
0000
0000
0100
0001
0000
0000
1000
0000
0000
0100
0000
0000
0000
0000
1000
0010
0000
0000
0100
0000
0000
,  // measure 18
0001
0000
0000
0000
0000
0001
0010
0000
0000
0010
0000
0000
0001
0000
0000
0000
0000
1000
0010
0000
0000
0010
0000
0000
,  // measure 19
0100
0000
0000
0000
0000
1000
0100
0000
0000
1000
0000
0000
0001
0000
0000
0010
0000
0000
0100
0000
0000
1000
0000
0000
,  // measure 20
1100
0000
1000
0000
0001
1000
0001
0000
0100
0000
0100
0000
0010
0100
0010
0000
,  // measure 21
0201
0000
0000
0010
0000
0000
1300
0000
0000
0000
0100
0000
1000
0000
0100
0000
,  // measure 22
0002
0000
0000
0000
0000
0000
0000
0000
0000
0000
0000
0003
0000
0000
0000
0000
,  // measure 23
1000
0000
0010
1000
0000
0010
1000
0000
0000
0000
0100
0000
0010
0000
0001
0000
,  // measure 24
0011
0000
0001
0000
1000
0001
1000
0000
0010
0000
0010
0000
0100
0010
0100
0000
,  // measure 25
1020
0000
0000
0001
0000
0000
0130
0000
0000
0000
0000
0000
0100
0000
0001
0000
,  // measure 26
2000
3200
0320
0230
,  // measure 27
2300
0000
0000
3000
0000
0000
4004
0000
0000
0000
0000
3003
,  // measure 28
1000
0000
0000
1000
0000
0001
0000
0000
0000
0001
0000
0000
0100
0000
0000
0100
0000
0000
0010
0000
0000
0010
0000
0000
,  // measure 29
1000
0000
0000
1000
0000
0100
0000
0000
0000
0100
0000
0000
0001
0000
0000
0001
0000
0000
0100
0000
0000
0100
0000
0000
,  // measure 30
0010
0000
0000
0010
0000
0001
0000
0000
0000
0001
0000
0000
1000
0000
0000
1000
0000
0000
0010
0000
0000
0010
0000
0000
,  // measure 31
0100
0000
0000
0100
0000
0001
0000
0000
0000
0001
0000
0000
0000
0000
0000
1010
0000
0000
2020
0000
0000
3030
0000
0000
,  // measure 32
1000
0000
0000
1000
0000
0100
0000
0000
0000
0100
0000
0000
0010
0000
0000
0010
0000
0000
0001
0000
0000
0001
0000
0000
,  // measure 33
1000
0000
0000
1000
0000
0100
0000
0000
0000
0100
0000
0000
0001
0000
0000
0001
0000
0000
0010
0000
0000
0010
0000
0000
,  // measure 34
0100
0000
0000
0100
0000
1000
0000
0000
0000
1000
0000
0000
0010
0000
0000
0010
0000
0000
0100
0000
0000
0100
0000
0000
,  // measure 35
0001
0000
0000
0001
0000
1000
0000
0000
0000
1000
0000
0000
0010
0000
0000
0010
0000
0000
0100
0000
0000
0100
0000
0000
,  // measure 36
1001
0011
0202
0000
0000
0303
0000
1010
,  // measure 37
1100
0000
0220
0000
0000
0330
0000
0010
,  // measure 38
1000
0000
0100
1000
0000
0100
1000
0000
0000
0000
0100
0000
0010
0000
0001
0000
,  // measure 39
0011
0000
0000
0000
0001
0000
0100
0000
1000
0100
0000
0000
0022
0000
0000
0000
0000
0000
0000
0000
0000
0033
0000
0000
,  // measure 40
0000
1000
0010
0202
0000
0000
0000
0303
,  // measure 41
0100
0000
1010
0000
0000
0101
0000
0000
1010
0000
0000
0000
0001
0000
1000
0000
,  // measure 42
0001
0001
0100
0010
1000
0000
0000
1100
,  // measure 43
0000
0000
0000
0010
0000
0000
0100
0000
1000
0000
0000
0000
0001
0000
1000
0000
,  // measure 44
0000
0000
0101
0000
0000
0000
0000
0000
0100
0001
0100
0000
0000
0000
0000
0000
,  // measure 45
0001
0000
0010
0001
0000
0010
0001
0000
0000
0000
0001
0000
0010
0000
0100
0000
,  // measure 46
0000
0000
0000
1001
0000
0000
0000
0000
0010
0100
0000
0010
0100
0000
0000
0000
0000
0000
0000
0000
0000
1001
0000
0000
,  // measure 47
0000
0000
0000
0000
1100
0000
0110
0010
,  // measure 48
0000
0000
0101
0000
0000
0000
0000
0000
0010
0100
0010
0000
0010
0000
0000
0000
,  // measure 49
1000
0000
0000
0000
0000
0000
0001
0000
0000
1000
0000
0000
0000
0000
0000
0001
0000
0000
1000
0000
0000
0000
0000
0000
0010
0000
0000
0000
0000
0000
0000
0000
0000
0000
0010
0000
0100
0000
0000
0000
0000
0000
0100
0000
0000
0000
0000
0000
;
