#TITLE:Hey Ya!;
#SUBTITLE:;
#ARTIST:Andre 3000;
#TITLETRANSLIT:;
#SUBTITLETRANSLIT:;
#ARTISTTRANSLIT:;
#GENRE:;
#CREDIT:;
#BANNER:heyya-bn.png;
#BACKGROUND:heyya-bg.png;
#LYRICSPATH:;
#CDTITLE:;
#MUSIC:heyya.ogg;
#OFFSET:0.000000;
#SAMPLESTART:34.716000;
#SAMPLELENGTH:12.000000;
#SELECTABLE:YES;
#BPMS:0.000000=159.000000
,136.000000=158.699997
,156.000000=158.600006
,168.000000=159.250000
;
#STOPS:
;
#BGCHANGES:;
#KEYSOUNDS:;
#ATTACKS:;

//---------------dance-single - ----------------
#NOTES:
     dance-single:
     :
     Beginner:
     2:
     0.130038,0.276049,0.009894,0.000000,0.000000,92.000000,91.000000,1.000000,0.000000,0.000000,0.000000,0.130038,0.276049,0.009894,0.000000,0.000000,92.000000,91.000000,1.000000,0.000000,0.000000,0.000000:
// measure 0
0000
0000
0000
0000
,  // measure 1
0010
0000
0000
0000
,  // measure 2
0100
0000
0000
0000
,  // measure 3
0010
0000
0000
0000
,  // measure 4
0100
0000
0100
0000
,  // measure 5
0000
0000
0000
0000
,  // measure 6
0000
0000
1000
0000
,  // measure 7
0000
0000
0001
0000
,  // measure 8
0000
0000
1000
0000
,  // measure 9
0000
0000
0001
0000
,  // measure 10
0001
0000
0000
0000
,  // measure 11
0000
0000
0000
0000
,  // measure 12
0100
0000
0000
0000
,  // measure 13
0001
0000
0000
0000
,  // measure 14
0100
0000
0000
0000
,  // measure 15
0001
0000
0001
0000
,  // measure 16
0000
0000
0000
0000
,  // measure 17
0000
0000
0010
0000
,  // measure 18
0000
0000
1000
0000
,  // measure 19
0000
0000
0010
0000
,  // measure 20
0000
0000
1000
0000
,  // measure 21
1000
0000
0000
0000
,  // measure 22
0000
0000
0000
0000
,  // measure 23
1000
0000
1000
0000
,  // measure 24
0001
0000
0000
0000
,  // measure 25
0001
0000
0001
0000
,  // measure 26
0010
0000
0100
0000
,  // measure 27
0000
0000
0100
0000
,  // measure 28
0000
0000
0001
0000
,  // measure 29
0001
0000
0010
0000
,  // measure 30
0000
0000
0100
0000
,  // measure 31
0100
0000
1000
0000
,  // measure 32
1000
0000
0000
0000
,  // measure 33
0010
0000
0000
0000
,  // measure 34
1001
0000
0000
0000
,  // measure 35
0100
0000
0000
0000
,  // measure 36
0100
0000
0000
0000
,  // measure 37
0100
0000
0000
0000
,  // measure 38
0000
0000
0010
0010
,  // measure 39
0010
0010
0010
0010
,  // measure 40
0010
0010
0010
0010
,  // measure 41
0010
0010
0010
0010
,  // measure 42
0010
0000
0001
0000
,  // measure 43
1000
0000
0001
0000
,  // measure 44
0100
0000
0001
0000
,  // measure 45
0010
0000
0100
0000
,  // measure 46
1000
0000
0100
0000
,  // measure 47
1000
0000
0100
0000
,  // measure 48
0010
0000
0100
0000
,  // measure 49
1000
0000
0001
0000
,  // measure 50
1000
0000
0001
0000
,  // measure 51
0100
0000
0010
0000
,  // measure 52
1000
0000
0010
0000
,  // measure 53
0010
0000
0001
0000
,  // measure 54
0100
0000
0000
0000
,  // measure 55
0100
0000
0100
0000
,  // measure 56
0001
0000
0010
0000
,  // measure 57
0000
0000
0010
0000
,  // measure 58
0000
0000
0010
0000
,  // measure 59
1000
0000
0100
0000
,  // measure 60
0000
0000
0100
0000
,  // measure 61
0100
0000
1000
0000
,  // measure 62
0010
0000
0000
0000
;

//---------------dance-single - ----------------
#NOTES:
     dance-single:
     :
     Easy:
     5:
     0.260077,0.411600,0.108837,0.039577,0.000000,184.000000,173.000000,11.000000,4.000000,0.000000,0.000000,0.260077,0.411600,0.108837,0.039577,0.000000,184.000000,173.000000,11.000000,4.000000,0.000000,0.000000:
0000
0000
0000
0000
,
0010
0010
0010
0000
,
0100
0100
0100
0000
,
0100
0100
0100
0000
,
0010
0010
1001
0000
,
0000
0000
0000
0001
,
0001
0001
1000
1000
,
1000
0000
0001
0001
,
0001
0000
0001
0001
,
0001
0000
1000
1000
,
0110
0000
0000
0000
,
0000
1000
1000
1000
,
0100
0100
0100
0000
,
0001
0001
0001
0000
,
0100
0100
0100
0000
,
1000
1000
1001
0000
,
0000
0000
0000
0010
,
0010
0010
0100
0100
,
0100
0000
1000
1000
,
1000
0000
0100
0100
,
0100
0000
1000
1000
,
0110
0000
0000
0000
,
0000
0000
1000
0001
1000
0001
1000
0000
,
1001
0001
0001
0010
,
0020
0000
0000
0030
,
0000
0000
0010
0001
,
0010
0100
1000
0000
,
0000
0000
0000
0000
,
0000
0000
0110
0100
,
0100
1000
2000
0000
,
0000
3000
0000
0000
,
1000
0010
0100
0001
,
1000
0000
0000
0000
,
0000
1001
1001
0100
,
0010
0000
0000
0010
,
1000
0000
0000
1000
,
0100
0000
0000
0100
,
0001
0001
0010
0000
,
0000
0000
0010
0100
0010
0000
0010
0100
,
0010
0000
0010
0100
0010
0000
0010
0100
,
0010
0000
0010
0100
0010
0000
0010
0100
,
0010
0000
0010
0100
0010
0000
0010
0100
,
0010
0000
0000
1000
0000
0000
0010
0000
,
1000
0000
0000
0001
0000
0000
1000
0000
,
0001
0000
0000
1000
0000
0000
0001
0000
,
0100
0000
0100
0000
0001
0000
0000
0010
,
0000
0000
0001
0000
1000
0000
0000
0100
,
0000
0000
1000
0000
0010
0000
0000
1000
,
0000
0000
0010
0000
0100
0000
0000
0001
,
0000
0000
0100
0000
0100
0000
0000
0001
,
0000
0100
1000
0010
,
1000
0000
0000
0001
0000
0000
1000
0000
,
1000
0100
0010
0001
,
1001
1000
1000
0010
,
0020
0000
0000
0030
,
0000
0000
0010
0100
,
1000
0001
0100
0000
,
0000
0000
0000
0000
,
0000
0000
0110
0001
,
1000
0001
0200
0000
,
0000
0300
0000
0000
,
0100
0001
1000
0010
,
1000
0000
0000
0000
,
0000
0000
0000
0000
,
1001
0000
0000
0000
;

//---------------dance-single - ----------------
#NOTES:
     dance-single:
     :
     Medium:
     6:
     0.412731,0.538246,0.267144,0.000000,0.000000,292.000000,265.000000,27.000000,0.000000,0.000000,0.000000,0.412731,0.538246,0.267144,0.000000,0.000000,292.000000,265.000000,27.000000,0.000000,0.000000,0.000000:
0000
0000
0000
0000
,
1000
0000
1000
0000
0000
0001
0010
0000
,
0100
0000
0100
0000
0000
0100
0001
0000
,
1000
0000
1000
0000
0000
0001
0010
0000
,
0100
1000
0100
0001
,
0000
1000
0001
0000
0001
0000
1001
0000
,
0110
1001
0100
0100
,
0000
0010
0100
0000
0001
0000
1000
0000
,
0000
0010
1000
0000
0010
0000
1000
0000
,
0000
0001
0100
0000
0100
0000
0001
0000
,
1000
0000
0100
0000
0000
0100
0010
0000
,
0100
0110
1001
0110
,
1000
0000
0100
0000
0000
1000
0010
0000
,
0100
0000
0001
0000
0000
0010
0001
0000
,
1000
0000
0010
0000
0000
0100
0010
0000
,
1000
1000
0001
0001
,
0000
0100
0001
0000
1000
0000
1010
0000
,
1001
0101
1000
0100
,
0000
0100
1000
0000
0001
0000
0100
0000
,
0000
0100
0001
0000
1000
0000
0010
0000
,
0000
0010
1000
0000
0100
0000
0010
0000
,
0001
0000
0010
0000
0000
0100
1000
0000
,
0001
0011
0110
1100
,
1000
0000
0000
1000
0000
1000
0010
0000
,
0100
0000
0000
0100
0000
0100
0001
0000
,
0100
0000
0000
0100
0000
0100
0001
0000
,
0011
0000
1000
0000
1010
0000
0000
1000
,
0000
1000
0010
0000
1000
0000
0000
1000
,
0000
1000
0001
0000
0100
0000
0000
0100
,
0000
0100
0010
0000
1000
0000
0000
1000
,
0000
1000
0001
0000
0001
0000
0000
0001
,
0000
0001
0010
0000
1100
0000
0001
0000
,
0101
0000
0000
0001
0000
0001
1000
0000
,
0010
0000
0000
0010
0000
0010
1000
0000
,
1000
0000
0000
0100
0000
0000
0010
0000
,
0001
0000
0000
0010
0000
0000
0100
0000
,
1000
0000
0000
0100
0000
0000
0010
0000
,
0001
0000
0001
0000
1000
0000
0000
0010
,
0000
0100
0010
0100
0010
0100
0010
0100
,
0010
0100
0010
0100
0010
0100
0010
0100
,
0010
0100
0010
0100
0010
0100
0010
0100
,
0010
0100
0010
0100
0010
0100
0010
0100
,
0010
0000
0001
0000
0000
0100
0001
0000
,
0001
0000
1000
0000
0000
0100
1000
0000
,
1000
0000
0100
0000
0000
0010
0100
0000
,
0110
0010
0011
0001
,
0000
0010
0001
0000
0001
0000
0101
0000
,
1010
0101
1001
0001
,
0000
0010
0001
0000
0001
0000
1000
0000
,
0000
0010
1000
0000
0100
0000
0001
0000
,
0000
0100
0001
0000
0001
0000
1000
0000
,
0100
0000
1000
0000
0000
0100
1000
0000
,
1000
1100
0011
1100
,
0110
0000
0000
0010
0000
0010
0100
0000
,
0001
0000
0000
1000
0000
1000
0001
0000
,
0100
0000
0000
1000
0000
1000
0100
0000
,
0001
0000
0001
0000
0010
0000
0000
0010
,
0000
0010
0010
0000
0010
0000
0000
0010
,
0000
0010
0010
0000
1001
0000
0000
0100
,
0000
0100
0001
0000
0010
0000
0000
0010
,
0000
0010
0001
0000
1000
0000
0000
0010
,
0000
0010
1000
0000
0100
0000
0010
0000
,
0001
0000
0000
0010
0000
0010
0100
0000
,
1000
0000
0000
0010
0000
0010
0100
0000
,
0001
0000
0000
0000
;

//---------------dance-single - ----------------
#NOTES:
     dance-single:
     :
     Hard:
     8:
     0.479163,0.567681,0.534288,0.089048,0.004947,339.000000,285.000000,54.000000,9.000000,0.000000,0.000000,0.479163,0.567681,0.534288,0.089048,0.004947,339.000000,285.000000,54.000000,9.000000,0.000000,0.000000:
0000
0000
0000
0000
,
1100
0000
0100
1000
0000
1000
0001
0000
,
0101
0000
0100
0001
0000
0001
1000
0000
,
1010
0000
0010
1000
0000
1000
0001
0000
,
0011
0001
0202
0000
,
0000
0000
0000
0000
0303
0000
0010
0100
,
0010
0100
0010
0000
1010
0000
0010
0100
,
0000
0100
0001
0000
0101
0000
0100
0010
,
0000
0010
1000
0000
1100
0000
0100
0010
,
0000
0010
0001
0000
0011
0000
0011
0000
,
2002
0000
0000
0000
,
3003
0000
0010
0001
0010
0001
0010
0000
,
1100
0000
1000
0001
0000
0010
0001
0000
,
1010
0000
1000
0001
0000
0100
0001
0000
,
1001
0000
0100
0001
0000
0001
0100
0000
,
1010
1000
2200
0000
,
0000
0000
0000
0000
3300
0000
1000
0001
,
1000
0001
1000
0000
0010
0000
0001
1000
,
0000
1000
0001
0000
0101
0000
0100
0001
,
0000
0001
0100
0000
1010
0000
1000
0010
,
0000
0010
1000
0000
1000
0000
0001
0000
,
0220
0000
0000
0000
,
0330
0000
0001
0010
0100
1000
0001
0000
,
1000
0000
0100
0000
0000
1000
1100
0000
,
0001
0000
0100
0000
0000
0001
0101
0000
,
0001
0000
0010
0000
0000
0001
0011
0000
,
1000
1010
0100
0001
,
0000
0010
1001
0000
0100
0000
0010
1000
,
0100
1000
0010
0000
0001
0000
0100
0000
,
0000
0001
0101
0000
1000
0000
0010
0000
,
0000
1000
1010
0000
0001
0000
0010
0000
,
0000
0001
0011
0000
1000
0000
1100
0000
,
1000
0000
0100
0000
0000
0001
0110
0000
,
1000
0000
0001
0010
1000
0010
0001
0010
,
1000
0000
0000
0000
0000
1000
0000
0000
,
0100
0000
0000
0100
0000
0010
1000
0010
,
1000
0000
0000
0001
0000
0100
0001
0100
,
0002
0000
1003
0000
0100
0000
0000
1000
,
0000
1000
0001
0010
0001
1000
0010
1000
,
0010
1000
0100
0010
0001
0010
0100
1000
,
0001
0100
0001
1000
0010
1000
0100
0010
,
0001
0000
0100
0000
0010
0000
0100
0000
0001
0000
1000
0010
1000
0000
0001
0000
,
0001
0000
1000
0000
0000
0101
1100
0000
,
1000
0000
0001
0000
0000
1010
0011
0000
,
0001
0000
0100
0000
0000
0110
1001
0000
,
1000
0100
0001
0100
,
0000
0110
1001
0000
0010
0000
1000
0001
,
1000
0001
1000
0000
0100
0000
0001
0000
,
0000
0110
1010
0000
1000
0000
0010
0000
,
0000
0110
0101
0000
0001
0000
1000
0000
,
0000
1100
1001
0000
0010
0000
0001
0000
,
0100
0000
1000
0000
0000
0001
1001
0000
,
0001
0000
0100
1000
0010
0001
0100
0000
,
1000
0000
0100
0000
0000
1000
1100
0000
,
0001
0000
0100
0000
0000
0001
0101
0000
,
0001
0000
0100
0000
0000
0001
0101
0000
,
1000
1010
0001
0010
,
0000
0001
0011
0000
0001
0000
0010
0001
,
1000
0010
0100
0000
0010
0000
0010
0000
,
0000
1000
1010
0000
0001
0000
0010
0000
,
0000
0001
0011
0000
1000
0000
0010
0000
,
0000
1000
1010
0000
0001
0000
0101
0000
,
1000
0000
0100
0000
0000
1000
1100
0000
,
1000
0000
0100
1000
0001
0100
0010
0000
;
