#TITLE:Fuel;
#SUBTITLE:;
#ARTIST:Metallica;
#TITLETRANSLIT:;
#SUBTITLETRANSLIT:;
#ARTISTTRANSLIT:;
#GENRE:;
#CREDIT:;
#BANNER:fuel-bn.png.png;
#BACKGROUND:fuel-bg.png;
#LYRICSPATH:;
#CDTITLE:;
#MUSIC:fuel.ogg;
#OFFSET:0.000000;
#SAMPLESTART:1.880000;
#SAMPLELENGTH:12.000000;
#SELECTABLE:YES;
#BPMS:0.000000=214.000000
,52.000000=212.000000
,118.000000=215.000000
,120.000000=219.000000
,128.000000=217.000000
,140.000000=219.000000
,144.000000=217.000000
,178.000000=213.000000
,202.000000=215.000000
,220.000000=212.000000
,224.000000=106.000000
,244.000000=110.000000
,254.000000=106.000000
,259.000000=110.000000
,260.000000=215.000000
,291.000000=212.000000
;
#STOPS:260.000000=2.000000
;
#BGCHANGES:;
#KEYSOUNDS:;
#ATTACKS:;

//---------------dance-single - ----------------
#NOTES:
     dance-single:
     :
     Beginner:
     4:
     0.230039,0.525903,0.348722,0.102565,0.000000,157.000000,123.000000,34.000000,10.000000,0.000000,0.000000,0.230039,0.525903,0.348722,0.102565,0.000000,157.000000,123.000000,34.000000,10.000000,0.000000,0.000000:
0000
0000
0000
0000
,
0000
0000
0000
0000
,
0000
0000
0000
0000
,
0000
0000
0000
0000
,
0001
0000
0000
0000
,
0000
0000
0000
0000
,
1001
0000
0001
0000
,
1000
0000
0001
0000
,
1000
0000
0010
0000
,
0010
0000
0010
0000
,
1000
0000
0001
0000
,
0001
0000
1000
0000
,
1000
0000
0001
0000
,
0100
0000
0100
0000
,
0110
0000
0000
0000
,
0110
0000
0000
0000
,
0110
0000
0000
0000
,
0110
0000
0000
0000
,
1001
0000
1000
0000
,
0001
0000
1000
0000
,
0020
0000
0030
0000
,
0200
0000
0300
0000
,
0001
0000
0001
0000
,
1000
0000
1000
0000
,
0020
0000
0030
0000
,
0200
0000
0300
0000
,
2000
0000
3000
0000
,
0002
0000
0003
0000
,
0100
0000
0001
0000
,
0100
0000
0001
0000
,
0100
0000
0001
0000
,
0100
0000
0001
0000
,
1000
0000
1000
0000
,
0001
0000
1000
0000
,
0020
0000
0030
0000
,
0002
0000
0003
0000
,
0001
0000
0001
0000
,
0001
0000
0001
0000
,
0100
0000
0100
0000
,
0100
0000
0100
0000
,
1000
0000
1000
0000
,
1000
0000
1000
0000
,
0100
0000
0100
0000
,
0100
0000
0100
0000
,
0100
0000
1001
0000
,
0000
0000
0001
0000
,
0100
0000
0100
0000
,
0100
0000
0100
0000
,
0001
0000
0001
0000
,
0001
0000
0001
0000
,
0010
0000
0010
0000
,
0010
0000
0010
0010
,
0010
0000
1000
0000
,
0001
0000
1000
0000
,
1001
0000
0000
0000
,
0000
0000
0000
0000
,
2002
0000
3003
0000
,
1001
1001
1001
0000
,
0110
0110
0110
0000
,
1001
1001
1001
0000
,
0110
0110
0110
0000
,
1001
0000
1001
0000
,
0110
0000
0110
0000
,
1001
0000
1001
0000
,
0010
0010
0010
0000
,
1001
1001
0000
1000
,
0000
0001
0000
1000
,
0000
0001
0000
1000
,
0000
0001
0001
0001
,
0000
0110
0000
0000
,
0000
0110
0000
0000
,
0000
0110
0000
0000
,
0000
0110
0000
0000
,
0000
1001
0000
0000
;

//---------------dance-single - ----------------
#NOTES:
     dance-single:
     :
     Easy:
     6:
     0.342861,0.525903,0.461543,0.112822,0.000000,234.000000,189.000000,45.000000,11.000000,0.000000,0.000000,0.342861,0.525903,0.461543,0.112822,0.000000,234.000000,189.000000,45.000000,11.000000,0.000000,0.000000:
0000
0000
0000
0000
,
0000
0000
0000
0000
,
0000
0000
0000
0000
,
0000
0000
0000
0000
,
0010
0000
0000
0000
,
0000
0000
0000
0000
,
1001
1000
0100
1000
,
0100
1000
0100
1000
,
0010
1000
0010
1000
,
0001
0001
1000
0001
,
0100
0001
0100
0001
,
0100
0001
0100
0001
,
0010
0001
0010
0001
,
1000
1000
0010
1000
,
1001
0000
0110
0000
,
1001
0000
0110
0000
,
1001
0000
0110
0000
,
1001
0000
0100
0100
,
0110
0001
0100
0001
,
0100
0010
0100
0010
,
0200
0000
0000
0000
,
0302
0000
0000
1003
,
0100
0000
1001
0000
,
0010
0000
1001
0000
,
0200
0000
0000
0000
,
0302
0000
0000
0000
,
0023
0000
0000
0000
,
0230
0000
0000
0000
,
1300
0000
0110
0000
,
0001
0000
0110
0000
,
1000
0000
0110
0000
,
0001
0000
0110
1000
,
0100
1000
0100
1000
,
0100
1000
0100
1000
,
1001
0000
0000
0000
,
1001
0000
0000
0000
,
0010
0100
0010
0000
,
0100
0010
0100
0000
,
0001
0100
0001
0000
,
1000
0001
1000
0000
,
0010
1000
0010
0000
,
0100
0010
0100
0000
,
0010
1000
0010
0000
,
0100
0001
0100
0000
,
0001
0010
0001
0000
,
0010
0001
0010
0000
,
0100
1000
0100
0000
,
0010
0100
0010
0000
,
0001
1000
0001
0000
,
1000
0001
1000
0000
,
0010
0010
0100
0010
,
0100
0001
0100
0010
,
1001
1000
0000
0010
,
1000
0010
0000
1000
,
1001
0000
0000
0000
,
0000
0000
0000
0000
,
0020
0000
0130
0000
,
1001
1010
1100
0000
,
1001
0011
0101
0000
,
0101
0110
1010
0000
,
1100
0110
0011
0000
,
1001
0011
0002
0003
,
1001
1010
2000
3000
,
1010
0110
0002
0003
,
0011
0110
2000
3000
,
0001
1001
0100
1000
,
0100
1000
0100
1000
,
0001
0100
0001
0100
,
0010
1000
0010
1000
,
0010
0110
0000
0001
,
0000
0110
0000
1000
,
0000
0110
0000
0001
,
0000
0110
0000
1000
,
0000
1001
0000
0000
;

//---------------dance-single - ----------------
#NOTES:
     dance-single:
     :
     Medium:
     8:
     0.407330,0.638596,0.369235,0.246156,0.061539,278.000000,242.000000,36.000000,24.000000,0.000000,0.000000,0.407330,0.638596,0.369235,0.246156,0.061539,278.000000,242.000000,36.000000,24.000000,0.000000,0.000000:
// measure 0
0000
0000
0000
0000
,  // measure 1
0000
0000
0000
0000
,  // measure 2
0000
0000
0000
0000
,  // measure 3
0000
0000
0000
0000
,  // measure 4
0020
0000
0000
0000
,  // measure 5
0000
0000
0000
0030
,  // measure 6
1001
0000
0000
0100
0000
0000
0001
0000
,  // measure 7
1001
0000
0000
0010
0000
0000
1000
0000
,  // measure 8
1001
0000
0000
0100
0000
0000
0100
0000
,  // measure 9
0001
0010
0001
0100
,  // measure 10
1001
0000
0000
0010
0000
0000
1000
0000
,  // measure 11
1010
0000
0000
1000
0000
0000
0100
0000
,  // measure 12
1001
0000
0000
0010
0000
0000
0001
0000
,  // measure 13
1000
0000
0010
0000
1000
0000
0001
0100
,  // measure 14
0020
0000
0000
1030
0000
0000
0001
0100
,  // measure 15
0020
0000
0000
1030
0000
0000
0001
0100
,  // measure 16
0020
0000
0000
1030
0000
0000
0001
0100
,  // measure 17
0020
0000
0000
1030
0000
0000
0100
0000
,  // measure 18
0011
0000
0000
0001
0000
0000
1000
0000
,  // measure 19
0101
0000
0000
0010
0000
0000
1000
0000
,  // measure 20
2200
0000
0000
3300
,  // measure 21
0202
0000
0000
0303
,  // measure 22
1010
0000
1010
0000
,  // measure 23
0011
0000
0011
0000
,  // measure 24
0200
0000
0000
0000
,  // measure 25
0320
0000
0000
0000
,  // measure 26
2030
0000
0000
0000
,  // measure 27
3002
0000
0000
0000
0000
0003
0001
0100
,  // measure 28
0020
0000
0000
1030
0000
0000
0001
0100
,  // measure 29
0020
0000
0000
1030
0000
0000
0001
0100
,  // measure 30
0020
0000
0000
1030
0000
0000
0001
0100
,  // measure 31
0020
0000
0000
1030
0000
0000
0100
0000
,  // measure 32
1001
0100
1001
0100
,  // measure 33
0010
0100
0010
0100
,  // measure 34
0101
0000
1010
0000
,  // measure 35
1100
0000
0011
0000
,  // measure 36
0001
0100
0000
0010
0100
0000
0000
0000
,  // measure 37
0010
0100
0000
0001
0100
0000
0000
0000
,  // measure 38
0010
0100
0000
0001
0100
0000
0000
0000
,  // measure 39
0010
1000
0000
0100
0010
0000
0000
0000
,  // measure 40
0010
0100
0000
1000
0100
0000
0000
0000
,  // measure 41
0010
0100
0000
1000
0100
0000
0000
0000
,  // measure 42
0010
0001
0000
0100
0010
0000
0000
0000
,  // measure 43
0010
0100
0000
0001
0100
0000
0000
0000
,  // measure 44
0010
1000
0000
0001
0100
0000
0000
0000
,  // measure 45
0010
0100
0000
0001
0100
0000
0000
0000
,  // measure 46
0010
1000
0000
0001
0100
0000
0000
0000
,  // measure 47
0010
0100
0000
0001
0100
0000
0000
0000
,  // measure 48
0010
1000
0000
0100
0010
0000
0000
0000
,  // measure 49
0100
0010
0000
0001
0100
0000
0000
0000
,  // measure 50
0010
0100
0000
0001
0100
0000
0000
0000
,  // measure 51
0010
0100
0010
0100
0001
1000
0001
0000
,  // measure 52
1001
0000
0000
1000
0000
0000
0010
0000
,  // measure 53
1010
0000
0000
0100
0000
0000
0010
0000
,  // measure 54
0101
0000
0000
0000
,  // measure 55
0000
0000
0000
0000
,  // measure 56
2000
0000
0000
3000
,  // measure 57
0010
0000
0000
1000
0000
0000
0001
0000
0101
0000
0000
0000
0101
0000
0000
0000
,  // measure 58
0010
0000
0000
1000
0000
0000
0100
0000
1100
0000
0000
0000
0011
0000
0000
0000
,  // measure 59
0001
0000
0000
1000
0000
0000
0010
0000
1010
0000
0000
0000
1010
0000
0000
0000
,  // measure 60
0100
0000
0000
0010
0000
0000
1000
0000
1100
0000
0000
0000
0011
0000
0000
0000
,  // measure 61
0001
0010
0100
1000
0000
0000
0010
0000
1000
0000
0000
0000
0000
0000
0000
0000
,  // measure 62
1000
0010
0100
0001
0000
0000
0100
0000
0002
0000
0000
0000
0003
0000
0000
0000
,  // measure 63
0001
0010
0100
1000
0000
0000
0000
0000
0010
0000
1000
0000
0000
0000
0000
0000
,  // measure 64
1000
0010
0100
0001
0000
0000
1000
0000
0020
0000
0000
0000
0030
0000
0000
0000
,  // measure 65
1001
0000
1001
0000
0000
0100
0000
0000
,  // measure 66
0010
0000
1001
0000
0000
0001
0000
0000
,  // measure 67
1000
0000
1001
0000
0000
0010
0000
0000
,  // measure 68
0100
0000
0001
1000
0001
1000
0001
0100
,  // measure 69
0001
0100
0020
0000
0000
1030
0000
0000
,  // measure 70
0001
0100
0020
0000
0000
1030
0000
0000
,  // measure 71
0001
0100
0020
0000
0000
1030
0000
0000
,  // measure 72
0001
0100
0020
0000
0000
1030
0000
0100
,  // measure 73
0010
1001
0000
0000
;

//---------------dance-single - ----------------
#NOTES:
     dance-single:
     :
     Hard:
     12:
     0.594878,0.826419,0.410261,0.215387,0.061539,406.000000,366.000000,40.000000,21.000000,0.000000,0.000000,0.594878,0.826419,0.410261,0.215387,0.061539,406.000000,366.000000,40.000000,21.000000,0.000000,0.000000:
0000
0000
0000
0000
,
0000
0000
0000
0000
,
0000
0000
0000
0000
,
0000
0000
0000
0000
,
0010
0000
0100
0010
0000
0100
0010
0000
,
0010
0000
0100
0010
0000
0100
0010
0000
,
1001
0000
1000
0001
0000
1000
0001
1000
,
1001
0000
0100
0010
0000
0100
0010
0100
,
0110
0000
1000
0010
0000
1000
0010
1000
,
0001
0010
0001
0010
0100
0010
0001
0000
,
1001
0000
0100
0001
0000
0100
0001
0010
,
0100
0000
1000
0010
0000
1000
0010
0100
,
0001
0000
1000
0001
0000
1000
0001
0100
,
0010
1000
0010
1000
0100
0010
0001
0100
,
0010
0000
0010
1000
0000
0001
0100
0001
,
0010
0000
0010
0001
0000
1000
0100
1000
,
0010
0000
0010
1000
0000
0001
0100
0001
,
0010
0000
0010
0001
0000
1000
0100
0000
,
1100
0011
0101
1010
,
1001
0110
1001
0011
,
0220
0000
0000
0030
,
2000
0000
0000
0000
0000
3300
1000
0100
,
0001
0000
0001
0100
1000
0000
1000
0010
,
0001
0000
0001
0010
0000
1000
0010
0000
,
0202
0000
0000
0303
,
0022
0000
0000
0033
,
2020
0000
0000
3030
,
2200
0000
0000
0000
3300
0000
0100
1000
,
0010
0000
0010
1000
0000
0001
0100
0001
,
0010
0000
0010
0001
0000
1000
0100
1000
,
0010
0000
0010
1000
0000
0001
0100
0001
,
0010
0000
0010
0001
0000
1000
0200
0000
,
0310
0000
0001
1000
0000
0001
1000
0000
,
1001
0000
0100
0010
0000
0100
0010
0000
,
0010
1000
0000
1000
0010
0000
0000
0000
,
0010
0001
0000
0001
0010
0000
0000
0000
,
0010
0100
0100
0001
0100
0000
0000
0100
,
0010
0100
0100
0001
0100
0000
0000
0100
,
0001
1000
1000
0010
1000
0000
0000
1000
,
0001
1000
1000
0010
1000
0000
0000
0100
,
1000
0010
0010
1000
0010
0000
0000
1000
,
0001
0100
0100
0001
0100
0000
0000
0001
,
0010
0100
0100
0010
0100
0000
0000
1000
,
0100
0010
0010
0100
0010
0000
0000
0100
,
1000
0010
0010
0100
0010
0000
0000
0100
,
0001
0010
0010
0100
0010
0000
0000
0001
,
1000
0010
0010
1000
0010
0000
0000
1000
,
0010
1000
1000
0010
1000
0000
0000
0001
,
0100
0010
0010
0100
0010
0000
0000
1000
,
0010
0100
0100
0010
0100
0000
0000
0001
,
1000
0100
0100
1000
0001
0000
0000
1000
,
0010
1000
0010
0100
0001
0100
0001
0000
,
1001
0000
0010
0100
0000
0010
0100
0000
,
0110
0000
0010
0100
0000
0010
0100
0000
,
1001
0000
0000
0000
,
0000
0000
0000
0000
,
0002
0000
0000
0000
1000
0103
0000
0000
,
1010
0000
0000
0110
0000
0000
0101
0000
1000
0000
0001
0000
1000
0000
0001
0000
,
0011
0000
0000
0110
0000
0000
1100
0000
0001
0000
1000
0000
2002
0000
3003
0000
,
1010
0000
0000
1001
0000
0000
0011
0000
0010
0000
0100
0000
0010
0000
0100
0000
,
1100
0000
0000
1001
0000
0000
0101
0000
0100
0000
0010
0000
0220
0000
0330
0000
,
1000
0000
0001
0100
0000
0000
0100
0001
1000
0000
0200
0000
0000
0000
0300
0000
,
1000
0000
0001
0100
0000
0000
0100
0001
0020
0000
0000
0000
0000
0000
0030
0000
,
0001
0000
1000
0100
0000
0000
0100
1000
0001
0000
0200
0000
0000
0000
0300
0000
,
0001
0000
1000
0100
0000
0000
0100
1000
0020
0000
0000
0000
0000
0000
0030
0000
,
0011
0000
1100
0000
0010
0001
0000
0100
,
1000
0000
1010
0000
0001
0100
0000
1000
,
0010
0000
1001
0000
0100
0010
0000
1000
,
0001
0000
0100
0010
0100
0010
0100
0010
,
0100
0001
0010
0000
0010
0001
0000
1000
,
0100
1000
0010
0000
0010
1000
0000
0001
,
0100
0001
0010
0000
0010
0001
0000
1000
,
0100
1000
0010
0100
0010
1000
0000
0001
,
0100
1010
0000
0000
;
