#VERSION:0.83;
#TITLE:Doin' It Right;
#SUBTITLE:;
#ARTIST:Daft Punk;
#TITLETRANSLIT:;
#SUBTITLETRANSLIT:;
#ARTISTTRANSLIT:;
#GENRE:;
#ORIGIN:;
#CREDIT:;
#BANNER:doin-bn.png;
#BACKGROUND:doin-bg.png;
#PREVIEWVID:;
#JACKET:;
#CDIMAGE:;
#DISCIMAGE:;
#LYRICSPATH:;
#CDTITLE:;
#MUSIC:Doin it right.ogg;
#OFFSET:0.000000;
#SAMPLESTART:43.122002;
#SAMPLELENGTH:12.000000;
#SELECTABLE:YES;
#BPMS:0.000=89.050;
#STOPS:;
#DELAYS:;
#WARPS:;
#TIMESIGNATURES:0.000=4=4;
#TICKCOUNTS:0.000=4;
#COMBOS:0.000=1;
#SPEEDS:0.000=1.000=0.000=0;
#SCROLLS:0.000=1.000;
#FAKES:;
#LABELS:0.000=Song Start;
#BGCHANGES:;
#KEYSOUNDS:;
#ATTACKS:
;

//---------------dance-single - ----------------
#NOTEDATA:;
#CHARTNAME:;
#STEPSTYPE:dance-single;
#DESCRIPTION:;
#CHARTSTYLE:Pad;
#DIFFICULTY:Beginner;
#METER:1;
#RADARVALUES:0.102837,0.127775,0.000000,0.000000,0.000000,70.000000,70.000000,0.000000,0.000000,0.000000,0.000000,0.000000,0.000000,0.000000,0.102837,0.127775,0.000000,0.000000,0.000000,70.000000,70.000000,0.000000,0.000000,0.000000,0.000000,0.000000,0.000000,0.000000;
#CREDIT:Mozata;
#NOTES:
0000
0000
0000
0000
,
0000
0000
0000
0000
,
0000
0000
0000
0000
,
0000
0000
0000
0000
,
0001
0000
0000
0000
,
0001
0000
0000
0000
,
1000
0000
0100
0000
,
0010
0000
0010
0000
,
0010
0000
0000
1000
,
1000
0000
0000
0100
,
0100
0000
0000
0100
,
0100
0000
0000
0001
,
0001
0000
0010
0000
,
1000
0000
0010
0000
,
0100
0000
0001
0000
,
0100
0000
0001
0000
,
0010
0010
0010
0000
,
1000
1000
1000
0000
,
0001
0001
0001
0000
,
0100
0100
0100
0000
,
0100
0100
0100
0000
,
0001
0001
0001
0000
,
1000
1000
1000
0000
,
0010
0010
0010
0000
,
0010
0000
0000
0000
,
0100
0000
0000
0000
,
0010
0000
0000
0000
,
0100
0000
0000
0000
,
0010
0000
1000
0000
,
0100
0000
1000
0000
,
0010
0000
1000
0000
,
0100
0000
1000
0000
,
0010
0010
0010
0000
,
1000
1000
1000
0000
,
0001
0001
0001
0000
,
0100
0100
0100
0000
;

//---------------dance-single - ----------------
#NOTEDATA:;
#CHARTNAME:;
#STEPSTYPE:dance-single;
#DESCRIPTION:;
#CHARTSTYLE:Pad;
#DIFFICULTY:Easy;
#METER:2;
#RADARVALUES:0.130750,0.147057,0.000000,0.318796,0.000000,89.000000,89.000000,0.000000,31.000000,0.000000,0.000000,0.000000,0.000000,0.000000,0.130750,0.147057,0.000000,0.318796,0.000000,89.000000,89.000000,0.000000,31.000000,0.000000,0.000000,0.000000,0.000000,0.000000;
#CREDIT:Mozata;
#NOTES:
0000
0000
0000
0000
,
0000
0000
0000
0000
,
0000
0000
0000
0000
,
0000
0000
0000
0000
,
0010
0001
0000
0001
,
0100
0001
0000
0001
,
1000
0001
0000
0001
,
0010
1000
0010
0001
,
0100
0000
0000
0100
0000
0000
0001
0000
,
0001
0000
0000
0010
0000
0000
0010
0000
,
1000
0000
0000
1000
0000
0000
1000
0000
,
0100
0000
0000
0010
0000
0000
0001
0000
,
0001
0000
0000
0100
0000
0000
0010
0000
,
1000
0000
0000
0010
0000
0000
0100
0000
,
0010
0000
0000
1000
0000
0000
0001
0000
,
0100
0000
0000
0001
0000
0000
1000
0000
,
0020
0030
0002
0003
,
0200
0300
2000
3000
,
0020
0030
2000
3000
,
0200
0300
0001
0000
,
0002
0023
0230
0300
,
2000
3200
0320
0030
,
0002
0203
0320
0030
,
2000
3020
0230
0300
,
0010
0000
0000
0000
0000
0000
0000
0100
,
0010
0100
0000
0000
,
0010
0000
0000
0000
0000
0000
0000
1000
,
0010
0100
0000
0000
,
1000
0000
0000
0010
0000
0000
0001
0000
,
0010
0000
0000
1000
0000
0000
0100
0000
,
0001
0000
0000
0100
0000
0000
1000
0000
,
0010
0000
0000
0100
0000
0000
0001
0000
,
0002
2003
3020
0030
,
0200
0302
2003
3000
,
0200
0320
0032
0003
,
0020
0230
2300
3000
;

//---------------dance-single - ----------------
#NOTEDATA:;
#CHARTNAME:;
#STEPSTYPE:dance-single;
#DESCRIPTION:;
#CHARTSTYLE:Pad;
#DIFFICULTY:Medium;
#METER:5;
#RADARVALUES:0.205675,0.220586,0.051419,0.452484,0.154256,140.000000,135.000000,5.000000,44.000000,0.000000,0.000000,0.000000,0.000000,0.000000,0.205675,0.220586,0.051419,0.452484,0.154256,140.000000,135.000000,5.000000,44.000000,0.000000,0.000000,0.000000,0.000000,0.000000;
#CREDIT:Mozata;
#NOTES:
0000
0000
0000
0000
,
0000
0000
0000
0000
,
0000
0000
0000
0000
,
0000
0000
0000
0000
,
0200
0310
0000
0110
,
0200
0301
0000
0101
,
2000
3100
0002
0103
,
0020
1030
2000
3001
,
0001
0000
0000
0100
0000
0000
0001
0000
0000
1000
0000
0000
0010
0000
0000
0000
,
0010
0000
0000
1000
0000
0000
0100
0000
0000
0010
0000
0000
0001
0000
0000
0000
,
1000
0000
0000
0010
0000
0000
0001
0000
0000
0010
0000
0000
1000
0000
0000
0000
,
1000
0000
0000
0100
0000
0000
0001
0000
0000
0100
0000
0000
1000
0000
0000
0000
,
0010
0000
0000
1000
0000
0000
0001
0000
0000
1000
0000
0000
0010
0000
0000
0000
,
0100
0000
0000
0001
0000
0000
1000
0000
0000
0001
0000
0000
0100
0000
0000
0000
,
0010
0000
0000
0100
0000
0000
0001
0000
0000
0010
0000
0000
0100
0000
0000
0000
,
0100
0000
0000
1000
0000
0000
0010
0000
0000
0100
0000
0000
0001
0000
0000
0000
,
0002
0023
0230
2300
,
3020
0230
0302
0023
,
0230
0302
0203
2300
,
3020
0032
0023
1030
,
1001
2000
3200
0310
,
0110
0020
2030
3200
,
0302
0023
0032
2003
,
3002
0203
0320
0130
,
0010
0000
0000
0010
0000
0000
0000
0000
0000
0000
0000
0000
0000
0000
1000
0001
,
1000
0000
0000
1000
0000
0000
0000
0000
0000
0000
0000
0000
0000
0000
0000
0000
,
0100
0000
0000
0100
0000
0000
0000
0000
0000
0000
0000
0000
0000
0000
1000
0001
,
1000
0000
0000
0001
0000
0000
1000
0000
0000
0000
0000
0000
0000
0000
0000
0000
,
0100
0000
0000
1000
0000
0000
0001
0000
0000
1000
0000
0000
0010
0000
0000
0000
,
0010
0000
0000
0100
0000
0000
0001
0000
0000
0100
0000
0000
0010
0000
0000
0000
,
1000
0000
0000
0010
0000
0000
0100
0000
0000
0001
0000
0000
0010
0000
0000
0000
,
0010
0000
0000
0100
0000
0000
1000
0000
0000
0001
0000
0000
0010
0000
0000
0000
,
2001
3100
0020
0130
,
0002
0103
0020
1030
,
2000
3200
0320
0032
,
0023
0230
2300
3001
;

//---------------dance-single - ----------------
#NOTEDATA:;
#CHARTNAME:;
#STEPSTYPE:dance-single;
#DESCRIPTION:;
#CHARTSTYLE:Pad;
#DIFFICULTY:Hard;
#METER:7;
#RADARVALUES:0.277661,0.330879,0.370214,0.164540,0.195391,189.000000,153.000000,36.000000,16.000000,0.000000,0.000000,0.000000,0.000000,0.000000,0.277661,0.330879,0.370214,0.164540,0.195391,189.000000,153.000000,36.000000,16.000000,0.000000,0.000000,0.000000,0.000000,0.000000;
#CREDIT:Mozata;
#NOTES:
// measure 0
0000
0000
0000
0000
,  // measure 1
0000
0000
0000
0000
,  // measure 2
0000
0000
0000
0000
,  // measure 3
0000
0000
0000
0000
,  // measure 4
0010
1000
0010
1000
0010
0000
0000
0000
0000
0000
0000
0000
1000
0000
0000
0000
,  // measure 5
0001
0010
0001
0010
0001
0000
0000
0000
0000
0000
0000
0000
1000
0000
0000
0000
,  // measure 6
0010
0000
0000
0010
0000
0000
0010
0000
0100
0000
0001
0000
0100
0000
0010
0000
,  // measure 7
1000
0000
0000
1000
0000
0000
1000
0000
0010
0000
0100
0000
0010
0000
1000
0000
,  // measure 8
0001
0000
0000
0100
0000
0000
0010
0000
0000
1000
0000
0000
0200
0000
0000
0000
,  // measure 9
1300
0000
0000
0010
0000
0000
0100
0000
0000
0001
0000
0000
0020
0000
0000
0000
,  // measure 10
0031
0000
0000
1000
0000
0000
0001
0000
0000
0010
0000
0000
0200
0000
0000
0000
,  // measure 11
1300
0000
0000
0001
0000
0000
1000
0000
0000
0010
0000
0000
2000
0000
0000
0000
,  // measure 12
3100
0000
0000
0001
0000
0000
0100
0000
0000
1000
0000
0000
0020
0000
0000
0000
,  // measure 13
0031
0000
0000
0010
0000
0000
1000
0000
0000
0100
0000
0000
0002
0000
0000
0000
,  // measure 14
0103
0000
0000
0010
0000
0000
0001
0000
0000
1000
0000
0000
0020
0000
0000
0000
,  // measure 15
0130
0000
0000
0001
0000
0000
1000
0000
0000
0001
0000
0000
0100
0000
0000
0000
,  // measure 16
1010
1001
0101
0110
,  // measure 17
1100
1001
0011
0110
,  // measure 18
0101
0110
1010
1001
,  // measure 19
0101
0011
0002
0003
,  // measure 20
0011
1001
0101
1001
,  // measure 21
1010
1001
1100
0110
,  // measure 22
0011
0101
0110
1010
,  // measure 23
1100
0110
0002
0003
,  // measure 24
0100
0000
0010
0100
0000
0000
0000
0000
0000
0000
0000
0000
0000
0000
0001
0100
,  // measure 25
0001
0000
1000
0010
0000
0000
0000
0000
0000
0000
0000
0000
0000
0000
1000
0010
,  // measure 26
1000
0000
0001
0100
0000
0000
0000
0000
0000
0000
0000
0000
0000
0000
0001
0010
,  // measure 27
0001
0000
0010
0100
0000
0100
1000
0000
0000
0000
0000
0000
1001
0000
0000
0000
,  // measure 28
0001
0000
0000
0100
0000
0000
0001
0000
0000
0010
0000
0000
0001
0000
0000
0000
,  // measure 29
1000
0000
0000
0010
0000
0000
1000
0000
0000
0100
0000
0000
1000
0000
0000
0000
,  // measure 30
0010
0000
0000
0001
0000
0000
0010
0000
0000
1000
0000
0000
0100
0000
0000
0000
,  // measure 31
0010
0000
0000
0001
0000
0000
0010
0000
0000
1000
0000
0000
0010
0000
0000
0000
,  // measure 32
0012
0103
2010
3100
,  // measure 33
1002
0013
1200
0310
,  // measure 34
1020
0031
0102
0013
,  // measure 35
2001
3100
0010
0001
;
