#VERSION:0.83;
#TITLE:Dirty Pop;
#SUBTITLE:;
#ARTIST:NSYNC;
#TITLETRANSLIT:;
#SUBTITLETRANSLIT:;
#ARTISTTRANSLIT:;
#GENRE:;
#ORIGIN:;
#CREDIT:;
#BANNER:pop-bn.png;
#BACKGROUND:pop-bg.png;
#PREVIEWVID:;
#JACKET:;
#CDIMAGE:;
#DISCIMAGE:;
#LYRICSPATH:;
#CDTITLE:;
#MUSIC:Dirty.ogg;
#OFFSET:-0.020000;
#SAMPLESTART:21.524000;
#SAMPLELENGTH:12.000000;
#SELECTABLE:YES;
#DISPLAYBPM:*;
#BPMS:0.000=120.010,
4.000=60.000,
4.500=180.000,
5.000=460.000,
6.000=60.000,
6.500=180.000,
7.000=540.000,
8.000=120.000,
22.000=60.000,
22.250=180.000,
23.000=300.000,
24.000=550.000,
25.333=880.000,
28.000=120.000,
34.000=90.000,
34.250=30.000,
34.500=220.000,
35.000=300.000,
36.000=120.050,
102.000=40.000,
102.167=150.000,
102.333=270.000,
102.667=600.000,
103.500=1300.000,
104.500=3000.000,
116.000=240.000,
117.000=120.000,
129.667=60.000,
130.000=140.000,
130.333=290.000,
130.667=490.000,
131.000=1440.000,
135.000=119.750,
179.500=121.000,
180.000=120.000,
195.000=60.000,
196.000=120.000,
196.167=240.000,
196.500=480.000,
197.000=1000.000,
198.167=1800.000,
204.000=2500.000,
216.000=3100.000,
244.000=120.000;
#STOPS:88.000=0.311,
88.333=0.311,
88.667=0.340,
89.000=0.350,
101.333=0.200,
101.667=0.200,
116.000=0.250,
129.000=0.200,
129.333=0.200,
180.000=0.311,
180.333=0.311,
180.667=0.340,
181.000=0.350,
193.333=0.200,
193.667=0.200,
194.000=0.200;
#DELAYS:8.000=2.400;
#WARPS:;
#TIMESIGNATURES:0.000=4=4;
#TICKCOUNTS:0.000=4;
#COMBOS:0.000=1;
#SPEEDS:0.000=1.000=0.000=0;
#SCROLLS:0.000=1.000;
#FAKES:;
#LABELS:0.000=Song Start;
#BGCHANGES:;
#KEYSOUNDS:;
#ATTACKS:
;

//---------------dance-single - ----------------
#NOTEDATA:;
#CHARTNAME:;
#STEPSTYPE:dance-single;
#DESCRIPTION:;
#CHARTSTYLE:Pad;
#DIFFICULTY:Hard;
#METER:12;
#RADARVALUES:0.525750,0.783852,0.575682,0.102800,0.606522,358.000000,302.000000,56.000000,10.000000,0.000000,0.000000,0.000000,0.000000,0.000000,0.525750,0.783852,0.575682,0.102800,0.606522,358.000000,302.000000,56.000000,10.000000,0.000000,0.000000,0.000000,0.000000,0.000000;
#CREDIT:Mozata;
#DISPLAYBPM:*;
#NOTES:
// measure 0
0000
0000
0000
0000
,  // measure 1
1100
0000
0000
0000
0000
0000
0000
0000
0000
0000
0000
0101
0000
0000
0000
0000
0000
0000
0000
0000
0011
0000
0000
0000
,  // measure 2
0001
0000
0010
0000
0100
0000
0010
0000
1000
0000
0010
0100
0000
0000
0010
0000
,  // measure 3
0001
0000
0010
0100
0000
0000
0010
0000
1100
0000
0000
0000
0000
0000
0000
0000
,  // measure 4
1000
0000
0010
1000
0000
0000
0001
0000
0010
0000
0000
0001
0000
0000
1000
0000
,  // measure 5
0100
0000
0100
1000
0000
1000
0001
0000
0200
0000
0000
0000
0000
0000
0000
0000
,  // measure 6
0000
0000
0000
0000
,  // measure 7
0301
0000
0100
0000
0010
0000
0100
0000
1000
0000
0100
0010
0000
0000
0100
0000
,  // measure 8
0001
0000
0100
0010
0000
0000
0100
0000
1000
0000
0000
0000
0000
0000
0000
0000
,  // measure 9
0001
1000
0000
0001
1000
0000
1000
0000
0200
0000
0000
0320
0000
0000
0031
0000
,  // measure 10
1001
0000
0000
0010
0000
0000
0100
0000
1000
0000
0010
0000
0100
0000
0100
0000
,  // measure 11
0101
0000
0000
0001
0000
0000
1000
0100
1000
0000
0000
0010
0000
0000
1000
0100
,  // measure 12
1000
0000
0000
1000
0000
0000
1000
0000
0010
0000
0000
0000
0101
0000
0001
0000
,  // measure 13
0110
0000
0000
1000
0000
0000
0001
0010
0001
0000
0000
0100
0000
0000
0001
0010
,  // measure 14
0001
0000
0000
0001
0000
0000
0001
0000
0100
0000
0000
0000
0010
0000
1000
0000
,  // measure 15
0101
0000
0000
0010
0000
0000
1000
0100
1000
0000
0000
0001
0000
0000
1000
0100
,  // measure 16
1000
0000
0000
1000
0000
0000
1000
0000
0001
0000
0000
0000
1100
0000
1000
0000
,  // measure 17
1001
0000
0000
0010
0000
0000
0001
0010
0001
0000
0001
0000
1000
0000
1000
0010
,  // measure 18
1000
0000
0000
0100
0000
0000
0010
0000
0000
0001
0000
0000
0200
0000
0000
0000
0000
0000
0300
0000
0110
0000
0000
0000
0000
0000
0000
0000
0000
0000
0000
0000
1001
0000
0000
0000
0000
0000
0000
0000
0000
0000
0100
0000
0000
0000
0000
0000
,  // measure 19
1100
0100
0001
0100
0010
0000
1000
0010
,  // measure 20
0101
0100
0010
1000
0010
0000
0001
0010
,  // measure 21
1001
0100
1000
0100
0010
0000
0000
0000
,  // measure 22
1010
0000
0000
0000
0011
0000
0000
0000
0101
0000
0000
0000
1100
0000
0000
0000
1000
0000
0000
0000
0000
0000
0001
0000
0000
0100
0000
0000
0000
0000
0000
0001
0000
0000
1000
0000
0000
0000
0000
0000
0001
0000
0000
0000
0000
0000
1000
0000
,  // measure 23
0000
0100
0000
0000
0000
0000
0000
1000
0000
0000
0001
0000
0000
0000
0000
0000
1000
0000
0000
0000
0000
0000
0000
0000
0000
0110
0000
0000
0000
0000
0000
0000
0000
0000
0001
0000
0000
0000
0000
0000
0110
0000
0000
0000
0000
0000
0000
0000
,  // measure 24
0000
0000
0000
0000
1000
0000
0000
0001
0000
0000
1000
0000
0000
0000
0000
0000
0110
0000
0000
0000
0000
0000
0000
0000
0000
0001
0000
0000
0000
0000
0000
0000
0000
0000
1000
0000
0000
0000
0000
0000
0110
0000
0000
0000
0000
0000
0100
0000
,  // measure 25
0000
0002
0000
0000
0000
0000
0000
0000
0000
0000
0103
0000
0000
0000
0000
0000
1001
0000
0000
0000
1010
0000
0000
0000
0201
0000
0000
0000
0000
0000
0000
0000
0000
0000
0000
0000
0000
0000
0000
0000
0000
0000
0000
0000
0000
0000
0000
0000
,  // measure 26
0000
0000
0000
0000
,  // measure 27
0000
0000
0000
0000
,  // measure 28
0000
0000
0300
0000
,  // measure 29
0010
0000
0000
0000
1001
0000
0000
0000
0100
0000
0010
0000
0100
0000
0010
0100
,  // measure 30
0000
0000
0000
0010
0100
0000
0010
0000
0100
0000
0010
0000
0100
0000
0000
0010
0000
0000
0000
0000
0000
0100
0000
0000
0000
0000
0000
0010
0000
0000
0100
0000
0000
0000
0000
0000
0010
0000
0000
0000
0000
0000
0000
0000
0000
0000
0000
0000
,  // measure 31
1001
0000
0000
0000
1100
0000
1000
0100
1000
0000
0100
0000
0010
0000
0010
0001
,  // measure 32
0000
0000
0000
0101
0110
2010
0000
0000
0000
0000
0000
0000
,  // measure 33
0000
0000
0000
3001
,  // measure 34
0001
0010
0001
1000
0010
0000
0000
0000
1000
0000
0010
1000
0000
0000
0000
0000
,  // measure 35
0010
0000
0100
0010
0000
0000
1000
0000
1000
0000
0000
0000
0000
0000
0000
0000
,  // measure 36
1100
0000
0101
0000
1100
0000
0000
0000
0001
0000
0010
0001
0000
0000
0000
0000
,  // measure 37
1000
0000
0010
1000
0000
0000
0100
0000
1001
0000
0000
0000
0000
0000
0000
0000
,  // measure 38
0100
0000
0001
0100
0000
0000
0100
0000
0100
0000
0010
0100
0000
0000
0100
0000
,  // measure 39
0110
0000
0000
0110
0000
0000
0110
0000
0001
0000
1000
0000
0100
0000
0010
0000
,  // measure 40
0001
0000
0001
0000
0001
0000
0100
0000
1000
0000
0000
1000
0000
0000
1000
0000
,  // measure 41
0100
0000
0000
0001
0000
0000
0001
0000
0001
0000
0000
0000
1100
0000
0001
0000
,  // measure 42
1010
0000
0000
0010
0000
0000
0100
0000
0001
0000
0000
0000
0101
0000
1000
0000
,  // measure 43
0011
0000
0000
0100
0000
0000
0010
0000
1000
0000
0000
0000
0010
0000
0100
0000
,  // measure 44
0110
0000
0000
0001
0000
0000
0010
0000
0001
0000
1000
0000
0100
0000
1000
0000
,  // measure 45
0101
0000
0000
0000
1100
0000
0000
0000
1010
0000
0000
0000
0011
0000
0000
0000
1000
0000
0000
0000
0000
0000
0001
0000
0000
0100
0000
0000
0000
0000
0000
0001
0000
0000
1000
0000
0000
0000
0000
0000
0001
0000
0000
0000
0000
0000
1000
0000
,  // measure 46
0000
0100
0000
0000
0000
0000
0000
1000
0000
0000
0001
0000
0000
0000
0000
0000
1000
0000
0000
0000
0000
0000
0000
0000
0000
0110
0000
0000
0000
0000
0000
0000
0000
0000
0001
0000
0000
0000
0000
0000
0110
0000
0000
0000
0000
0000
0000
0000
,  // measure 47
0000
1000
0000
0000
0000
0000
0000
0001
0000
0000
0000
0000
0000
0000
0000
0000
0110
0000
0000
0000
0000
0000
0000
0000
0000
0001
0000
0000
0000
0000
0000
0000
0000
0000
1000
0000
0000
0000
0000
0000
0110
0000
0000
0000
0000
0000
0100
0000
,  // measure 48
0000
0001
0000
0000
0100
0000
0000
0002
0000
0000
0000
0000
0000
0003
0000
0000
1001
0000
0000
0000
1010
0000
0000
0000
0201
0000
0000
0000
0000
0000
0000
0000
0000
0000
0000
0000
0310
0000
0000
0000
0000
0000
0002
0000
0000
0000
0000
0000
,  // measure 49
0000
0000
0000
0000
,  // measure 50
0000
0000
0000
0000
,  // measure 51
0000
0000
0000
0000
,  // measure 52
0000
0000
0000
0000
,  // measure 53
0000
0000
0000
0000
,  // measure 54
0000
0000
0000
0000
,  // measure 55
0000
0000
0000
0000
,  // measure 56
0000
0000
0000
0000
,  // measure 57
0000
0000
0000
0000
,  // measure 58
0000
0000
0000
0000
,  // measure 59
0000
0000
0000
0000
,  // measure 60
0000
0000
0000
0000
,  // measure 61
1003
0000
0000
0000
;

//---------------dance-single - ----------------
#NOTEDATA:;
#CHARTNAME:;
#STEPSTYPE:dance-single;
#DESCRIPTION:;
#CHARTSTYLE:Pad;
#DIFFICULTY:Beginner;
#METER:1;
#RADARVALUES:0.092520,0.219479,0.000000,0.071960,0.041120,63.000000,63.000000,0.000000,7.000000,0.000000,0.000000,0.000000,0.000000,0.000000,0.092520,0.219479,0.000000,0.071960,0.041120,63.000000,63.000000,0.000000,7.000000,0.000000,0.000000,0.000000,0.000000,0.000000;
#CREDIT:Mozata;
#DISPLAYBPM:*;
#NOTES:
0000
0000
0000
0000
,
0020
0000
0000
0000
,
0030
0000
0010
0000
,
0010
0000
0010
0000
,
0100
0000
0100
0000
,
0100
0000
0200
0000
,
0000
0000
0000
0000
,
0300
0000
0001
0000
,
0001
0000
0002
0000
,
0003
0000
1000
0000
,
1000
0000
1000
0000
,
0010
0000
0000
0000
,
0100
0000
0000
0000
,
0001
0000
0000
0000
,
0100
0000
0000
0000
,
1000
0000
0000
0000
,
0100
0000
0000
0000
,
0010
0000
0000
0000
,
0010
0010
0010
0000
,
0001
0000
0001
0000
,
1000
0000
1000
0000
,
0001
0000
0001
0000
,
1000
0000
0000
0000
0000
0000
0000
0000
0000
0000
0100
0000
,
0000
0000
0000
0000
0000
0000
0000
0000
0000
0000
0010
0000
,
0000
0000
0000
0000
0000
0000
0000
0000
0000
0000
0100
0000
,
0000
0000
0000
0000
0200
0000
0000
0000
0000
0000
0000
0000
,
0000
0000
0000
0000
,
0000
0000
0000
0000
,
0000
0000
0000
0000
,
0300
0000
0000
0000
,
0000
0010
0000
0010
,
0000
0100
0000
0100
,
0000
0200
0000
0000
,
0000
0000
0000
0300
,
0000
0000
0100
0000
,
0100
0100
0100
0000
,
0001
0001
0001
0000
,
0001
0000
0001
0000
,
1000
0000
1000
0000
,
2000
0000
3000
0000
,
0010
0000
0010
0000
,
0010
0000
0000
0000
,
0001
0000
0000
0000
,
1000
0000
0000
0000
,
0001
0000
0000
0000
,
1000
0000
0000
0000
0000
0000
0000
0000
0000
0000
0010
0000
,
0000
0000
0000
0000
0000
0000
0000
0000
0000
0000
0100
0000
,
0000
0000
0000
0000
0000
0000
0000
0000
0000
0000
0010
0000
,
0000
0000
0000
0000
0020
0000
0000
0000
0000
0000
0000
0000
,
0000
0000
0000
0000
,
0000
0000
0000
0000
,
0000
0000
0000
0000
,
0000
0000
0000
0000
,
0000
0000
0000
0000
,
0000
0000
0000
0000
,
0000
0000
0000
0000
,
0000
0000
0000
0000
,
0000
0000
0000
0000
,
0000
0000
0000
0000
,
0000
0000
0000
0000
,
0000
0000
0000
0000
,
0030
0000
0000
0000
;

//---------------dance-single - ----------------
#NOTEDATA:;
#CHARTNAME:;
#STEPSTYPE:dance-single;
#DESCRIPTION:;
#CHARTSTYLE:Pad;
#DIFFICULTY:Easy;
#METER:4;
#RADARVALUES:0.138046,0.219479,0.041120,0.051400,0.092520,94.000000,90.000000,4.000000,5.000000,0.000000,0.000000,0.000000,0.000000,0.000000,0.138046,0.219479,0.041120,0.051400,0.092520,94.000000,90.000000,4.000000,5.000000,0.000000,0.000000,0.000000,0.000000,0.000000;
#CREDIT:Mozata;
#DISPLAYBPM:*;
#NOTES:
0000
0000
0000
0000
,
1000
0000
0000
0000
,
0000
0000
0001
0000
,
0001
0000
0100
0000
,
1000
0000
1000
0000
,
1000
0000
0200
0000
,
0000
0000
0000
0000
,
0300
0000
0010
0000
,
0001
1000
0002
0000
,
0003
0000
0001
0000
,
1000
1000
1000
0000
,
0010
0000
0100
0000
,
0010
0100
0010
0000
,
0100
0000
0010
0000
,
0100
0010
0100
0000
,
0010
0000
0001
0000
,
0100
0000
1000
0000
,
1000
0000
0100
0000
,
0001
0000
0010
0000
,
1001
0000
0100
0000
,
0001
0000
0100
0000
,
1000
0000
0100
0000
,
0110
0000
0000
0000
0000
0000
0000
0000
0000
0000
0010
0000
,
0000
0010
0000
0000
0010
0000
0000
0000
0000
0000
0100
0000
,
0000
0100
0000
0000
0100
0000
0000
0000
0000
0000
0010
0000
,
0000
0010
0000
0000
0020
0000
0000
0000
0000
0000
0000
0000
,
0000
0000
0000
0000
,
0000
0000
0000
0000
,
0000
0000
0000
0000
,
0030
0000
0000
0010
,
0000
1000
0000
0010
,
0000
0100
0000
0001
,
0000
0200
0000
0000
,
0000
0000
0000
0300
,
0000
0000
0100
0000
,
0010
0010
0010
0000
,
1000
0100
0010
0000
,
0001
0000
0001
0000
,
0010
0000
0001
0000
,
1000
0000
0100
0000
,
0001
0000
1000
0000
,
0001
0001
0001
0000
,
1001
0000
0010
0000
,
0100
0000
0010
0000
,
1000
0000
0001
0000
,
1001
0000
0000
0000
0000
0000
0000
0000
0000
0000
0010
0000
,
0000
0010
0000
0000
0010
0000
0000
0000
0000
0000
0100
0000
,
0000
0100
0000
0000
0100
0000
0000
0000
0000
0000
0010
0000
,
0000
0010
0000
0000
0020
0000
0000
0000
0000
0000
0000
0000
,
0000
0000
0000
0000
,
0000
0000
0000
0000
,
0000
0000
0000
0000
,
0000
0000
0000
0000
,
0000
0000
0000
0000
,
0000
0000
0000
0000
,
0000
0000
0000
0000
,
0000
0000
0000
0000
,
0000
0000
0000
0000
,
0000
0000
0000
0000
,
0000
0000
0000
0000
,
0000
0000
0000
0000
,
0030
0000
0000
0000
;

//---------------dance-single - ----------------
#NOTEDATA:;
#CHARTNAME:;
#STEPSTYPE:dance-single;
#DESCRIPTION:;
#CHARTSTYLE:Pad;
#DIFFICULTY:Medium;
#METER:6;
#RADARVALUES:0.243784,0.376249,0.174760,0.102800,0.149060,166.000000,149.000000,17.000000,10.000000,0.000000,0.000000,0.000000,0.000000,0.000000,0.243784,0.376249,0.174760,0.102800,0.149060,166.000000,149.000000,17.000000,10.000000,0.000000,0.000000,0.000000,0.000000,0.000000;
#CREDIT:Mozata;
#DISPLAYBPM:*;
#NOTES:
0000
0000
0000
0000
,
0002
0000
0000
0000
,
1003
1000
0100
0100
,
0010
0010
0001
0000
,
1000
0010
1000
0000
,
0001
0010
0002
0000
,
0000
0000
0000
0000
,
1003
0000
1000
0000
,
1000
0001
2000
0000
,
3001
0000
0100
0010
,
1000
0010
0100
0000
,
1001
0000
0000
0000
0000
0000
0000
0000
1000
0000
0000
1000
0000
0000
1000
0000
,
0001
0000
0000
0001
0000
0000
0001
0000
1000
0000
0000
0000
0000
0000
0000
0000
,
0110
0000
0000
0000
0000
0000
0000
0000
0010
0000
0000
0010
0000
0000
0010
0000
,
0100
0000
0000
0100
0000
0000
0100
0000
0010
0000
0000
0000
0000
0000
0000
0000
,
1000
0100
0010
0000
0001
0100
0010
0000
,
1000
0010
0100
0000
0001
0000
0000
0000
,
0110
1000
0010
1000
,
0001
0100
0001
1001
,
0010
0010
0010
1001
,
0100
0100
0100
0110
,
0001
0001
0002
0000
,
1003
1000
1000
1000
1000
0000
0000
1000
0000
0000
0001
0000
,
0000
0001
0000
0000
0100
0000
0000
0100
0000
0000
0001
0000
,
0000
0001
0000
0000
0010
0000
0000
0010
0000
0000
0001
0000
,
0000
1000
0000
0000
0200
0000
0000
0000
0000
0000
0000
0000
,
0000
0000
0000
0000
,
0000
0000
0000
0000
,
0000
0000
0000
0000
,
0300
0000
0110
0000
0000
0000
0001
0010
,
0001
0000
1000
0010
1000
0000
0100
0000
,
0000
0000
1001
0000
0000
0000
0100
0010
,
0100
0020
0000
0000
,
0000
0000
0000
0030
,
0010
0010
0100
0100
,
0001
0001
0100
0000
,
1010
0011
1010
0000
,
0001
0100
1000
0000
,
0020
0030
2000
3000
,
0002
0000
0103
0000
,
1000
0010
0001
0010
,
1000
0100
0001
0000
,
1000
1000
1000
0110
,
0001
0001
0001
0110
,
0100
0100
0100
0000
,
1001
0001
1000
0001
1000
0000
0000
0000
0000
0000
1001
0000
,
0000
0000
0000
0000
0010
0000
0000
0000
0000
0000
1001
0000
,
0000
0000
0000
0000
0100
0000
0000
0000
0000
0000
1001
0000
,
0000
0000
0000
0000
0010
0010
0010
0000
0000
0020
0000
0000
,
0000
0000
0000
0000
,
0000
0000
0000
0000
,
0000
0000
0000
0000
,
0000
0000
0000
0000
,
0000
0000
0000
0000
,
0000
0000
0000
0000
,
0000
0000
0000
0000
,
0000
0000
0000
0000
,
0000
0000
0000
0000
,
0000
0000
0000
0000
,
0000
0000
0000
0000
,
0000
0000
0000
0000
,
0030
0000
0000
0000
;
