#TITLE:DROP IT;
#SUBTITLE:;
#ARTIST:AMV;
#TITLETRANSLIT:;
#SUBTITLETRANSLIT:;
#ARTISTTRANSLIT:;
#GENRE:;
#CREDIT:;
#BANNER:dropit-bn.png;
#BACKGROUND:;
#LYRICSPATH:;
#CDTITLE:;
#MUSIC:dropit.ogg;
#OFFSET:0.000000;
#SAMPLESTART:59.530998;
#SAMPLELENGTH:12.000000;
#SELECTABLE:YES;
#DISPLAYBPM:128.000000:2048.000000;
#BPMS:0.000000=128.000000
,127.000000=2048.000000
,145.000000=261.000000
,147.000000=256.000000
,205.000000=2048.000000
,223.000000=516.000000
,284.000000=510.000000
,339.000000=257.000000
,341.000000=128.000000
;
#STOPS:127.000000=0.450000,
205.000000=0.430000
;
#BGCHANGES:0.000=dropit-bg.jpg=1.000=1=0=1===CrossFade==,
99999=-nosongbg-=1.000=0=0=0 // don't automatically add -songbackground-
;
#KEYSOUNDS:;
#ATTACKS:;

//---------------dance-single - ----------------
#NOTES:
     dance-single:
     :
     Challenge:
     13:
     0.598197,1.070976,0.848352,0.783094,0.174021,385.000000,307.000000,78.000000,72.000000,0.000000,0.000000,0.598197,1.070976,0.848352,0.783094,0.174021,385.000000,307.000000,78.000000,72.000000,0.000000,0.000000:
0000
0000
0000
0000
,
0000
0000
0000
0000
,
0000
0000
0000
0000
,
0000
0000
0000
0000
,
0000
1000
0001
1000
,
1000
0001
1000
0001
,
0001
1000
1000
0001
,
0001
1000
0001
1001
,
1001
0000
0000
0000
0100
0000
0010
0100
0000
0000
1000
0001
0000
0000
0010
1000
,
0000
0000
0001
0100
0000
0000
0010
0001
0010
0000
1000
0000
0001
0000
0100
0000
,
1000
0000
0000
0000
0011
0000
0001
0100
0000
0000
0001
1000
0000
0000
0001
0010
,
0000
0000
1000
0010
0000
0000
0100
1000
0100
0000
0001
0000
1000
0000
0010
0000
,
0110
0000
0000
0000
0101
0000
0100
0010
0000
0000
1000
0100
0000
0000
0001
1000
,
0000
0000
0010
0001
0010
0000
0010
0000
0100
0000
0100
0000
0001
0000
0010
0000
,
1000
0000
0000
0000
1001
0000
0010
0100
0000
0000
0100
0010
0000
0000
0001
1000
,
0000
0000
1000
0001
0010
0000
1000
0000
0010
0000
0001
0000
0010
0000
1000
0000
,
0001
0000
0000
0000
1100
0000
0100
0010
0100
0000
1000
0000
0001
0000
1000
0000
,
0010
0000
0000
0000
1010
0000
0010
0100
0010
0000
0001
0000
1000
0000
0100
0000
,
0010
0000
0110
1000
0001
0000
0110
0001
,
1000
0000
0000
1000
1100
0100
0110
0010
,
0011
0000
1100
0010
0011
0000
0011
0100
,
1100
0000
1010
0100
0101
0000
0101
0010
,
1010
0000
0000
0000
0100
0000
0001
0010
0100
0000
1000
0000
0010
0000
0100
0000
,
1000
0000
0000
0000
1001
0000
0001
1000
0001
0000
0100
0000
0010
0000
0100
0000
,
0010
0000
1000
0100
0001
0000
1000
0010
,
0001
0000
1000
0100
0001
0000
1000
0010
,
0001
0000
1000
0100
0001
0000
1000
0010
,
0001
0000
1000
0100
0001
0000
1000
0010
,
0001
0000
1000
0010
0001
0010
1000
0010
,
0001
0010
0001
0100
1000
0100
0001
0100
,
1000
0100
0002
0203
0320
2030
3002
0203
,
0320
0000
2030
0000
3001
0100
0010
1000
0001
0100
0010
1000
0100
0000
0000
0000
,
0000
0000
0000
0000
,
0000
0000
0000
0000
,
0000
0000
0000
0000
,
0000
0000
0000
0000
,
0000
0022
0033
2200
,
3300
0202
0303
2020
,
3030
0011
0011
1100
,
1100
0101
0101
1010
,
1010
0022
0033
2200
,
3300
0202
0303
2020
,
3030
0000
0001
0010
0001
0010
0100
1000
,
0100
1000
0001
0100
0001
0100
0010
1000
,
0010
0022
0033
2002
,
3003
0202
0303
2002
,
3003
1010
1010
1001
,
1001
1100
1100
1001
,
1001
2002
3003
0220
,
0330
2002
3003
0220
,
0330
0000
0010
0100
0010
0100
0001
1000
,
0001
1000
0001
0000
0000
0000
0000
0000
,
0000
0000
0000
0000
,
0000
0000
0000
0000
,
0000
0000
0000
0000
,
0000
0000
0000
0022
,
0000
0000
0033
2200
,
0000
0000
3300
0202
,
0000
0000
0303
2020
,
0000
0000
3030
1000
,
0000
0100
0000
0010
,
0000
0001
0000
0001
,
0000
0010
0000
0100
,
0000
1000
0000
0022
,
0000
0000
0033
2200
,
0000
0000
3300
0202
,
0000
0000
0303
2020
,
0000
0000
3030
0001
,
0100
0010
1000
0001
,
0010
0100
1000
0001
,
0100
0010
1000
0001
,
0010
0100
0000
0022
,
0000
0000
0033
2200
,
0000
0000
3300
0202
,
0000
0000
0303
2020
,
0000
0000
3030
0011
,
0000
0011
0000
1100
,
0000
1100
0000
0101
,
0000
0101
0000
1010
,
0000
1010
0000
0022
,
0000
0000
0033
2200
,
0000
0000
3300
0202
,
0000
0000
0303
2020
,
0000
0000
3030
0001
,
0000
0010
0000
0000
0000
0001
0000
0000
0000
1000
0000
0010
,
0000
0000
1000
0000
0000
0000
0001
0000
0100
0000
0001
0000
1000
0000
0000
0100
0000
0000
0000
0000
0000
0000
0000
0000
;

//---------------dance-single - ----------------
#NOTES:
     dance-single:
     :
     Hard:
     10:
     0.421068,0.790435,0.206650,0.369794,0.032629,271.000000,252.000000,19.000000,34.000000,0.000000,0.000000,0.421068,0.790435,0.206650,0.369794,0.032629,271.000000,252.000000,19.000000,34.000000,0.000000,0.000000:
0000
0000
0000
0000
,
0000
0000
0000
0000
,
0000
0000
0000
0000
,
0000
0000
0000
0000
,
0000
0010
0100
0010
,
0010
0100
0010
0100
,
0100
0010
0010
0100
,
0100
0010
0100
0110
,
0110
0000
0010
1000
0001
0000
0001
0010
,
0100
0000
0100
0010
0001
0000
0001
0010
,
1000
0000
0001
0100
1000
0000
1000
0010
,
0100
0000
0100
0001
0010
0000
0010
0100
,
1000
0000
0001
1000
0001
0000
1000
0001
,
1000
0000
0010
0100
0010
0000
0100
0010
,
0100
0000
0100
0001
0010
0000
0100
1000
,
0010
0000
0010
0001
0100
0000
0010
1000
,
0100
0000
1100
0000
0011
0000
0100
1000
,
0010
0000
0101
0000
1010
0000
0001
0100
,
1000
0000
1001
0000
0110
0000
0001
1000
,
0010
0000
0110
0000
1001
0000
0100
0001
,
1000
0000
1000
0100
0001
1000
0010
0001
,
0010
0000
0001
0100
0010
0001
1000
0010
,
0100
0000
0001
0010
0001
0100
1000
0100
,
1000
0000
0101
0001
0100
1000
0100
0001
,
0010
0000
0100
1000
0010
0000
0100
0001
,
0010
0000
0100
1000
0010
0000
0100
0001
,
0010
0000
0100
1000
0010
0000
0100
0001
,
0010
0000
0100
1000
0010
0000
0100
0001
,
0010
0011
1001
0101
,
0110
1010
1001
1100
,
0110
0000
0010
0001
0010
1000
0010
0100
,
1000
0010
0002
0000
2000
0000
3003
0000
,
0000
0000
0000
0000
,
0000
0000
0000
0000
,
0000
0000
0000
0000
,
0000
0000
0000
0000
,
0000
0020
0000
0032
,
0000
0203
0000
2300
,
0000
3010
0010
0001
,
0001
0100
0100
1000
,
1000
0020
0000
2030
,
0000
3200
0000
0302
,
0000
0013
0010
1000
,
1000
0100
0100
0001
,
0001
0020
0000
0230
,
0000
0302
0000
2003
,
0000
3010
0100
1000
,
0001
1000
0100
0010
,
0000
0002
0000
2003
,
0000
3020
0000
0230
,
0300
0000
0001
1000
0001
1000
0001
1000
,
0001
1000
0001
0000
0000
0000
0000
0000
,
0000
0000
0000
0000
,
0000
0000
0000
0000
,
0000
0000
0000
0000
,
0000
0000
0000
0020
,
0000
0000
0000
0032
,
0000
0000
0000
0203
,
0000
0000
0000
2300
,
0000
0000
3000
0010
,
0000
0010
0000
0001
,
0000
0001
0000
0100
,
0000
0100
0000
1000
,
0000
1000
0000
0020
,
0000
0000
0000
2030
,
0000
0000
0000
3200
,
0000
0000
0000
0302
,
0000
0000
0000
1003
,
0000
0001
0000
0100
,
0000
0001
0000
0010
,
0000
0001
0000
1000
,
0000
0001
0000
2000
,
0000
0000
0000
3200
,
0000
0000
0000
0320
,
0000
0000
0000
0032
,
0000
0000
0000
1003
,
0000
0100
0000
0010
,
0000
0001
0000
1000
,
0000
0100
0000
0010
,
0000
0001
0000
0002
,
0000
0000
0000
0023
,
0000
0000
0000
0230
,
0000
0000
0000
2300
,
0000
0000
0000
3001
,
0000
1000
0000
0000
0000
0001
0000
0000
0000
1000
0000
0001
,
0000
1000
0000
0001
1000
0001
1000
0000
0000
0000
0000
0000
;

//---------------dance-single - ----------------
#NOTES:
     dance-single:
     :
     Beginner:
     4:
     0.121193,0.418466,0.000000,0.141392,0.000000,78.000000,78.000000,0.000000,13.000000,0.000000,0.000000,0.121193,0.418466,0.000000,0.141392,0.000000,78.000000,78.000000,0.000000,13.000000,0.000000,0.000000:
// measure 0
0000
0000
0000
0000
,  // measure 1
0000
0000
0000
0000
,  // measure 2
0000
0000
0000
0000
,  // measure 3
0000
0000
0000
0000
,  // measure 4
0000
0010
0000
0010
,  // measure 5
0000
0010
0000
0010
,  // measure 6
0000
0100
0000
0100
,  // measure 7
0000
0100
0000
0000
,  // measure 8
0000
0001
0000
0001
,  // measure 9
0000
1000
0000
1000
,  // measure 10
0000
0001
0000
0001
,  // measure 11
0000
1000
0000
1000
,  // measure 12
0000
0100
0000
0100
,  // measure 13
0000
0010
0000
0010
,  // measure 14
0000
0100
0000
0100
,  // measure 15
0000
0010
0000
0010
,  // measure 16
0000
1000
0000
0000
,  // measure 17
0000
0100
0000
0000
,  // measure 18
0000
0010
0000
0000
,  // measure 19
0000
0001
0000
0000
,  // measure 20
0000
0001
0000
0000
,  // measure 21
0000
0010
0000
0000
,  // measure 22
0000
0100
0000
0000
,  // measure 23
0000
1000
0000
0000
,  // measure 24
0000
1000
0000
1000
,  // measure 25
0000
1000
0000
1000
,  // measure 26
0000
1000
0000
1000
,  // measure 27
0000
1000
0000
1000
,  // measure 28
0000
1000
1000
1000
,  // measure 29
1000
1000
1000
1000
,  // measure 30
1000
2000
3000
2000
,  // measure 31
3000
2000
0000
3000
,  // measure 32
0000
0000
0000
0000
,  // measure 33
0000
0000
0000
0000
,  // measure 34
0000
0000
0000
0000
,  // measure 35
0000
0000
0000
0000
,  // measure 36
0000
2000
0000
0000
,  // measure 37
0000
0000
0000
3000
,  // measure 38
0000
0001
0000
0001
,  // measure 39
0000
0001
0000
0000
,  // measure 40
0000
0002
0000
0000
,  // measure 41
0000
0000
0000
0003
,  // measure 42
0000
0100
0000
0100
,  // measure 43
0000
0100
0000
0000
,  // measure 44
0000
0200
0000
0000
,  // measure 45
0000
0000
0000
0300
,  // measure 46
0000
0010
0000
0010
,  // measure 47
0000
0010
0000
0000
,  // measure 48
0000
0020
0000
0000
,  // measure 49
0000
0000
0000
0030
,  // measure 50
0000
0020
0000
0000
,  // measure 51
0000
0030
0000
0000
,  // measure 52
0000
0000
0000
0000
,  // measure 53
0000
0000
0000
0000
,  // measure 54
0000
0000
0000
0000
,  // measure 55
0000
0000
0000
0020
,  // measure 56
0000
0000
0000
0000
,  // measure 57
0000
0000
0000
0000
,  // measure 58
0000
0030
0000
0000
,  // measure 59
0000
0000
0000
0100
,  // measure 60
0000
0000
0000
0100
,  // measure 61
0000
0000
0000
0100
,  // measure 62
0000
0000
0000
0000
,  // measure 63
0000
0000
0000
0002
,  // measure 64
0000
0000
0000
0000
,  // measure 65
0000
0000
0000
0003
,  // measure 66
0000
0000
0000
0000
,  // measure 67
0000
0000
0000
1000
,  // measure 68
0000
0000
0000
1000
,  // measure 69
0000
0000
0000
1000
,  // measure 70
0000
0000
0000
0000
,  // measure 71
0000
0000
0000
2000
,  // measure 72
0000
0000
0000
0000
,  // measure 73
0000
0000
0000
3000
,  // measure 74
0000
0000
0000
0000
,  // measure 75
0000
0000
0000
0100
,  // measure 76
0000
0000
0000
0100
,  // measure 77
0000
0000
0000
0100
,  // measure 78
0000
0000
0000
0000
,  // measure 79
0000
0000
0000
0200
,  // measure 80
0000
0000
0000
0000
,  // measure 81
0000
0000
0000
0300
,  // measure 82
0000
0000
0000
0000
,  // measure 83
0000
0000
0000
0020
,  // measure 84
0000
0000
0000
0000
,  // measure 85
0000
0000
0030
0000
;

//---------------dance-single - ----------------
#NOTES:
     dance-single:
     :
     Easy:
     6:
     0.264139,0.836932,0.250155,0.174021,0.000000,170.000000,147.000000,23.000000,16.000000,0.000000,0.000000,0.264139,0.836932,0.250155,0.174021,0.000000,170.000000,147.000000,23.000000,16.000000,0.000000,0.000000:
0000
0000
0000
0000
,
0000
0000
0000
0000
,
0000
0000
0000
0000
,
0000
0000
0000
0000
,
0000
1000
0000
1000
,
0000
0001
0000
0001
,
0000
1000
0000
0001
,
0000
1000
0000
1001
,
0000
0001
0010
0010
,
0001
0001
0010
0001
,
0000
1000
0010
0010
,
1000
1000
0010
1000
,
0000
0001
0100
0100
,
0001
0001
0100
0001
,
0000
1000
0100
0100
,
1000
1000
0100
1000
,
0000
1000
0100
0010
,
0000
0001
0010
0100
,
0000
1000
0010
0100
,
0000
0001
0100
0010
,
0000
1000
1000
0001
,
0001
1000
0001
0010
,
0001
1000
1000
0001
,
0001
1000
0010
1001
,
0000
1001
0000
0110
,
0000
1001
0000
0110
,
0000
1001
0000
0110
,
0000
1001
0000
0110
,
0000
1001
0110
1001
,
0110
1001
0110
1001
,
0110
1001
1001
1001
,
1001
0110
0000
1000
,
0000
0000
0000
0000
,
0000
0000
0000
0000
,
0000
0000
0000
0000
,
0000
0000
0000
0000
,
0000
2000
0000
3000
,
0000
0002
0000
0003
,
0000
1000
1000
1000
,
0000
0001
0001
0001
,
0000
0200
0000
0300
,
0000
0020
0000
0030
,
0000
0100
0100
0010
,
0100
0010
0100
0010
,
0000
2000
0000
3000
,
0000
0200
0000
0300
,
0000
0010
0010
0010
,
0000
0001
0001
0001
,
0000
0002
0000
0003
,
0000
0020
0000
0030
,
0000
0100
0100
0100
,
0000
1000
0000
0000
,
0000
0000
0000
0000
,
0000
0000
0000
0000
,
0000
0000
0000
0000
,
0000
0000
0000
2000
,
0000
0000
0000
3000
,
0000
0000
0000
0002
,
0000
0000
0000
0003
,
0000
0000
0000
0001
,
0000
1000
0000
0001
,
0000
1000
0000
0001
,
0000
0100
0000
0001
,
0000
0000
0000
2000
,
0000
0000
0000
3000
,
0000
0000
0000
0002
,
0000
0000
0000
0003
,
0000
0000
0000
1000
,
0000
0000
0000
0100
,
0000
0000
0000
0010
,
0000
0000
0000
0100
,
0000
0000
0000
2000
,
0000
0000
0000
3000
,
0000
0000
0000
0002
,
0000
0000
0000
0003
,
0000
0000
0000
1000
,
0000
1000
0000
0001
,
0000
0001
0000
0100
,
0000
0100
0000
0010
,
0000
0010
0000
0200
,
0000
0000
0000
0300
,
0000
0000
0000
0020
,
0000
0000
0000
0030
,
0000
0000
0000
1000
,
0000
0000
0000
1000
,
0000
1000
1000
0000
;

//---------------dance-single - ----------------
#NOTES:
     dance-single:
     :
     Medium:
     8:
     0.335612,0.604451,0.206650,0.358918,0.000000,216.000000,197.000000,19.000000,33.000000,0.000000,0.000000,0.335612,0.604451,0.206650,0.358918,0.000000,216.000000,197.000000,19.000000,33.000000,0.000000,0.000000:
0000
0000
0000
0000
,
0000
0000
0000
0000
,
0000
0000
0000
0000
,
0000
0000
0000
0000
,
0000
1000
0000
0001
,
0000
1000
0001
1000
,
0001
0001
0000
1000
,
0000
0001
1000
0001
,
1000
0010
1001
0100
,
1001
0010
1000
0001
,
0100
0010
1001
0100
,
1001
0001
0010
0100
,
1000
0100
0110
0001
,
0110
1000
0001
0001
,
0010
0100
1100
0100
,
0110
0010
0001
0010
,
0100
0000
1000
0100
1000
0000
0001
0100
,
0001
0000
1000
0010
1000
0000
0001
0010
,
0001
1000
1000
0100
,
0100
0001
0001
0010
,
0010
0000
0100
0010
0100
0000
0010
0100
,
0010
0000
1000
0001
1000
0000
0001
1000
,
0001
0100
0100
0010
,
0010
1000
0100
0001
,
0010
0110
0000
1010
,
0000
1100
0000
1001
,
0000
0011
0000
0110
,
0000
1100
0000
1001
,
0000
0010
0100
1000
,
0001
0010
0100
1000
,
0001
0000
0010
0100
1000
0000
0010
0100
,
1000
0001
0020
0000
0000
0000
0030
0000
,
0000
0000
0000
0000
,
0000
0000
0000
0000
,
0000
0000
0000
0000
,
0000
0000
0000
0000
,
0000
2000
0000
3002
,
0000
0203
0000
0320
,
0000
1030
1000
0001
,
0001
0100
0100
0010
,
0010
2000
0000
3002
,
0000
0203
0000
0320
,
0000
1030
0100
0010
,
0001
0010
0100
0010
,
0001
2000
0000
3002
,
0000
0203
0000
0320
,
0000
1030
1000
0001
,
0001
0100
0100
0010
,
0010
2000
0000
3002
,
0000
0203
0000
0320
,
0000
1030
0000
1100
,
0000
1001
0000
0000
,
0000
0000
0000
0000
,
0000
0000
0000
0000
,
0000
0000
0000
0000
,
0000
0000
0000
2000
,
0000
0000
0000
3002
,
0000
0000
0000
0203
,
0000
0000
0000
0320
,
0000
0000
0000
1030
,
0000
1000
0000
0001
,
0000
0001
0000
0100
,
0000
0100
0000
0010
,
0000
0010
0000
2000
,
0000
0000
0000
3002
,
0000
0000
0000
0203
,
0000
0000
0000
0320
,
0000
0000
0000
1030
,
0000
0100
0000
0001
,
0000
0100
0000
0010
,
0000
0100
0000
1000
,
0000
0100
0000
0020
,
0000
0000
0000
0230
,
0000
0000
0000
0302
,
0000
0000
0000
2003
,
0000
0000
0000
3010
,
0000
0010
0000
0100
,
0000
0100
0000
0001
,
0000
0001
0000
1000
,
0000
1000
0000
0020
,
0000
0000
0000
0230
,
0000
0000
0000
0302
,
0000
0000
0000
2003
,
0000
0000
0000
3001
,
0000
0010
0000
0100
,
1000
0010
0101
0000
;
