#TITLE:Play hard;
#SUBTITLE:(Orchid's Killer Instinct 2 Theme);
#ARTIST:Nintendo;
#TITLETRANSLIT:;
#SUBTITLETRANSLIT:;
#ARTISTTRANSLIT:;
#GENRE:Techno;
#CREDIT:DvF;
#BANNER:orchidki2 - banner.png;
#BACKGROUND:orchidki2 - BG.png;
#LYRICSPATH:;
#CDTITLE:;
#MUSIC:orchidki2.mp3;
#OFFSET:0.000000;
#SAMPLESTART:100.045609;
#SAMPLELENGTH:12.000000;
#SELECTABLE:YES;
#BPMS:0.000000=145.009995
;
#STOPS:
;
#BGCHANGES:;
#KEYSOUNDS:;
#ATTACKS:;

//---------------dance-single - ----------------
#NOTES:
     dance-single:
     :
     Beginner:
     4:
     0.318440,0.475885,0.431435,0.078443,0.000000,263.000000,66.000000,12.000000,0.000000,4.000000,0.000000,0.318440,0.475885,0.431435,0.078443,0.000000,263.000000,66.000000,12.000000,0.000000,4.000000,0.000000:
0000
0000
0000
0000
,
0000
0000
0000
0000
,
0000
0000
0000
0000
,
0000
0000
0000
0000
,
0000
0000
0000
0000
,
0000
0000
2002
0000
,
0000
0000
0000
0000
,
0000
0000
0000
0000
,
0000
0000
0000
0000
,
0000
0000
0000
0000
,
0000
0000
3003
0000
,
0000
0000
0000
0000
,
0010
0000
0010
0000
,
0100
0100
0100
0100
,
1000
1000
1000
0010
,
0100
0010
0100
0010
,
0001
0100
0011
0100
,
1010
0001
1000
0110
,
0100
0100
0100
0010
,
0010
0010
1000
1000
,
0001
0010
0100
1000
,
0100
0100
0110
0001
,
1000
1000
1000
1000
,
0002
0000
0000
1003
,
1000
0001
0001
0001
,
0000
0000
0000
0000
,
1001
0010
0010
0010
,
0000
1001
0100
0100
,
0100
0000
1001
0010
,
0100
0010
0100
0010
,
1001
0100
0100
0100
,
0000
0010
0010
0010
,
0000
0001
0001
0001
,
1001
1000
0100
0010
,
0000
1000
1000
1000
,
0000
0100
0100
0100
,
0000
0010
0010
0010
,
0001
1000
0100
0010
,
0000
0001
1000
0010
,
0100
0010
0001
1000
,
0100
0010
0001
0000
,
2002
0000
0000
0000
,
3113
0110
0110
1001
,
0100
0010
0100
1000
,
0001
0010
0100
0000
,
0100
1000
0100
0010
,
0001
0001
0001
1000
,
1000
1000
0010
0100
,
0010
0100
0001
0000
,
0011
1100
1100
0010
,
0010
0010
0010
0010
,
0100
0100
0100
0000
,
0100
0000
0100
0000
,
0020
0000
0000
0000
,
1031
0010
0010
0010
,
0000
0100
0100
0100
,
0000
0100
0100
0100
,
1001
0001
1000
0001
,
0000
0010
0010
0010
,
0000
0100
0100
0100
,
0000
0010
0010
0010
,
1001
0100
0010
1001
,
0010
0100
0010
0100
,
0000
0100
0010
0100
,
0000
0011
0001
0010
,
0001
0010
0001
0010
,
0000
1000
0100
1000
,
0100
1000
0100
0010
,
0000
1001
0010
0100
,
0020
0000
0000
0000
,
0030
1000
0100
0110
,
0001
0001
0001
0110
,
1000
1000
0110
0001
,
0001
0001
1000
0010
,
0110
0110
0110
0001
,
1000
0000
0001
1000
,
0010
0100
0010
0000
,
1001
0010
0100
0010
,
0200
0000
0000
0000
,
0302
0000
0003
1000
,
0020
0000
0000
0000
,
1031
0000
0100
0010
,
0110
0110
0110
0110
,
0110
0110
0110
0110
,
0011
0011
0011
0011
,
1100
1100
1100
1100
,
0011
0011
0011
0011
,
1100
1100
1100
1100
,
0011
0011
0011
0011
,
1100
1100
1100
1100
,
2002
0000
0000
0000
,
3113
0000
0000
0000
;

//---------------dance-single - ----------------
#NOTES:
     dance-single:
     :
     Easy:
     6:
     0.381007,0.477846,0.333381,0.202644,0.000000,326.000000,51.000000,31.000000,0.000000,4.000000,0.000000,0.381007,0.477846,0.333381,0.202644,0.000000,326.000000,51.000000,31.000000,0.000000,4.000000,0.000000:
0000
0000
0000
0000
,
0000
0020
0000
0000
0000
0000
0000
0000
,
0030
0200
0000
0000
0000
0000
0000
0000
,
0000
0000
0300
0000
0000
0000
0000
2002
,
0000
0000
0000
0000
,
0000
3003
0000
0020
0000
0000
0000
0000
,
0000
0000
0000
0000
0030
0200
0000
0000
,
0000
0000
2300
0000
,
0000
3002
0000
0000
0000
0000
0003
0000
,
1001
0000
0000
1001
0000
0000
0010
0000
,
0100
0000
0000
0010
0000
0000
2002
0000
,
0000
0000
0000
0000
0000
0000
0000
0003
,
0000
0001
0000
0001
0000
0001
0001
0000
,
0000
0010
0010
0000
0000
3010
0100
0000
,
1001
0110
0110
0110
,
1001
0110
0110
0110
,
0001
0000
1000
0010
0100
0000
0001
1000
,
0100
0010
0010
0010
,
0110
0110
0110
1001
,
0110
0000
0000
0110
0000
0110
0000
0110
,
0000
0001
1000
0100
0000
0010
0001
1000
,
0100
0010
0010
0110
,
0002
0000
1000
1000
,
0000
0100
1000
0000
0100
0000
0000
1003
,
0020
0000
0000
1000
0100
0000
1000
0000
,
0100
0000
1000
0000
0100
0000
0100
0030
,
0010
0000
0010
0000
0010
0000
0000
0010
,
0100
0000
0100
0000
0000
0100
0000
0100
,
0000
0010
0001
0000
1000
0000
0100
0000
,
0011
0011
1100
1100
,
0010
0000
0000
0010
0000
0010
0010
0000
,
0100
0000
0100
0000
0000
0100
0010
0000
,
0001
0100
0100
0100
,
1010
0000
1010
0000
0000
0011
0000
0011
,
0000
1100
1000
0100
,
0000
0001
1000
0000
0010
0000
0100
0000
,
0000
0110
0110
0000
0000
0001
0000
0000
,
0011
1100
0011
1100
,
0000
0110
0000
0110
0000
0010
0000
0010
,
0010
0000
0000
0100
0000
0100
0100
0000
,
0001
0000
1000
0000
0000
0100
0010
0000
,
0020
0000
0000
0000
0000
0000
0000
1000
,
0000
0100
0001
0000
0001
0000
0001
0000
,
1000
0000
1000
0000
0000
2030
0000
0100
,
0000
0010
0000
0001
0010
0100
0001
0100
,
0010
0000
3000
0002
0000
0000
0010
0000
,
0100
0000
1000
0000
0100
1000
0000
0010
,
0000
1000
0100
0000
1000
0010
0000
0000
,
2003
0000
0100
0000
0010
0000
3001
0010
,
0100
0001
0010
0110
,
0001
0001
0001
0001
,
1000
1000
1000
0010
,
0110
0010
0010
0010
,
0110
1001
0001
0001
,
2000
0000
0010
0100
,
0010
0000
0100
0000
0000
0010
0100
0000
,
0010
0000
0100
0000
0001
3000
0001
0000
,
0010
0100
0010
0100
,
1001
0010
0100
0010
,
0100
0010
0001
0010
,
0001
0010
0001
0010
,
1010
0000
0100
0001
0010
0000
1000
0000
,
0100
0010
1000
1000
,
1000
0000
1000
0000
0000
1000
0010
0000
,
0010
0010
0100
0100
,
2002
0000
3003
0010
0100
0000
0001
0000
,
1000
0100
0010
1000
,
0100
0010
0001
1000
,
0001
0001
1000
1000
,
2000
0200
0000
0000
0000
0000
0000
0000
,
3310
0000
0001
0010
0000
0001
0100
0010
,
0001
0000
0010
0001
0000
0010
0001
0010
,
1000
0000
0100
0000
1000
0100
0000
1010
,
0001
0000
0010
0000
0010
0001
0000
0010
,
0001
0000
0010
0000
1000
0100
1000
0010
,
0001
0000
0010
0000
0000
0000
0000
0010
,
0100
0010
0001
0000
1000
0100
0010
0001
,
1000
0100
0010
0010
,
0220
0000
0000
0000
0000
0000
0000
0030
,
2302
0000
0000
3113
,
0002
0000
0000
0003
,
2000
0000
0000
0000
,
3100
0000
0000
0100
0010
0000
0001
0000
,
0100
0100
0010
0001
,
0000
1000
0000
1000
0000
0100
0000
0100
,
0000
0010
0010
0000
0001
0000
0001
0000
,
1000
1000
0100
0100
,
0000
1000
0000
1000
0010
0000
0010
0000
,
0000
0001
0000
0001
0000
0100
0000
0100
,
0001
0000
0000
0001
1000
0000
1000
0000
,
2002
0000
0000
0000
,
3223
0000
0000
0330
0000
0000
0000
0000
;

//---------------dance-single - ----------------
#NOTES:
     dance-single:
     :
     Medium:
     7:
     0.389412,0.478500,0.254939,0.248402,0.758279,340.000000,39.000000,38.000000,0.000000,0.000000,0.000000,0.389412,0.478500,0.254939,0.248402,0.758279,340.000000,39.000000,38.000000,0.000000,0.000000,0.000000:
0000
0000
0000
0000
0000
0000
0000
0000
0000
0020
0000
0000
0000
0000
0000
0000
,
0000
0000
0000
0000
,
0000
2030
0000
0000
0000
0000
0000
0000
0000
0000
0000
0000
0000
0000
0000
0000
,
0000
0000
0000
0000
,
0000
3002
0000
0000
0000
0000
0000
0000
,
0000
0000
0000
0003
0000
0000
0000
2200
0000
0000
0000
0000
0000
0000
0000
0000
,
0000
0000
0000
0000
0000
0000
0000
0000
3300
0000
0000
0022
0000
0000
0000
0000
,
0000
0000
0000
0000
0000
0000
0000
0033
,
2200
0000
0000
0000
,
0000
0000
0000
0000
0000
0300
3010
0000
0000
0000
0000
0001
0000
0000
0000
0000
,
0100
0000
0000
0000
0000
0010
0000
0000
0000
0000
2002
0000
0000
0000
0000
0000
,
0000
0000
0000
0000
0000
0000
0000
0000
0000
0000
0000
0000
0000
0003
3000
0000
,
0110
0000
0000
0000
0110
0000
0000
0000
0110
0000
0000
0000
0000
0110
0000
0000
,
0000
1001
0000
0000
0000
1001
0000
0000
0000
1001
0000
0000
0000
0110
0000
0000
,
0000
0001
0000
0000
0000
0001
0000
0000
0000
0001
0000
0000
0000
1000
0000
0100
,
0000
0010
0000
0000
0001
0000
0000
0000
0000
0000
0000
0000
0000
1100
0000
0000
,
0000
0010
0000
0000
0000
0010
0000
0000
0000
0001
0000
0000
0010
0000
0000
0100
,
1000
0000
0000
0000
0100
0000
0000
0000
0010
0000
0001
0000
0000
1000
0100
0000
,
0010
0000
0010
0000
0010
0000
0100
0010
,
0000
0001
0000
0000
1000
0000
0000
0100
0000
0000
0000
0000
0000
0110
0000
0000
,
0000
0001
0000
0000
0000
1000
0000
0001
0000
0000
0000
0000
0000
0110
0000
0000
,
0000
0001
0000
0000
0000
1000
0000
0000
0000
0110
0000
0000
0000
0010
0000
0000
,
0000
0010
0000
0000
0000
0010
0000
0000
0000
0010
0000
0000
0000
0010
0000
0000
,
0000
0100
0000
0000
0000
0100
0000
0000
0000
0100
0000
0000
0000
0001
0000
0000
,
0000
1000
0000
0000
0000
0010
0000
0000
0000
0100
0000
0000
0000
0010
0000
0000
,
0000
0001
0000
0000
1000
0000
0000
0000
0001
0000
0000
1000
0000
0010
0000
0100
,
0000
0010
0000
0000
0000
0001
0000
0000
0000
0001
0000
0000
0000
0001
0000
0000
,
0000
1000
0000
0000
0000
1000
0000
0000
0000
1000
0000
0000
0000
1000
0000
0000
,
0000
0001
0000
0000
0000
0001
0000
0000
0000
0001
0000
0000
0000
0001
0000
0000
,
0000
0011
0000
0000
0000
1100
0000
0000
0011
0000
0000
0000
1100
0000
0000
0000
,
0010
0000
0000
0000
0000
0010
0000
0000
0000
0010
0000
0000
0000
0010
0000
0000
,
0000
0100
0000
0000
0000
0100
0000
0000
0000
0100
0000
0000
0000
0100
0000
0000
,
0100
0000
0000
0000
1000
0000
0000
0000
0000
1000
0000
0000
0000
1000
0000
0000
,
0000
1100
0000
0000
0011
0000
0000
0000
1100
0000
0000
0000
0011
0000
0000
0000
,
0001
0000
0000
0000
0000
0001
0000
0000
0000
0001
0000
0000
0000
0001
0000
0000
,
0000
1000
0000
0000
0000
1000
0000
0000
0000
1000
0000
0000
0000
1000
0000
0000
,
0000
0100
0000
0000
0000
0100
0000
0000
0000
0100
0000
0000
0000
0100
0000
0000
,
0000
0011
0000
0000
0000
1100
0000
0000
0010
0001
0000
0000
0000
1100
0000
0000
,
0000
0001
0000
0000
0000
0100
0000
0000
0000
0010
0000
0000
1000
0000
0000
0000
,
0000
0010
0000
0000
0100
0000
0000
0000
0000
0010
0000
0000
1000
0000
0000
0000
,
0010
0000
0000
0000
0100
0000
0000
0000
0000
0001
0000
0000
0000
0010
0000
0000
,
0000
0020
0000
0000
0000
0000
0000
0000
0000
0000
0000
0000
0000
0000
0000
0030
,
1000
0000
0000
0000
0100
0000
0000
0010
0000
0000
0001
0000
0000
1000
0000
0100
,
0000
0010
0000
0000
0001
0000
0000
1000
0000
0000
0100
0000
0000
0010
0000
0001
,
0000
1000
0000
0000
0100
0000
0000
0010
0000
0000
0001
0000
0000
1000
0000
0100
,
0000
0010
0000
0000
0100
0000
0000
1000
0000
0000
0100
0000
0000
1000
0000
0001
,
0000
0010
0000
0000
0100
0000
0000
1000
0000
0000
0000
0010
0000
0000
0001
0000
,
1000
0000
0010
0000
0100
0000
0000
0001
0000
0000
1000
0000
0000
0001
0000
0000
,
0010
0000
0100
0000
0000
1000
0000
0001
0000
0000
0010
0000
0000
1000
0000
0100
,
0000
0001
0000
0000
0000
0010
0000
0100
0000
1000
0000
0000
0000
0001
0000
0000
,
0000
2000
0000
0000
0000
0100
0000
0000
0000
0010
0000
0000
0000
0001
0000
3000
,
0000
0000
2000
0000
0000
0100
0000
0000
0000
0010
0000
0000
0000
0001
0000
3000
,
0000
0200
0000
0000
0000
0010
0000
0000
0000
0001
0000
0000
0000
1000
0300
0000
,
0002
0000
0000
0000
0000
0010
0000
0000
0000
1000
0000
0000
0000
0100
0000
0003
,
0000
0001
0000
0000
0000
1000
0000
0000
0000
1000
0000
0000
0000
1000
0000
0000
,
0000
0001
0000
0000
0000
0001
0000
0000
0000
0001
0000
0000
0000
0001
0000
0000
,
0000
0010
0000
0000
0000
0010
0000
0000
0000
0010
0000
0000
0000
0010
0000
0000
,
0011
1100
0011
1100
,
0010
0000
0000
0000
0000
0010
0000
0000
0000
0010
0000
0000
0000
0010
0000
0000
,
0000
0100
0000
0000
0000
0100
0000
0000
0000
0100
0000
0000
0000
0100
0000
0000
,
0000
0001
0000
0000
0000
0001
0000
0000
0000
1000
0000
0000
0000
1000
0000
0000
,
0010
0001
0000
0000
0000
1100
0000
0000
0001
0010
0000
0000
1000
0100
0000
0000
,
0000
0010
0000
0000
0000
0010
0000
0000
0000
0010
0000
0000
0000
0010
0000
0000
,
0000
0100
0000
0000
0000
0100
0000
0000
0000
0100
0000
0000
0000
0100
0000
0000
,
0000
0001
0000
0000
0000
1000
0000
0000
0000
0010
0000
0000
0100
0000
0000
0000
,
0000
0110
0000
0000
0000
0110
0000
0000
0000
0001
0000
0000
0000
0001
0000
0000
,
0000
1000
0000
0000
0000
0100
0000
0000
0010
0000
0000
0000
0000
0001
0000
0000
,
0010
0100
1000
0100
,
0000
1000
0000
0000
0000
0100
0000
0000
0000
1000
0000
0000
0010
0000
0000
0000
,
0002
0000
0000
0000
0000
0000
0000
0000
0000
1000
0000
0000
0000
0100
0003
0000
,
0000
1100
0000
0000
0000
1100
0000
0000
0000
0010
0000
0000
0000
0010
0000
0000
,
0000
0001
0000
0000
0000
0001
0000
0000
0010
0001
0000
0000
0000
0011
0000
0000
,
0000
1100
0000
0000
1000
0000
0000
0000
0000
0100
0000
0000
0010
0000
0000
0001
,
0000
1000
0000
0000
0100
0000
0000
0010
0000
0000
1000
0000
0000
0100
0000
1000
,
0010
0000
0000
0000
0001
0000
0000
1000
0000
0000
0001
0000
0000
1000
0000
0001
,
0000
1000
0000
0000
0010
0000
0100
0000
0000
0000
0010
0000
0000
0100
0000
0010
,
0000
0001
0000
0000
0100
0000
0000
0010
0000
0000
0001
0000
0000
0100
0000
0010
,
0000
0001
0000
0000
1000
0000
0000
0100
0000
0010
0000
0100
0000
1000
0000
0000
,
0000
0100
0200
0000
0000
0000
0000
0000
0000
0000
0000
0000
0000
0000
0000
0000
,
0010
0000
0000
0000
0000
0001
0000
0000
0000
1000
0300
0000
0000
0010
0000
0000
,
0002
0000
0000
0000
0000
0100
0000
0000
0000
0010
0000
0000
0000
0100
0000
0000
,
0000
1000
0000
0000
0000
0000
0000
0000
0000
0000
0003
0000
0000
0100
0000
0000
,
0000
0020
0000
0000
0000
0000
0000
0000
0200
0030
0000
0000
0000
0000
0000
0000
,
2300
0000
3002
0000
,
2000
0003
0000
0000
0000
0000
0000
0000
0200
3000
0000
0000
0000
0000
0000
0000
,
0020
0300
0000
0000
0000
0000
0000
0000
0032
0000
0000
0000
0000
0000
0000
0000
,
2003
0000
0000
0000
0000
0000
0000
0000
0200
3000
0000
0000
0000
0000
0000
0000
,
0020
0300
0000
0000
0000
0000
0000
0000
0032
0000
0000
0000
0000
0000
0000
0000
,
2003
0000
0000
0000
0000
0000
0000
0000
0200
3000
0000
0000
0000
0000
0000
0000
,
0020
0300
0000
0000
0000
0000
0000
0000
0002
0030
0000
0000
0000
0000
0000
0000
,
0003
2000
0000
0000
0000
0000
0000
0000
3000
0001
0000
0000
0001
0000
0000
0000
,
0220
0000
0330
0000
;

//---------------dance-single - ----------------
#NOTES:
     dance-single:
     :
     Hard:
     9:
     0.532289,0.719711,0.346455,0.156885,1.000000,493.000000,53.000000,24.000000,0.000000,2.000000,0.000000,0.532289,0.719711,0.346455,0.156885,1.000000,493.000000,53.000000,24.000000,0.000000,2.000000,0.000000:
// measure 0
0000
0000
0000
0000
0000
0000
0000
0000
0000
0000
0000
0000
0000
0000
0000
0000
0000
0000
0000
0000
0000
0000
0000
0002
,  // measure 1
0000
0000
0000
0000
0000
0000
0000
0000
0000
0000
0000
0000
0000
0000
0010
0000
0000
0000
0000
0100
0000
0000
0000
0000
,  // measure 2
0000
0000
0000
0000
0000
0000
0000
0000
0000
1000
0000
0000
0000
0000
0100
0000
0000
0000
0010
0000
0000
0000
1000
0000
,  // measure 3
0000
0000
0000
0000
0000
0000
0000
0000
0000
0000
1000
0000
,  // measure 4
0100
0000
0000
0000
0000
0010
0000
0000
0000
0000
0000
0000
0000
0000
1000
0000
0000
0000
0100
0000
0000
0000
0000
0000
,  // measure 5
0000
1000
0000
0000
0003
0200
0000
0000
0000
0000
0000
0000
,  // measure 6
0000
0010
0000
0000
0001
0000
0000
0000
0000
0000
0000
0000
0010
0000
0000
0000
0001
0000
0000
0010
0000
0000
0000
0000
,  // measure 7
0000
0000
0000
0000
0000
0010
0000
0000
0000
1000
0000
0000
0000
0001
0000
0000
0000
1000
0000
0000
0000
0010
0000
0000
,  // measure 8
0000
2000
0000
0000
0000
0000
0000
0000
0000
0000
0000
0300
0000
0000
0000
0000
0000
0000
0000
0000
0000
0000
0000
0100
,  // measure 9
0000
0000
0000
0000
0010
0000
0000
0000
0000
0100
0000
0000
0000
0000
0000
0000
0000
0001
0000
0000
0000
0000
0000
0000
,  // measure 10
0000
0010
0000
0000
0000
0000
0000
0000
0010
0000
0000
0000
0000
0000
0000
0000
0000
0000
0000
0000
0000
0220
3000
0000
,  // measure 11
0000
0000
0000
0000
,  // measure 12
0000
0000
0000
0000
0000
0000
0000
0000
0000
0000
0000
0000
0000
0000
0000
0000
0000
0000
0000
0000
0000
0000
0000
0030
,  // measure 13
0300
1001
0000
0000
0000
0000
0000
1001
0000
0000
0000
0000
0000
1001
0000
0000
0000
0000
0000
0110
0000
0000
0000
0000
,  // measure 14
0022
0000
0000
0000
0000
0000
0000
0000
0000
0000
0000
0000
0000
0000
0000
0033
0000
0000
0000
0000
1100
0000
0001
0000
,  // measure 15
0101
0000
0000
0000
0000
0000
0010
0000
0000
0000
0000
0000
0000
0000
0000
0000
0000
0000
0000
0011
0000
0000
0000
0000
,  // measure 16
0000
1100
0000
0000
0000
0000
0000
0010
0000
0100
0000
0000
0000
0010
0000
0000
0001
0000
0000
0000
0000
1000
0000
0000
,  // measure 17
0100
0000
0010
0000
0000
0000
0001
0000
0000
1000
0000
0000
0000
0000
0100
0000
0000
0010
0000
0000
1000
0000
0000
0010
,  // measure 18
0000
1000
0000
0100
0000
0000
0000
0001
0000
1000
0000
0000
0010
0000
0000
0100
0000
0000
0000
1000
0000
0001
0000
0000
,  // measure 19
0000
0000
0010
0000
0000
0000
1000
0000
0000
0000
0100
0000
0000
1000
0000
0010
0000
0000
1000
0000
0001
0000
0000
1000
,  // measure 20
0000
0000
0010
0000
0000
0000
0100
0000
1000
0000
0000
0010
0000
0000
0000
0000
0001
0000
0000
1000
0000
0000
0100
0000
,  // measure 21
0010
0000
0000
0001
0000
0000
0100
0000
0000
0010
0000
1000
0000
0000
0000
0001
0000
0000
0000
0100
0000
0010
0000
0000
,  // measure 22
0000
0002
0000
0000
0000
0000
0000
0000
0000
0000
0000
0000
1000
0000
0000
0000
0000
0000
0000
0010
0000
0000
0000
0000
,  // measure 23
0000
0000
1000
0100
0000
0000
1000
0000
0110
0000
0000
1000
0000
0100
0000
0000
1000
0010
0000
0000
0000
0100
0000
0000
,  // measure 24
0000
1000
0000
0000
0000
0000
0000
0200
0003
0000
0000
0000
0000
0010
0000
0000
0000
0000
0000
0002
0000
0300
0000
0000
,  // measure 25
0000
2003
0000
0000
0000
0000
0100
0000
0000
0000
0010
0000
3000
0001
0000
0000
0100
0000
1000
0010
0000
0000
0001
0000
,  // measure 26
0000
0000
0000
0000
0000
0001
0000
0001
0000
0000
0001
0000
0001
0000
0000
0000
0000
1000
0000
0000
0000
0000
1000
0000
,  // measure 27
0000
0000
0000
0000
0000
0010
0000
0000
0010
0000
0010
0000
0000
0010
0000
0000
0000
0000
0100
0000
0000
0000
0100
0000
,  // measure 28
0000
0000
0000
0000
0001
0000
0000
0001
0000
0000
0001
0000
0000
0001
0000
0000
0000
1000
0000
0000
0000
0100
0000
0000
,  // measure 29
0000
0011
0000
0000
0000
0000
0011
0000
0000
0000
0000
0000
0000
1000
0100
0000
0000
0000
0000
0000
1100
0000
0000
0000
,  // measure 30
0000
0000
0001
0000
0000
0000
0010
0000
1000
0000
0000
0010
0000
0000
1000
0000
0000
0010
1000
0000
0000
0000
0001
0000
,  // measure 31
0000
0100
0000
0000
0010
0000
0000
0001
0000
0000
0100
0000
0000
0010
0000
0001
0000
0100
0001
0000
0000
0000
0000
0010
,  // measure 32
0000
0000
0000
0000
0010
0000
0000
0010
0000
0000
0100
0000
0000
0010
0000
0000
0100
0000
0010
0000
0000
0000
0001
0000
,  // measure 33
0000
1000
0000
0000
0000
0000
0000
0100
0000
0000
0000
0000
0000
0010
0000
0000
0000
0000
0000
0001
0000
0000
0000
0000
,  // measure 34
0000
1000
0000
0000
0100
0000
0000
1000
0000
0000
0100
0000
0000
1000
0000
0000
0100
1000
0000
0010
0000
0001
0000
0000
,  // measure 35
0000
0010
0000
0001
0010
0000
0001
0000
0010
0000
0000
0000
0000
0110
0000
0000
0000
0010
0000
0100
0000
0000
0000
0000
,  // measure 36
0000
0000
0000
0001
0000
1000
0000
0000
0000
1000
0000
0000
0000
0010
0000
0000
0000
0001
0100
0001
0000
0000
0000
0010
,  // measure 37
0000
0000
0001
0000
0000
1000
0000
0000
0000
0100
0000
0000
0010
0000
0000
0001
0000
0000
1000
0000
0000
0100
0000
0000
,  // measure 38
0000
0000
0000
0000
0100
0000
0000
0100
0000
0000
0010
0000
0000
0001
0000
0000
0010
0000
1000
0000
0010
0000
0000
1000
,  // measure 39
0000
0000
0000
0000
0000
0010
0000
0000
0010
0000
0010
0000
0000
0010
0000
0000
0010
0000
0100
0000
0000
0000
0001
0000
,  // measure 40
0000
0000
0000
0000
0100
0000
0000
0100
0000
0000
0100
0000
0000
0100
0000
0000
0010
0000
0001
0000
0000
0100
0000
0000
,  // measure 41
0010
0001
0100
0010
0001
0100
0000
0001
,  // measure 42
0000
0000
0020
0000
0000
0000
0000
1000
0000
0000
0000
0000
0000
1000
0000
0000
0000
0000
0000
1000
0000
0000
0000
1000
,  // measure 43
0000
1000
0000
0000
0000
0000
1000
0000
0000
0000
0000
0130
0000
0000
0000
0000
0010
0000
0000
0010
0000
0100
0000
0000
,  // measure 44
0002
0000
0000
0000
0000
0000
0000
0000
0000
0000
0000
0000
0000
0100
0000
0000
0000
1000
0000
0000
0000
0000
0010
0000
,  // measure 45
0000
1000
0000
0000
0000
0100
0000
0000
0000
0000
1000
0000
0000
0000
0000
0010
0000
0000
0000
0000
1000
0000
0000
0100
,  // measure 46
0003
0000
0020
0000
0000
0000
0000
0100
0000
0000
0000
0000
0000
0000
0100
0000
1000
0000
0000
0001
0000
0000
1000
0000
,  // measure 47
0001
0000
0000
0000
0000
0000
1000
0000
0000
0000
0100
0030
0000
0000
0100
0000
0000
0000
0000
0000
0100
0000
0200
0000
,  // measure 48
0000
0000
0000
0000
0000
0000
1000
0000
0000
0000
1000
0000
0000
0000
0000
0000
1000
0000
0000
0010
0000
0000
1000
0000
,  // measure 49
0000
0001
0000
0000
0000
0000
0000
1000
0000
0000
0000
0000
0000
1000
0000
0300
0000
0000
0000
2000
0000
0000
0000
0000
,  // measure 50
0000
0100
0000
0000
0000
0000
0000
0010
0000
0000
0000
0000
0000
0001
0000
0000
0000
0000
0000
0100
0000
0000
0000
0000
,  // measure 51
0000
0010
0000
0000
0000
0000
0000
0001
0000
0000
0000
0000
0000
0001
0000
0000
0000
0000
0000
0010
0000
0000
0000
0000
,  // measure 52
0000
3200
0000
0000
0000
0000
0000
0010
0000
0000
0000
0000
0001
0000
0000
0000
0000
0000
0000
0010
0000
0000
0000
0000
,  // measure 53
0001
0000
0000
0000
0000
0000
0010
0000
0000
0300
0000
0020
0000
0000
0000
0000
0000
0000
0001
0000
0000
0000
0000
0000
,  // measure 54
0001
0000
0000
0000
0000
0000
0000
1000
0000
0000
0000
0000
0000
1000
0000
0030
0000
0000
0000
0110
0000
0000
0000
0000
,  // measure 55
0000
0001
0000
0000
0000
0000
1000
0001
0000
0000
0000
1000
0000
0000
0001
0000
1000
0000
0001
0000
0000
0000
1000
0000
,  // measure 56
0000
0000
0000
0000
0010
0000
0000
0010
0000
0000
0010
0000
0000
0100
0000
0000
0000
0010
0000
0000
0010
0000
0000
0000
,  // measure 57
0000
0001
0000
0000
0000
0000
0000
1000
0000
0000
0000
0000
0000
0001
0000
0000
0000
0000
0000
1000
0000
0000
0000
0000
,  // measure 58
0000
0010
0000
0000
1000
0000
0000
0000
0010
0000
1000
0000
0000
0010
0000
1000
0000
0001
0000
0000
0000
0100
0000
0000
,  // measure 59
0000
0000
0000
0000
0001
0000
0000
1000
0000
0000
0000
0001
0000
0000
1000
0000
0010
0000
0100
0000
0000
0000
0000
0001
,  // measure 60
0000
0000
0000
0000
0000
0010
0000
0100
0000
0000
0001
0000
0000
0010
0000
0100
0000
1000
0000
0000
0000
0000
0100
0000
,  // measure 61
0000
0001
0000
0000
1000
0000
0000
0100
0000
0000
0010
0000
0000
0001
0000
1000
0000
0000
0000
0100
0000
0010
0000
0000
,  // measure 62
0000
0000
0000
0000
0010
0000
0000
0000
1000
0000
0100
0000
0000
0001
0000
0000
0010
0000
1000
0000
0000
0000
0000
1000
,  // measure 63
0000
0000
0000
0000
0100
0000
0000
0010
0000
0000
0001
0000
0000
1000
0000
0000
0110
0000
0000
0000
0000
0000
0001
0000
,  // measure 64
0000
0000
0000
0000
0000
0011
0000
0000
0011
0000
0000
0000
0000
0000
1000
0000
0100
0000
1000
0000
0000
0000
0010
0000
,  // measure 65
0000
0001
0000
0000
0000
0000
0010
0000
0000
0100
0000
1000
0000
0000
0010
0000
0100
0000
0000
0001
0000
1000
0000
0000
,  // measure 66
0000
0000
0000
0000
0100
0000
0000
0000
1000
0000
0010
0000
0000
0001
0000
0000
1000
0100
0000
0000
0000
0000
0000
1000
,  // measure 67
0000
0000
0000
0000
0000
0010
0000
0000
1000
0000
0001
0000
0000
1000
0000
0000
0010
0000
0100
0000
0000
0000
0001
0000
,  // measure 68
0000
0000
0000
0000
1000
0000
0000
0100
0000
0000
0000
0010
0000
0000
0001
0000
0000
1000
0100
0000
0000
0000
1000
0000
,  // measure 69
0000
0220
0000
0000
0000
0000
0000
0000
0000
0000
0000
0000
0000
0000
0000
0000
0000
0000
0000
0000
0000
0000
0330
0000
,  // measure 70
0000
0000
1001
0000
0000
0010
0000
0000
0000
0000
0010
0000
0000
0000
0001
0000
0000
0000
1000
0000
0000
0000
0001
0000
,  // measure 71
0000
0000
1000
0000
0000
0000
0000
0100
0000
0000
0010
0000
0000
0000
0001
0000
0000
0000
0000
1000
0000
0000
0100
0000
,  // measure 72
0000
0010
0000
0000
0000
0000
0010
0000
0000
0000
1000
0000
0000
0000
0100
0000
0000
0000
0000
0010
0000
0000
1000
0000
,  // measure 73
0000
0010
0000
0000
0000
0001
0000
0000
0100
0000
0000
0000
0010
0000
0000
0001
0000
0000
0000
1000
0000
0000
0100
0000
,  // measure 74
0010
0000
0000
0000
0000
0001
0000
0000
0000
0000
1000
0000
0000
0100
0000
0000
0000
0010
0000
0000
0001
0000
1000
0000
,  // measure 75
0000
0010
0000
0000
0000
0000
0100
0000
0000
0000
1000
0000
0000
0000
0100
0000
0000
0001
0000
0000
0010
0000
0100
0000
,  // measure 76
0000
1000
0000
0000
0000
0100
0000
0000
0001
0000
0000
1000
0000
0010
0000
0000
0100
0000
0000
1000
0000
0000
0001
0000
,  // measure 77
0000
0110
0000
0000
1000
0000
0000
0000
0110
0000
0000
0001
0000
0000
1000
0000
0000
0000
0000
0100
0000
0000
0000
0000
,  // measure 78
0000
0010
0000
0000
0010
0000
0000
0010
0000
0000
0010
0000
,  // measure 79
0000
0100
0000
0000
0000
0000
0000
0100
0000
0000
0000
0000
0000
0100
0000
0000
0000
0000
0000
0010
0000
0000
0000
0000
,  // measure 80
0000
0001
0000
0000
0000
0000
0000
1000
0000
0000
0000
0000
0000
0000
0001
0000
0000
0000
0000
0000
1000
0000
0000
0000
,  // measure 81
0000
2002
0000
0000
0000
0000
0000
0000
0000
0000
0000
0000
0000
0000
0000
0000
0000
0000
0000
0000
0000
0000
3003
0000
,  // measure 82
0000
0010
0000
0000
0000
0000
0000
1000
0000
0000
0000
0000
0000
0000
0010
0000
0000
0000
0000
1000
0000
0000
0000
0000
,  // measure 83
0000
0001
0000
0000
0000
0000
0100
0000
0000
0000
0000
0000
0000
0010
0000
0000
0000
0000
0000
0100
0000
0000
0000
0000
,  // measure 84
0000
0001
0000
0000
0000
0000
0000
1000
0000
0000
0000
0000
0000
0001
0000
0000
0000
0000
0000
1000
0000
0000
0000
0000
,  // measure 85
0000
0110
0000
0000
0000
0000
0000
0000
0110
0000
0000
0000
0000
0001
0000
0000
0000
0000
0000
0001
0000
0000
0000
0000
,  // measure 86
0000
0011
0000
0000
0000
0000
0011
0000
0000
0000
0000
0000
0000
0011
0000
0000
0000
0000
0011
0000
0000
0000
0000
0011
,  // measure 87
0000
0011
0000
0000
0011
0000
0000
0011
0000
0000
0000
0000
0000
0100
1000
0000
0000
1100
0000
0000
1100
0000
0000
0000
,  // measure 88
0000
0000
0110
0000
0000
0110
0000
0110
0000
0000
0000
0000
0000
0000
1001
0000
0000
1001
0000
0000
1001
0000
0000
0000
,  // measure 89
0000
0000
0110
0000
0000
0110
0000
0000
0110
0000
0000
0000
0000
0000
1001
0000
0000
1001
0000
1001
0000
0000
0000
0000
,  // measure 90
0000
0000
0110
0000
0000
0000
0000
0110
0000
0000
0000
0000
0000
0110
0000
0000
0000
0000
0000
0110
0000
0000
0000
0000
,  // measure 91
2002
0000
0000
3003
;
