#VERSION:0.83;
#TITLE:Tranceformers;
#SUBTITLE:;
#ARTIST:Dizzy;
#TITLETRANSLIT:;
#SUBTITLETRANSLIT:;
#ARTISTTRANSLIT:;
#GENRE:;
#ORIGIN:;
#CREDIT:;
#BANNER:bn.png;
#BACKGROUND:bg.png;
#PREVIEWVID:;
#JACKET:bn.png;
#CDIMAGE:;
#DISCIMAGE:;
#LYRICSPATH:;
#CDTITLE:;
#MUSIC:Tranceformers.ogg;
#OFFSET:0.000000;
#SAMPLESTART:29.000000;
#SAMPLELENGTH:20.000000;
#SELECTABLE:YES;
#BPMS:0.000=175.000;
#STOPS:;
#DELAYS:;
#WARPS:;
#TIMESIGNATURES:0.000=4=4;
#TICKCOUNTS:0.000=4;
#COMBOS:0.000=1;
#SPEEDS:0.000=1.000=0.000=0;
#SCROLLS:0.000=1.000;
#FAKES:;
#LABELS:0.000=Song Start,
284.000=end;
#BGCHANGES:;
#KEYSOUNDS:;
#ATTACKS:
;

//---------------dance-single - ----------------
#NOTEDATA:;
#CHARTNAME:;
#STEPSTYPE:dance-single;
#DESCRIPTION:;
#CHARTSTYLE:Pad;
#DIFFICULTY:Challenge;
#METER:13;
#RADARVALUES:0.650548,0.761659,0.010075,0.070524,0.070524,452.000000,451.000000,1.000000,7.000000,0.000000,0.000000,0.000000,0.000000,0.000000,0.650548,0.761659,0.010075,0.070524,0.070524,452.000000,451.000000,1.000000,7.000000,0.000000,0.000000,0.000000,0.000000,0.000000;
#CREDIT:Elik;
#NOTES:
0000
0000
0000
0000
,
0000
0000
0000
0000
,
0000
0000
0000
0000
,
0000
0000
0000
0000
,
0000
0000
0000
0000
,
0000
0000
0000
0000
,
0000
0000
0000
0000
,
0000
0000
0000
0000
,
1000
0010
0100
0001
1000
0010
0100
1000
,
1000
0001
0100
0010
1000
0001
0100
0001
,
0001
0010
0100
1000
0001
0010
0100
1000
,
0001
0010
0100
1000
0001
0010
0100
1000
,
1000
0010
0100
0001
1000
0010
0100
0001
,
0001
0100
0010
1000
0001
0100
0010
1000
,
1000
0100
0010
0001
1000
0100
0010
0001
,
1000
0100
0010
0001
1000
0100
0010
0001
,
2000
0000
0000
0000
,
3002
0000
0000
0000
,
0203
0000
0000
0000
,
0000
0000
0000
0000
,
2300
0000
0000
0000
,
3002
0000
0000
0000
,
0203
0000
0000
0000
,
0310
0000
0000
0000
,
1100
1000
0001
0100
0010
1000
0001
0100
,
0000
0010
1000
0100
0010
0100
1000
0010
,
0000
1000
0001
0100
0010
1000
0010
0100
,
0000
0001
1000
0100
0010
0100
1000
0001
,
0000
1000
0001
0100
0010
1000
0001
0100
,
0000
0010
1000
0100
0010
0100
1000
0010
,
0000
1000
0001
0100
0010
1000
0010
0100
,
0000
0001
1000
0100
0010
0100
1000
0001
,
1000
0100
1000
0010
1000
0001
1000
0010
,
1000
0100
0001
1000
0001
0100
0001
0010
,
0001
0100
0001
1000
0001
0100
0001
0010
,
0001
1000
0100
1000
0010
1000
0001
0100
,
0010
0000
0000
0000
0010
0001
0010
0001
0010
0000
0000
0000
0001
0100
0001
0100
,
0001
0000
0000
0000
0010
0001
0010
0001
0010
0000
0000
0000
0100
1000
0100
1000
,
0100
0000
0000
0000
0010
0001
0010
0001
0010
0000
0000
0000
0010
0100
0010
0100
,
0010
0000
0000
0000
0000
0000
0000
0000
1000
0000
0000
0000
0100
1000
0100
1000
,
0100
0001
0100
1000
0100
0010
0100
1000
,
0010
0100
0001
0010
0001
0100
0001
0010
,
0100
1000
0100
0010
0001
0100
0010
1000
,
0010
0100
0001
0010
0001
0001
0100
0001
,
1000
0100
0010
0100
0010
1000
0010
0100
,
1000
0010
0100
0001
0100
1000
0100
0010
,
0100
0010
0001
1000
0001
0100
0001
0010
,
0100
1000
0100
0010
1000
0010
0100
0010
,
0100
1000
0100
0010
0100
0001
0100
0010
,
0001
0100
1000
0001
1000
0100
1000
0001
,
0100
0010
0100
0001
1000
0100
0001
0010
,
0001
0100
1000
0001
1000
1000
0100
1000
,
0010
0100
0001
0100
0001
0010
0001
0100
,
0010
0001
0100
1000
0100
0010
0100
0001
,
0100
0001
1000
0010
1000
0100
1000
0001
,
0100
0010
0100
0001
0100
0001
0100
0001
,
1000
0100
1000
0001
1000
0010
1000
0001
,
0010
1000
0100
0010
0100
1000
0100
0010
,
1000
0001
1000
0010
0100
1000
0010
0001
,
0010
1000
0100
0010
0100
0100
1000
0100
,
0001
1000
0010
1000
0010
0001
0010
1000
,
0001
0010
1000
0100
1000
0001
1000
0010
,
1000
0010
0100
0001
0100
1000
0100
0010
,
1000
0001
1000
0010
0001
0010
1000
0010
,
0100
0001
0100
1000
0100
0010
0100
1000
,
0010
0100
0001
0010
0001
0100
0001
0010
,
0100
1000
0100
0010
0001
0100
0010
1000
,
0010
0100
0001
0010
0001
0001
0100
0001
,
1000
0100
0010
0100
0010
0100
0010
0100
,
1000
0010
1000
0001
1000
0010
1000
0001
,
1000
0010
0001
0100
0001
0010
0001
0100
,
0010
1000
0010
0100
0010
1000
0020
0000
,
0030
0000
0000
0000
;

//---------------dance-single - ----------------
#NOTEDATA:;
#CHARTNAME:;
#STEPSTYPE:dance-single;
#DESCRIPTION:;
#CHARTSTYLE:Pad;
#DIFFICULTY:Hard;
#METER:8;
#RADARVALUES:0.483593,0.580312,0.010075,0.080599,0.000000,336.000000,335.000000,1.000000,8.000000,0.000000,0.000000,0.000000,0.000000,0.000000,0.483593,0.580312,0.010075,0.080599,0.000000,336.000000,335.000000,1.000000,8.000000,0.000000,0.000000,0.000000,0.000000,0.000000;
#CREDIT:Elik;
#NOTES:
0000
0000
0000
0000
,
0000
0000
0000
0000
,
0000
0000
0000
0000
,
0000
0000
0000
0000
,
0000
0000
0000
0000
,
0000
0000
0000
0000
,
0000
0000
0000
0000
,
0000
0000
0000
0000
,
1000
0010
0100
0000
1000
0010
0100
0000
,
1000
0001
0100
0000
1000
0001
0100
0000
,
0001
0010
0100
0000
0001
0010
0100
0000
,
0001
0010
0100
0000
0001
0010
0100
0000
,
1000
0010
0100
0000
1000
0010
0100
0000
,
0001
0100
0010
0000
0001
0100
0010
0000
,
1000
0100
0010
0000
1000
0100
0010
0000
,
1000
0100
0010
0000
1000
0100
0010
0000
,
0002
0000
0000
0000
,
2003
0000
0000
0000
,
3200
0000
0000
0000
,
0000
0000
0000
0000
,
0302
0000
0000
0000
,
2003
0000
0000
0000
,
3200
0000
0000
0000
,
0310
0000
0000
0000
,
0100
1000
0001
0000
0010
0000
0001
0100
,
0000
0010
1000
0000
0010
0000
1000
0010
,
0000
1000
0001
0000
0010
0000
0010
0100
,
0000
0001
1000
0000
0010
0000
1000
0001
,
0000
1000
0001
0000
0010
0000
0001
0100
,
0000
0010
1000
0000
0010
0000
1000
0010
,
0000
1000
0001
0000
0010
0000
0010
0100
,
0000
0001
1000
0000
0010
0100
1000
0000
,
1000
0100
1000
0100
1000
0100
1000
0100
,
1000
0000
0001
0010
0001
0010
0001
0010
,
0001
0010
0001
0010
0001
0010
0001
0010
,
0001
0000
0100
1000
0100
1000
0100
1000
,
0100
0000
1000
0010
1000
0000
0001
1000
,
0001
0000
0100
0010
0100
0000
0010
1000
,
0010
0000
0100
0001
0100
0000
0010
0100
,
0010
0000
0000
0000
1000
0000
0100
0100
,
0100
0001
0100
0000
0100
0010
0100
0010
,
0000
0100
0001
0000
0001
0100
0001
0100
,
0000
1000
0100
0000
0001
0100
0010
0100
,
0000
0010
0001
0000
0001
0001
0100
1000
,
0000
0100
0010
0000
0010
1000
0010
0100
,
0000
0010
0100
0000
0100
1000
0100
0010
,
0000
0010
0001
0000
0001
0100
0001
0010
,
0000
1000
0100
0000
1000
0010
0100
0010
,
0000
1000
0010
0000
0010
0100
0010
1000
,
0000
0010
1000
0000
1000
0010
1000
0100
,
0000
0001
0010
0000
1000
0010
0100
0001
,
0000
0010
1000
0000
1000
1000
0010
0100
,
0000
0010
0100
0000
0100
0001
0100
0010
,
0000
0100
0010
0000
0010
0001
0010
0100
,
0000
0100
1000
0000
1000
0010
1000
0100
,
0000
0001
0010
0000
0010
0100
0010
0001
,
0000
0001
0100
0000
0100
0010
0100
0001
,
0000
0100
0001
0000
0001
0100
0001
0010
,
0000
1000
0100
0000
0001
0100
0010
0001
,
0000
0100
0001
0000
0001
0001
0100
0010
,
0000
0100
0010
0000
0010
1000
0010
0100
,
0000
0010
0100
0000
0100
1000
0100
0001
,
0000
0010
0001
0000
0001
0100
0001
0010
,
0000
1000
0100
0000
1000
0010
0100
1000
,
0000
0001
0010
0000
0010
1000
0010
0001
,
0000
0010
0001
0000
0001
0010
0001
1000
,
0000
0100
0010
0000
0001
0010
1000
0001
,
0000
0010
0001
0000
0001
0001
0000
0100
,
1000
0100
0010
0000
0010
0100
0010
0100
,
0000
0010
1000
0000
1000
0010
1000
0000
,
1000
0010
0001
0000
0001
0010
0001
0000
,
2020
0000
0000
0000
,
3030
0000
0000
0000
;

//---------------dance-single - ----------------
#NOTEDATA:;
#CHARTNAME:;
#STEPSTYPE:dance-single;
#DESCRIPTION:;
#CHARTSTYLE:Pad;
#DIFFICULTY:Easy;
#METER:5;
#RADARVALUES:0.233161,0.326425,0.010075,0.100749,0.000000,162.000000,161.000000,1.000000,10.000000,0.000000,0.000000,0.000000,0.000000,0.000000,0.233161,0.326425,0.010075,0.100749,0.000000,162.000000,161.000000,1.000000,10.000000,0.000000,0.000000,0.000000,0.000000,0.000000;
#CREDIT:Elik;
#NOTES:
0000
0000
0000
0000
,
0000
0000
0000
0000
,
0000
0000
0000
0000
,
0000
0000
0000
0000
,
0000
0000
0000
0000
,
0000
0000
0000
0000
,
0000
0000
0000
0000
,
0000
0000
0000
0000
,
1000
0000
0001
0000
,
1000
0000
1000
0000
,
0001
0000
0001
0000
,
0001
0000
0001
0000
,
0001
0000
0100
0000
,
0001
0000
0001
0000
,
0010
0000
0010
0000
,
0010
0000
0010
0000
,
0002
0000
0000
0003
,
2000
0000
0000
3000
,
0020
0000
0000
0000
,
0000
0000
0000
0030
,
0002
0000
0000
0003
,
2000
0000
0000
3000
,
0200
0000
0000
0300
,
0010
0000
0000
0000
,
0100
0010
0100
0000
,
1000
0100
1000
0000
,
0010
0001
0010
0000
,
1000
0010
1000
0000
,
0001
0010
0001
0000
,
1000
0010
1000
0000
,
0001
0010
0001
0000
,
1000
0010
1000
0000
,
1000
1000
1000
0000
,
0001
0001
0001
0000
,
0100
0100
0100
0000
,
0010
0010
0010
0010
,
0000
1000
1000
0001
,
0001
0100
0100
0010
,
0010
0100
0100
0010
,
0020
0000
0000
0030
,
0100
1000
0100
0000
,
0010
0100
0001
0000
,
0100
0010
0001
0000
,
0010
0001
0100
0000
,
1000
0100
0010
0000
,
1000
0100
0100
0000
,
0100
0001
0001
0000
,
0100
0100
1000
0000
,
0100
1000
0100
0000
,
0010
0001
0001
0000
,
0100
0100
0001
0000
,
0010
0001
0001
0000
,
1000
0010
0010
0000
,
1000
0100
0100
0000
,
1000
0001
0001
0000
,
0200
0000
0000
0300
,
0010
0010
0010
0000
,
0100
0001
0001
0000
,
0100
0100
1000
0000
,
0010
0001
0010
0000
,
1000
0010
0010
0000
,
1000
0100
0100
0000
,
0100
0001
0001
0000
,
0100
0100
0001
0000
,
0100
0100
0100
0000
,
0001
0001
0010
0000
,
0100
0100
0001
0000
,
0010
1000
0010
0000
,
1000
0000
0010
0000
,
1000
0000
1000
0000
,
0100
0000
0001
0000
,
2002
0000
0000
0000
,
3003
0000
0000
0000
;

//---------------dance-single - ----------------
#NOTEDATA:;
#CHARTNAME:;
#STEPSTYPE:dance-single;
#DESCRIPTION:;
#CHARTSTYLE:Pad;
#DIFFICULTY:Beginner;
#METER:2;
#RADARVALUES:0.123777,0.181347,0.010075,0.100749,0.000000,86.000000,85.000000,1.000000,10.000000,0.000000,0.000000,0.000000,0.000000,0.000000,0.123777,0.181347,0.010075,0.100749,0.000000,86.000000,85.000000,1.000000,10.000000,0.000000,0.000000,0.000000,0.000000,0.000000;
#CREDIT:Elik;
#NOTES:
0000
0000
0000
0000
,
0000
0000
0000
0000
,
0000
0000
0000
0000
,
0000
0000
0000
0000
,
0000
0000
0000
0000
,
0000
0000
0000
0000
,
0000
0000
0000
0000
,
0000
0000
0000
0000
,
1000
0000
0000
0000
,
0010
0000
0000
0000
,
0100
0000
0000
0000
,
0001
0000
0000
0000
,
0001
0000
0000
0000
,
1000
0000
0000
0000
,
0010
0000
0000
0000
,
0010
0000
0000
0000
,
0002
0000
0003
0000
,
2000
0000
3000
0000
,
0020
0000
0000
0000
,
0030
0000
0000
0000
,
0002
0000
0003
0000
,
2000
0000
3000
0000
,
0200
0000
0300
0000
,
0010
0000
0000
0000
,
0001
0000
0001
0000
,
0000
0000
1000
0000
,
0010
0000
0010
0000
,
0000
0000
1000
0000
,
0001
0000
0001
0000
,
0000
0000
1000
0000
,
0001
0000
0001
0000
,
0000
0000
0100
0000
,
1000
0000
0000
0000
,
0001
0000
0000
0000
,
0100
0000
0000
0000
,
0010
0000
0000
0000
,
1000
0000
0000
0000
,
0001
0000
0000
0000
,
0010
0000
0000
0000
,
0020
0000
0030
0000
,
0100
0000
0100
0000
,
0000
0000
0001
0000
,
1000
0000
1000
0000
,
0000
0000
0010
0000
,
1000
0000
0010
0000
,
0000
0000
0100
0000
,
0001
0000
0001
0000
,
0000
0000
1000
0000
,
0010
0000
0100
0000
,
0000
0000
0001
0000
,
0100
0000
0100
0000
,
0000
0000
0001
0000
,
1000
0000
0010
0000
,
0000
0000
0100
0000
,
1000
0000
0001
0000
,
0200
0000
0300
0000
,
0010
0000
0010
0000
,
0100
0000
0001
0000
,
0100
0000
0000
0000
,
0010
0000
0010
0000
,
1000
0000
0010
0000
,
1000
0000
0000
0000
,
0100
0000
0001
0000
,
0100
0000
0001
0000
,
0100
0000
0000
0000
,
0001
0000
0010
0000
,
0100
0000
0001
0000
,
0010
0000
0000
0000
,
1000
0000
0010
0000
,
1000
0000
1000
0000
,
0100
0000
0000
0000
,
2002
0000
0000
0000
,
3003
0000
0000
0000
;

//---------------dance-single - ----------------
#NOTEDATA:;
#CHARTNAME:;
#STEPSTYPE:dance-single;
#DESCRIPTION:;
#CHARTSTYLE:;
#DIFFICULTY:Medium;
#METER:8;
#RADARVALUES:0.443294,0.471503,0.010075,0.080599,0.000000,308.000000,307.000000,1.000000,8.000000,0.000000,0.000000,0.000000,0.000000,0.000000,0.443294,0.471503,0.010075,0.080599,0.000000,308.000000,307.000000,1.000000,8.000000,0.000000,0.000000,0.000000,0.000000,0.000000;
#CREDIT:;
#NOTES:
// measure 0
0000
0000
0000
0000
,  // measure 1
0000
0000
0000
0000
,  // measure 2
0000
0000
0000
0000
,  // measure 3
0000
0000
0000
0000
,  // measure 4
0000
0000
0000
0000
,  // measure 5
0000
0000
0000
0000
,  // measure 6
0000
0000
0000
0000
,  // measure 7
0000
0000
0000
0000
,  // measure 8
0001
0001
0010
0010
,  // measure 9
1000
0100
0001
0001
,  // measure 10
0001
1000
0001
1000
,  // measure 11
0010
0010
1000
0001
,  // measure 12
0010
1000
0010
0100
,  // measure 13
1000
0010
0001
0010
,  // measure 14
1000
0001
1000
1000
,  // measure 15
1000
0001
0001
0001
,  // measure 16
2000
0000
0000
0000
,  // measure 17
3002
0000
0000
0000
,  // measure 18
0023
0000
0000
0000
,  // measure 19
0000
0000
0000
0000
,  // measure 20
2030
0000
0000
0000
,  // measure 21
3002
0000
0000
0000
,  // measure 22
0023
0000
0000
0000
,  // measure 23
0130
0000
0000
0000
,  // measure 24
0010
0000
1000
0000
0100
0000
1000
0010
,  // measure 25
0000
0100
0001
0000
0100
0000
0001
0100
,  // measure 26
0000
0001
1000
0000
0100
0000
0100
0010
,  // measure 27
0000
1000
0001
0000
0100
0000
0001
1000
,  // measure 28
0000
0001
1000
0000
0100
0000
1000
0010
,  // measure 29
0000
0100
0001
0000
0100
0000
0001
0100
,  // measure 30
0000
0001
1000
0000
0100
0000
0100
0010
,  // measure 31
0000
1000
0001
0000
0100
0010
0001
0000
,  // measure 32
0001
0010
0001
0000
0100
0010
0100
0000
,  // measure 33
0001
0000
1000
0100
1000
0000
0010
0100
,  // measure 34
0010
0000
0100
0010
0100
0000
0001
0100
,  // measure 35
0001
0000
0100
0010
0100
0000
0010
1000
,  // measure 36
0010
0000
0001
0001
0100
0000
1000
1000
,  // measure 37
0100
0000
0010
0010
0100
0000
0001
0001
,  // measure 38
0100
0000
0010
0010
1000
0000
0010
0010
,  // measure 39
0100
0000
0000
0000
0001
0000
0010
0010
,  // measure 40
0010
0000
0100
0000
0010
0000
0001
0100
,  // measure 41
0000
0010
1000
0000
0100
0000
0001
0010
,  // measure 42
0000
0001
0010
0000
1000
0000
0100
0010
,  // measure 43
0000
0100
1000
0000
1000
0000
0010
0001
,  // measure 44
0000
0010
0100
0000
0100
0001
0100
0010
,  // measure 45
0000
0100
0010
0000
0010
0001
0010
0100
,  // measure 46
0000
0100
1000
0000
1000
0010
1000
0100
,  // measure 47
0000
0001
0010
0000
0001
0100
0010
0100
,  // measure 48
0000
0001
0100
0000
0100
0010
0100
0001
,  // measure 49
0000
0100
0001
0000
0001
0100
0001
0010
,  // measure 50
0000
1000
0100
0000
0001
0100
0010
1000
,  // measure 51
0000
0100
0001
0000
0001
0001
0100
0010
,  // measure 52
0000
0100
0010
0000
0010
1000
0010
0100
,  // measure 53
0000
0010
0100
0000
0100
1000
0100
0010
,  // measure 54
0000
0010
0001
0000
0001
0100
0001
0010
,  // measure 55
0000
1000
0100
0000
0100
0010
0100
1000
,  // measure 56
0000
1000
0010
0000
0010
0100
0010
1000
,  // measure 57
0000
0010
1000
0000
1000
0010
1000
0100
,  // measure 58
0000
0001
0010
0000
1000
0010
0100
1000
,  // measure 59
0000
0010
1000
0000
1000
1000
0010
0100
,  // measure 60
0000
0010
0100
0000
0100
0001
0100
0010
,  // measure 61
0000
0100
0010
0000
0010
0001
0010
1000
,  // measure 62
0000
0100
1000
0000
1000
0010
1000
0100
,  // measure 63
0000
0001
0010
0000
0001
0100
0010
0001
,  // measure 64
0000
1000
0100
0000
0100
0001
0100
1000
,  // measure 65
0000
0100
1000
0000
1000
0100
1000
0001
,  // measure 66
0000
0010
0100
0000
1000
0100
0001
1000
,  // measure 67
0000
0100
1000
0000
1000
1000
0000
0010
,  // measure 68
0001
0010
0100
0000
0100
0010
0100
0010
,  // measure 69
0000
0100
0001
0000
0001
0100
0001
0000
,  // measure 70
0001
0100
1000
0000
1000
0100
1000
0000
,  // measure 71
0202
0000
0000
0000
,  // measure 72
0303
0000
0000
0000
;
