#TITLE:R4V3 BOY;
#SUBTITLE:- S3RL;
#ARTIST:S3RL;
#TITLETRANSLIT:;
#SUBTITLETRANSLIT:;
#ARTISTTRANSLIT:;
#GENRE:;
#CREDIT:;
#BANNER:bn.png;
#BACKGROUND:bg.png;
#LYRICSPATH:;
#CDTITLE:;
#MUSIC:R4V3 B0Y - S3RL.ogg;
#OFFSET:0.000000;
#SAMPLESTART:50.250000;
#SAMPLELENGTH:18.000000;
#SELECTABLE:YES;
#BPMS:0.000000=175.000000
,152.500000=350.000000
,266.000000=175.000000
;
#STOPS:0.000000=0.155000,
0.500000=0.155000,
1.000000=0.155000,
1.500000=0.155000,
2.000000=0.030000,
62.000000=0.855000,
90.979164=1.050000,
120.500000=1.030000,
152.500000=0.325000,
180.500000=0.200000,
181.500000=0.300000,
211.500000=0.250000,
240.000000=0.200000,
241.000000=0.300000,
265.000000=0.200000,
266.000000=0.700000
;
#BGCHANGES:0.000=R4V3 B0Y - S3RL.avi=1.000=1=0=0=StretchNoLoop==CrossFade==,
99999=-nosongbg-=1.000=0=0=0 // don't automatically add -songbackground-
;
#KEYSOUNDS:;
#ATTACKS:;

//---------------dance-single - ----------------
#NOTES:
     dance-single:
     :
     Hard:
     10:
     0.575981,0.774806,0.346827,0.270959,0.005419,372.000000,340.000000,32.000000,25.000000,0.000000,0.000000,0.575981,0.774806,0.346827,0.270959,0.005419,372.000000,340.000000,32.000000,25.000000,0.000000,0.000000:
1001
1100
0101
1010
1001
0000
0010
0001
,
0100
0000
1000
0010
0100
0000
0010
1000
,
0001
0000
0100
0000
0110
0000
0001
1000
,
0010
0000
0100
0010
1000
0000
0001
1000
,
0010
1000
0100
0100
1100
0000
1000
0010
,
0100
0000
0010
0100
0001
0000
1000
0100
,
0100
0000
0010
0000
0101
0000
1000
0100
,
0001
0000
1000
0010
0001
0000
0100
0001
,
0010
0001
0100
0100
0100
0000
2000
0000
,
0100
3010
1100
0011
,
1000
0100
0110
0002
,
0100
1003
0110
0001
,
0010
0100
1001
0200
,
0010
1300
0110
0001
,
0010
0100
1001
0020
,
0100
0000
1030
0000
1001
0000
0000
0010
,
1000
0010
0001
0010
0100
0010
0000
1000
,
0100
1000
0010
1000
0001
1000
0000
0001
,
0100
0001
1000
0001
0100
0001
0000
0010
,
0100
0010
1000
0010
0100
0010
0000
0100
,
0010
0100
0001
0100
0010
0100
0000
1000
,
0010
1000
0100
0001
0010
0001
0100
0001
,
1000
0001
0100
0001
0010
0002
0000
0000
,
0000
1000
0000
0100
0000
1000
0000
1000
,
0000
0010
0000
1000
0000
1000
0000
0013
,
0000
2100
0000
0010
0000
0001
0000
0010
,
0000
0100
0000
0010
0000
0001
0000
3010
,
0000
1200
0000
0010
0000
0001
0000
0310
,
0000
1002
0000
0100
0000
0010
0000
0103
,
0000
1010
0000
0101
0000
0110
0000
1100
,
0000
0101
0000
1000
0000
0100
0000
0100
,
0000
1000
0000
0010
0000
1000
0000
0001
,
0000
1000
0000
0100
0000
1000
0000
0010
,
0000
1000
0000
0001
0000
1000
0000
0010
,
0000
1000
0000
0000
0100
1000
0001
1000
,
0010
1000
0100
0000
1000
0001
1000
0010
,
0100
0010
1000
0001
0000
1100
0000
0010
,
0000
0001
0000
0000
1000
0000
0010
0000
0100
0000
0010
0000
1000
0000
0001
0000
,
0100
1010
0000
1000
0000
0100
0000
1000
,
0000
0001
0000
0010
0000
0100
0000
0020
,
0000
0030
0000
0001
0000
0100
0000
0001
,
0000
0100
0000
0010
0000
1000
0000
0200
,
0000
0300
0000
0010
0000
0001
0000
0100
,
0000
0010
0000
1000
0000
0100
0000
2000
,
0000
3000
0000
0010
0000
0100
0000
0000
,
0000
1010
0000
0101
0000
1000
0000
0100
,
0000
1000
0000
0001
0000
0100
0000
0010
,
0000
2000
0000
3000
0000
0100
0000
0001
,
0000
0010
0000
0001
0000
0100
0000
0010
,
0000
2000
0000
3000
0000
0001
0000
0100
,
0000
0010
0000
1000
0000
0100
0000
0001
,
0000
0020
0030
1000
0000
0000
0000
0001
,
0000
1000
0000
2000
3000
0000
0000
0200
,
0300
0000
0000
0100
0001
0000
0000
0001
,
0100
0000
0000
0100
0010
0000
0000
0020
,
0030
0000
0000
1000
0001
0000
0000
0001
,
1000
0000
0000
1000
0100
0000
0000
0200
,
0300
0000
0000
0100
0001
0000
0000
0001
,
0010
0000
0000
0010
0100
0000
0000
0200
,
0300
0000
0000
1000
0100
0000
0000
0000
,
1100
1100
0001
0001
,
1000
1000
0010
0010
,
0200
0300
0001
0001
,
0100
0100
0010
0010
,
2000
3000
1000
1000
,
0010
0010
0100
0100
,
0001
1100
0011
1000
,
0100
0010
0100
0000
0020
0030
0100
0010
,
0001
0010
0100
0000
0000
0000
0100
0000
,
0010
1000
0010
0000
0100
0000
0010
0000
,
1000
0100
0020
0000
0030
0000
0010
0000
,
0001
1000
1000
0000
0010
0000
1000
0100
,
0010
0001
0020
0030
0000
0000
0010
0000
,
0001
1000
0100
0000
0010
0000
0001
0010
,
0100
1000
0200
0000
0000
0000
0000
0000
,
0000
0300
0000
0000
;

//---------------dance-single - ----------------
#NOTES:
     dance-single:
     :
     Easy:
     4:
     0.222960,0.326234,0.119222,0.086707,0.000000,144.000000,133.000000,11.000000,8.000000,0.000000,0.000000,0.222960,0.326234,0.119222,0.086707,0.000000,144.000000,133.000000,11.000000,8.000000,0.000000,0.000000:
// measure 0
0100
0100
0100
0000
,  // measure 1
0100
0000
0100
0000
,  // measure 2
0001
0000
0100
0000
,  // measure 3
0010
0000
1000
0000
,  // measure 4
0000
0000
0110
0000
,  // measure 5
0100
0000
0001
0000
,  // measure 6
0100
0000
0100
0000
,  // measure 7
0001
0000
0001
0000
,  // measure 8
0000
0000
0110
0000
,  // measure 9
0000
0000
1100
0000
,  // measure 10
0000
0000
0110
0000
,  // measure 11
0000
0000
0110
0000
,  // measure 12
0000
0000
1001
0000
,  // measure 13
0000
0000
0101
0000
,  // measure 14
0000
0000
1001
0000
,  // measure 15
0000
0000
0000
0000
0110
0000
0000
0001
,  // measure 16
0000
0001
0000
0001
0000
0000
0000
0100
,  // measure 17
0000
0100
0000
0100
0000
0000
0000
0010
,  // measure 18
0000
0010
0000
0010
0000
0000
0000
1000
,  // measure 19
0000
1000
0000
1000
0000
0000
0000
0010
,  // measure 20
0000
0010
0000
0010
0000
0000
0000
1000
,  // measure 21
0000
1000
0000
1000
0000
0000
0000
0001
,  // measure 22
0000
0001
0000
0001
0000
0002
0000
0000
,  // measure 23
0000
0000
0000
0000
0000
1000
0000
0000
,  // measure 24
0000
0000
0000
0000
0000
1000
0000
0003
,  // measure 25
0000
2000
0000
0000
0000
0000
0000
0000
,  // measure 26
0000
0100
0000
0000
0000
0000
0000
3000
,  // measure 27
0000
0200
0000
0000
0000
0000
0000
0300
,  // measure 28
0000
0002
0000
0000
0000
0000
0000
0003
,  // measure 29
0000
0000
0000
0010
0000
0010
0000
0000
,  // measure 30
0000
0110
0000
1000
0000
0000
0000
0100
,  // measure 31
0000
0000
0000
0010
0000
0000
0000
0001
,  // measure 32
0000
0000
0000
0100
0000
0000
0000
0010
,  // measure 33
0000
0000
0000
0001
0000
0000
0000
0010
,  // measure 34
0000
0000
0000
0000
0000
1000
0000
1000
,  // measure 35
0000
1000
0000
0000
0000
0100
0000
0100
,  // measure 36
0000
0100
0000
0000
0000
0010
0000
0000
,  // measure 37
0000
0100
0000
0000
0000
0100
0000
0000
,  // measure 38
0000
0110
0000
0000
0000
1000
0000
0000
,  // measure 39
0000
0000
0000
0000
0000
0100
0000
0000
,  // measure 40
0000
0000
0000
0000
0000
0001
0000
0000
,  // measure 41
0000
0000
0000
0000
0000
1000
0000
0000
,  // measure 42
0000
0000
0000
0000
0000
0001
0000
0000
,  // measure 43
0000
0000
0000
0000
0000
0100
0000
0000
,  // measure 44
0000
0000
0000
0000
0000
0100
0000
0000
,  // measure 45
0000
0000
0000
0000
0000
0000
0000
1000
,  // measure 46
0000
0000
0000
0000
0000
0000
0000
0100
,  // measure 47
0000
0000
0000
0000
0000
0000
0000
1000
,  // measure 48
0000
0000
0000
0000
0000
0000
0000
0010
,  // measure 49
0000
0000
0000
0000
0000
0000
0000
0001
,  // measure 50
0000
0000
0000
0000
0000
0000
0000
1000
,  // measure 51
0000
0000
0000
0000
0000
0000
0000
0001
,  // measure 52
0000
0000
0000
0000
0000
0000
0000
0100
,  // measure 53
0000
0000
0001
0000
,  // measure 54
0001
0000
0001
0000
,  // measure 55
0000
0000
0100
0000
,  // measure 56
0100
0000
0100
0000
,  // measure 57
0000
0000
0001
0000
,  // measure 58
0001
0000
0001
0000
,  // measure 59
0000
0000
0100
0000
,  // measure 60
0100
0000
0000
0000
,  // measure 61
0000
1000
0000
0000
,  // measure 62
0000
1000
0000
0000
,  // measure 63
0000
0100
0000
0000
,  // measure 64
0000
0100
0000
0000
,  // measure 65
0000
1000
0000
0000
,  // measure 66
0000
0010
0000
0100
,  // measure 67
0100
0000
0100
0000
0020
0030
0100
0000
,  // measure 68
0001
0100
0000
0100
,  // measure 69
0010
0010
0100
0010
,  // measure 70
1000
0020
0030
0010
,  // measure 71
0001
1000
0010
1000
,  // measure 72
0010
0000
0020
0030
0000
0000
0010
0000
,  // measure 73
0001
0100
0010
0001
,  // measure 74
0100
0200
0000
0000
,  // measure 75
0000
0300
0000
0000
;

//---------------dance-single - ----------------
#NOTES:
     dance-single:
     :
     Beginner:
     2:
     0.109932,0.202542,0.010838,0.043353,0.000000,71.000000,70.000000,1.000000,4.000000,0.000000,0.000000,0.109932,0.202542,0.010838,0.043353,0.000000,71.000000,70.000000,1.000000,4.000000,0.000000,0.000000:
0000
0000
0000
0000
,
0100
0000
0000
0000
,
0001
0000
0000
0000
,
0010
0000
0000
0000
,
0001
0000
0000
0000
,
0100
0000
0000
0000
,
0100
0000
0000
0000
,
0001
0000
0000
0000
,
0010
0000
0000
0000
,
0100
0000
0000
0000
,
1000
0000
0000
0000
,
0100
0000
0000
0000
,
0010
0000
0000
0000
,
0010
0000
0000
0000
,
0010
0000
0000
0000
,
1000
0000
0000
0000
0000
0000
0000
1000
,
0000
0000
0000
0000
0000
0000
0000
0100
,
0000
0000
0000
0000
0000
0000
0000
0001
,
0000
0000
0000
0000
0000
0000
0000
0100
,
0000
0000
0000
0000
0000
0000
0000
0100
,
0000
0000
0000
0000
0000
0000
0000
0010
,
0000
0000
0000
0000
0000
0000
0000
0010
,
0000
0000
0000
0000
,
0000
1000
0000
0000
0000
0000
0000
0000
,
0000
0010
0000
0000
0000
0000
0000
0000
,
0000
1000
0000
0000
0000
0000
0000
0000
,
0000
0100
0000
0000
0000
0000
0000
0000
,
0000
0100
0000
0000
0000
0000
0000
0000
,
0000
0001
0000
0000
0000
0000
0000
0000
,
0000
0100
0000
0000
0000
0000
0000
0000
,
0000
0100
0000
0000
0000
0000
0000
0100
,
0000
0000
0000
0100
0000
0000
0000
0100
,
0000
0000
0000
0000
0000
0000
0000
0100
,
0000
0000
0000
0100
0000
0000
0000
0100
,
0000
0000
0000
0000
0000
0000
0000
0100
,
0000
0000
0000
0100
0000
0000
0000
0100
,
0000
0000
0000
0000
0000
0000
0000
0100
,
0000
0000
0000
0100
0000
0000
0000
0000
,
0000
0110
0000
0000
0000
0000
0000
0000
,
0000
1000
0000
0000
0000
0000
0000
0000
,
0000
0000
0000
0000
,
0000
0100
0000
0000
0000
0000
0000
0000
,
0000
0000
0000
0000
,
0000
0010
0000
0000
0000
0000
0000
0000
,
0000
0000
0000
0000
,
0000
0010
0000
0000
0000
0000
0000
0000
,
0000
0000
0000
1000
0000
0000
0000
0000
,
0000
0000
0000
0000
,
0000
0000
0000
1000
0000
0000
0000
0000
,
0000
0000
0000
0000
,
0000
0000
0000
0001
0000
0000
0000
0000
,
0000
0000
0000
0001
0000
0000
0000
0000
,
0000
0000
0000
0001
0000
0000
0000
0000
,
0000
0000
0000
0000
,
0000
0000
0001
0000
,
0000
0000
0000
0000
,
0000
0000
0001
0000
,
0000
0000
0000
0000
,
0000
0000
0001
0000
,
0000
0000
0000
0000
,
0000
0000
0000
1000
,
0000
0000
0000
0000
,
0000
0000
0000
0100
,
0000
0000
0000
0000
,
0000
0000
0000
1000
,
0000
0000
0000
0000
,
0000
0000
0000
0000
,
0100
0000
0100
0000
,
0200
0300
0000
0000
,
0000
0010
0000
0010
,
0000
0020
0030
0000
,
0000
1000
0000
1000
,
0000
2000
3000
0010
,
0000
0010
0000
0010
,
0000
0020
0000
0030
;

//---------------dance-single - ----------------
#NOTES:
     dance-single:
     :
     Medium:
     6:
     0.394825,0.652468,0.140898,0.140898,0.005419,255.000000,242.000000,13.000000,13.000000,0.000000,0.000000,0.394825,0.652468,0.140898,0.140898,0.005419,255.000000,242.000000,13.000000,13.000000,0.000000,0.000000:
1000
0001
1000
0001
1000
0000
0010
0000
,
0100
1000
0100
0010
,
0001
0100
0110
0001
,
0010
0100
1000
0001
,
0010
0100
1100
1000
,
0100
0010
0001
1000
,
0100
0010
0101
1000
,
0001
1000
0001
0100
,
0010
0100
0100
1000
,
0100
0010
1100
0011
,
1000
0100
0010
1001
,
0100
1000
0110
0001
,
0010
0100
1001
0100
,
0010
1000
0110
0001
,
0010
0100
1001
0010
,
0100
0000
1000
0000
1001
0000
0000
0010
,
0000
0010
0000
0001
0000
0001
0000
1000
,
0000
1000
0000
0100
0000
0100
0000
0001
,
0000
0001
0000
0010
0000
0010
0000
1000
,
0000
0010
0000
1000
0000
0010
0000
0100
,
0000
0100
0000
1000
0000
1000
0000
0001
,
0000
0001
0000
1000
0000
1000
0000
0001
,
0000
0001
0000
0100
0000
0002
0000
0000
,
0000
1000
0000
0000
0000
0100
0000
0000
,
0000
0010
0000
0000
0000
1000
0000
0003
,
0000
2000
0000
0000
0000
0001
0000
0000
,
0000
0100
0000
0000
0000
0010
0000
3000
,
0000
0200
0000
0000
0000
0001
0000
0300
,
0000
0002
0000
0000
0000
1000
0000
0003
,
0000
1000
0000
0010
0000
1000
0000
1000
,
0000
0001
0000
1000
0000
0100
0000
0100
,
0000
1000
0000
0010
0000
1000
0000
0001
,
0000
1000
0000
0100
0000
1000
0000
0010
,
0000
1000
0000
0001
0000
1000
0000
0010
,
0000
1000
0000
0000
0100
1000
0001
1000
,
0010
1000
0100
0000
1000
0001
1000
0010
,
0100
0010
1000
0001
0000
1100
0000
0010
,
0000
0001
0000
0000
1000
0000
0010
0000
0100
0000
0010
0000
1000
0000
0100
0000
,
0000
1100
0000
0000
0000
1000
0000
0000
,
0000
0001
0000
0000
0000
0200
0000
0000
,
0000
0300
0000
0000
0000
0001
0000
0000
,
0000
0010
0000
0000
0000
0020
0000
0000
,
0000
0030
0000
0000
0000
1000
0000
0000
,
0000
0001
0000
0000
0000
2000
0000
0000
,
0000
3000
0000
0000
0000
0100
0000
0000
,
0000
1000
0000
0100
0000
0000
0000
1000
,
0000
0000
0000
0001
0000
0000
0000
0200
,
0000
0000
0000
0300
0000
0000
0000
1000
,
0000
0000
0000
0100
0000
0000
0000
0020
,
0000
0000
0000
0030
0000
0000
0000
0001
,
0000
0000
0000
0010
0000
0000
0000
0200
,
0000
0000
0000
0300
0000
0000
0000
0001
,
0000
0000
0000
1000
0000
0000
0000
0100
,
0000
0000
0000
1000
0000
0000
0000
0001
,
0000
0000
0000
1000
0000
0000
0000
0001
,
0000
0000
0000
1000
0000
0000
0000
0010
,
0000
0000
0000
0100
0000
0000
0000
0001
,
0000
0000
0000
1000
0000
0000
0000
0001
,
0000
0000
0000
0100
0000
0000
0000
0010
,
0000
0000
0000
1000
0000
0000
0000
0000
,
0100
0100
0000
0001
,
0000
1000
0000
0001
,
0000
1000
0000
0001
,
0000
0100
0000
0010
,
0000
0100
0000
0010
,
0000
1000
0000
0100
,
0000
1000
0001
1000
,
0100
0010
0100
0000
0010
0000
0001
0010
,
0001
0010
0001
0000
0000
0000
0100
0000
,
0010
0100
0010
0000
0100
0000
0010
0000
,
1000
0100
2000
0000
3000
0000
0010
0000
,
0001
0010
0001
0000
0010
0000
1000
0100
,
1000
0100
2000
3000
0000
0000
0010
0000
,
0001
0010
0001
0000
0010
0000
0001
0010
,
0100
0010
0200
0000
0000
0000
0000
0000
,
0000
0300
0000
0000
;
