#TITLE:Nur Getraumt;
#SUBTITLE:;
#ARTIST:Blümchen;
#TITLETRANSLIT:;
#SUBTITLETRANSLIT:;
#ARTISTTRANSLIT:;
#GENRE:;
#CREDIT:;
#BANNER:Nur Getraumt.png;
#BACKGROUND:Nur Getraumt cd.png;
#LYRICSPATH:;
#CDTITLE:;
#MUSIC:Blümchen - Nur Getraumt.mp3;
#OFFSET:0.000000;
#SAMPLESTART:55.400002;
#SAMPLELENGTH:20.000000;
#SELECTABLE:YES;
#BPMS:0.000000=181.850006
;
#STOPS:
;
#BGCHANGES:0.000=Blümchen - Nur Getraumt.mp4=1.000=0=0=0=StretchNoLoop====,
99999=-nosongbg-=1.000=0=0=0 // don't automatically add -songbackground-
;
#KEYSOUNDS:;
#ATTACKS:;

//---------------dance-single - ----------------
#NOTES:
     dance-single:
     :
     Hard:
     11:
     0.500710,0.615139,0.107395,0.156210,0.000000,359.000000,348.000000,11.000000,16.000000,0.000000,0.000000,0.500710,0.615139,0.107395,0.156210,0.000000,359.000000,348.000000,11.000000,16.000000,0.000000,0.000000:
0000
0000
0000
0000
,
0000
0000
0000
0000
,
2100
0000
0000
0000
,
3002
0000
0000
0000
,
0203
0000
0000
0000
,
2300
0000
0000
0000
,
3020
0000
0000
0000
,
0032
0000
0000
0000
,
0203
0000
0000
0000
,
2300
0000
0000
3000
,
0021
0000
0031
0000
,
0102
0000
0103
0000
,
2010
0000
3010
0000
,
0120
0000
0130
0000
,
1001
1001
0000
0000
,
0012
0000
0013
0000
,
2001
0000
3001
0000
,
1020
0000
1030
0000
,
1100
0000
0000
1000
0000
0100
0000
0000
,
0001
0000
0000
0001
0000
0100
0000
0000
,
0001
0000
0000
0010
0000
1000
0000
0000
,
0100
0000
0100
0010
0000
0001
0000
0000
,
0010
0000
0010
0100
0000
1000
0000
0000
,
0100
0000
0100
0010
0000
0001
0000
0001
,
0100
0000
0100
0010
0000
0100
0000
0100
,
0010
0010
1000
1000
,
0010
0100
0010
0000
0001
0010
0001
0000
,
1000
0100
1000
0000
0100
0010
0100
0000
,
0001
1000
0010
0000
0100
1000
0010
0000
,
1000
0100
1000
0000
0100
0010
0001
0010
,
0100
0010
0100
0000
0001
0100
0010
0000
,
1000
0100
0010
0000
0100
1000
0010
0000
,
0100
0001
0010
0000
0100
1000
0010
0000
,
1000
0100
0010
0000
1000
0100
0001
0000
,
0100
0100
1000
1000
0001
0001
0100
0100
,
0010
0010
1000
1000
0001
0001
0010
0010
,
0100
0100
1000
1000
0010
0010
0100
0100
,
0001
0010
0100
0000
1000
0010
0100
0000
,
0010
0010
1000
1000
0010
0010
0100
0100
,
0001
0001
0010
0010
0100
0100
0010
0010
,
0001
0001
1000
1000
0100
0100
0010
0010
,
0001
0010
0001
0100
0010
1000
0100
0010
,
0001
0001
1000
1000
,
0010
0000
0010
0000
0100
0000
0100
0001
,
1000
0000
0010
0000
0100
0000
1000
0100
,
0010
0001
1000
0100
0010
0001
1000
0100
,
1000
0001
0100
0010
,
0100
0010
1000
0000
0001
0100
0010
1000
,
0100
0001
0100
0010
,
1000
0000
0010
0000
0100
0000
1000
1000
,
0100
0001
0001
0100
,
0100
0000
0010
0000
0010
0000
1000
0100
,
1000
0000
0001
0000
0100
0010
0001
1000
,
0100
0000
0001
0000
0010
0100
1000
0000
,
1000
0100
1000
0001
0100
0010
0001
0000
,
0100
1000
0010
0100
0001
0010
0100
0000
,
0010
0001
1000
0010
0100
0001
0010
0000
,
1000
0010
0100
0010
1000
0100
0010
0000
,
0001
0000
1000
0000
0010
0100
0000
0001
,
1000
0000
0100
0000
0010
0001
0000
0100
,
0010
0000
1000
0000
0100
0010
0000
0001
,
1000
0000
0001
0000
0100
0010
0000
1000
,
0100
0000
0010
0000
0001
1000
0000
0010
,
0100
0000
0001
0000
0010
0100
0000
1000
,
0001
0000
0100
0000
0010
1000
0000
0100
,
0010
0000
0001
0000
0100
0001
0010
0100
,
1000
0010
0100
0000
0010
0001
0000
0100
,
1000
0010
0100
0000
1000
0001
0000
0100
,
0010
0001
0100
0000
1000
0010
0000
0100
,
0010
0001
1000
0000
0100
0010
0000
1000
,
0001
0100
0010
0000
0100
0010
0000
1000
,
0100
0001
0010
0000
0100
1000
0000
0010
,
0100
0001
1000
0000
0010
0100
0000
1000
,
0100
0010
1000
0010
0100
0001
0010
0100
,
2000
3000
0000
0000
0000
0000
0000
0000
;

//---------------dance-single - ----------------
#NOTES:
     dance-single:
     :
     Medium:
     7:
     0.364026,0.398031,0.029289,0.146447,0.000000,261.000000,258.000000,3.000000,15.000000,0.000000,0.000000,0.364026,0.398031,0.029289,0.146447,0.000000,261.000000,258.000000,3.000000,15.000000,0.000000,0.000000:
0000
0000
0000
0000
,
0000
0000
0000
0000
,
1001
0000
0000
0000
,
2000
0000
0000
3000
,
0200
0000
0000
0300
,
0020
0000
0000
0030
,
0002
0000
0000
0003
,
0020
0000
0000
0030
,
0200
0000
0000
0300
,
2000
0000
0000
3000
,
0200
0000
0310
0000
,
0002
0000
1003
0000
,
0020
0000
1030
0000
,
2000
0000
3001
0000
,
0110
0110
0000
0000
,
0200
0000
0310
0000
,
0020
0000
0031
0000
,
2000
0000
3001
0000
,
0010
0000
0000
0100
0000
0010
0000
0000
,
1000
0000
0000
0100
0000
1000
0000
0000
,
0010
0000
0000
0100
0000
0010
0000
0000
,
0001
0000
0000
0010
0000
0001
0000
0000
,
0100
0000
0000
1000
0000
0100
0000
0000
,
0010
0000
0000
0010
0000
0100
0000
0000
,
0010
0000
0000
0010
0000
0001
0000
0000
,
0100
0000
0000
0100
0000
1000
0000
0000
,
1000
0010
0100
0001
,
0100
0010
1000
0001
,
0100
0010
1000
0001
,
0100
0010
0100
0001
,
1000
0100
1000
0001
,
0100
0010
1000
0100
,
1000
0010
0100
0001
,
1000
0100
0010
1000
,
0001
0001
0010
0010
,
1000
1000
0100
0100
,
0001
0001
0010
0010
,
1000
1000
0010
0010
,
0100
0100
0001
0001
,
0010
0010
1000
1000
,
0001
0001
0100
0100
,
0010
0010
0100
0100
,
0001
0100
0001
1000
,
0010
0000
0100
0000
1000
0000
0100
0010
,
0100
0010
0001
1000
,
0010
0000
0100
0000
1000
0000
0001
0010
,
0001
0010
1000
0100
,
0010
0000
1000
0000
0010
0000
0100
0010
,
0100
1000
0001
0010
,
0100
0000
1000
0000
0010
0000
0100
0010
,
0100
0001
0010
1000
,
0100
0000
0001
0000
0010
0000
0100
0010
,
0001
1000
0010
0100
,
1000
0000
0001
0000
0100
0000
0010
0100
,
1000
0010
0100
1000
,
0001
0000
0100
0000
0010
0000
0100
0001
,
0010
1000
0100
0010
,
0001
0010
0100
0001
,
0010
0010
1000
1000
,
0100
0000
0100
0000
0001
0000
0001
0100
,
0010
0010
0100
1000
,
0100
0000
0100
0000
0010
0000
0010
0100
,
0001
0001
1000
1000
,
0001
0000
0001
0000
0100
0000
0100
0010
,
1000
1000
0010
0001
,
0100
0000
0100
0000
0010
0100
0010
0100
,
0001
0001
1000
1000
,
0010
0000
0010
0000
0100
0000
0100
0010
,
1000
1000
0010
0010
,
0100
0000
0100
0000
0001
0000
0100
0010
,
0001
0001
0100
0100
,
0010
0000
0010
0000
1000
0000
1000
0100
,
0010
0010
1000
1000
,
0100
0000
0100
0000
0001
0010
0001
0100
,
0020
0030
0000
0000
0000
0000
0000
0000
;

//---------------dance-single - ----------------
#NOTES:
     dance-single:
     :
     Easy:
     5:
     0.244079,0.325662,0.009763,0.078105,0.000000,175.000000,174.000000,1.000000,8.000000,0.000000,0.000000,0.244079,0.325662,0.009763,0.078105,0.000000,175.000000,174.000000,1.000000,8.000000,0.000000,0.000000:
0000
0000
0000
0000
,
0000
0000
0000
0000
,
1001
0000
0000
0000
,
0100
0000
0000
0000
,
1000
0000
0000
0000
,
0010
0000
0000
0000
,
0100
0000
0000
0000
,
0001
0000
0000
0000
,
0010
0000
0000
0000
,
0100
0000
0000
0000
,
0020
0000
0030
0000
,
2000
0000
3000
0000
,
0002
0000
0003
0000
,
0200
0000
0300
0000
,
0100
0100
0000
0000
,
0020
0000
0030
0000
,
0002
0000
0003
0000
,
2000
0000
3000
0000
,
0001
0000
0001
0000
,
0100
0000
0100
0000
,
0010
0000
0010
0000
,
0100
0000
0100
0000
,
1000
0000
1000
0000
,
0010
0000
0010
0000
,
0100
0000
0100
0000
,
1000
0000
1000
0000
,
0001
0001
0100
0000
,
1000
1000
0010
0000
,
0100
0100
0001
0000
,
0010
0010
1000
0000
,
0001
0001
0100
0000
,
1000
1000
0100
0000
,
0010
0010
0100
0000
,
0100
0100
0010
0000
,
0001
0001
1000
1000
,
0100
0100
0010
0010
,
0001
0000
0100
0000
,
1000
0000
0100
0000
,
0010
0010
1000
1000
,
0100
0100
0001
0001
,
0010
0000
0100
0000
,
0010
0010
1000
1000
,
0100
0000
0001
0000
,
0010
0000
1000
1000
,
0010
0000
0100
0000
,
1000
0000
0100
0100
,
0010
0000
0001
0000
,
0100
0000
0001
0001
,
0100
0000
0010
0000
,
1000
0000
0100
0100
,
0001
0000
1000
0000
,
0010
0000
0100
0010
,
0001
0000
0010
0000
,
1000
0000
0100
1000
,
0010
0000
0100
0000
,
1000
0000
0010
0100
,
0001
0000
0010
0000
,
0001
0000
0100
0010
,
1000
1000
0100
0000
,
0001
0001
0100
0000
,
0010
0010
1000
0000
,
0100
0100
0010
0000
,
0001
0001
1000
0000
,
0100
0100
1000
0000
,
0010
0010
0001
0000
,
1000
1000
0100
0100
,
0010
0010
1000
0000
,
0100
0100
0001
0000
,
0010
0010
1000
0000
,
0100
0100
0001
0000
,
0010
0010
1000
0000
,
0100
0100
0010
0000
,
0001
0010
0100
0000
,
1000
0100
0010
0001
,
2000
3000
0000
0000
0000
0000
0000
0000
;

//---------------dance-single - ----------------
#NOTES:
     dance-single:
     :
     Beginner:
     3:
     0.149237,0.180923,0.000000,0.107395,0.000000,107.000000,107.000000,0.000000,11.000000,0.000000,0.000000,0.149237,0.180923,0.000000,0.107395,0.000000,107.000000,107.000000,0.000000,11.000000,0.000000,0.000000:
// measure 0
0000
0000
0000
0000
,  // measure 1
0000
0000
0000
0000
,  // measure 2
2000
0000
0000
0000
,  // measure 3
0000
3000
0000
0000
,  // measure 4
0020
0000
0000
0000
,  // measure 5
0000
0030
0000
0000
,  // measure 6
0200
0000
0000
0000
,  // measure 7
0000
0300
0000
0000
,  // measure 8
0002
0000
0000
0000
,  // measure 9
0000
0003
0000
0000
,  // measure 10
1000
0000
0000
0000
,  // measure 11
1000
0000
0000
0000
,  // measure 12
0001
0000
0000
0000
,  // measure 13
0001
0000
0000
0000
,  // measure 14
0100
0100
0000
0000
,  // measure 15
0010
0000
0000
0000
,  // measure 16
0100
0000
0000
0000
,  // measure 17
0001
0000
0000
0000
,  // measure 18
0200
0000
0000
0000
,  // measure 19
0300
0000
0000
0000
,  // measure 20
2000
3000
0000
0000
,  // measure 21
0020
0030
0000
0000
,  // measure 22
0200
0300
0000
0000
,  // measure 23
0002
0003
0000
0000
,  // measure 24
0100
0000
0100
0000
,  // measure 25
0200
0000
0300
0000
,  // measure 26
0100
0000
1000
0000
,  // measure 27
0100
0000
0010
0000
,  // measure 28
0001
0000
0100
0000
,  // measure 29
0010
0000
0001
0000
,  // measure 30
0100
0000
1000
0000
,  // measure 31
0100
0000
1000
0000
,  // measure 32
0100
0000
0010
0000
,  // measure 33
0001
0000
1000
0000
,  // measure 34
0100
0000
0001
0000
,  // measure 35
0100
0000
0001
0000
,  // measure 36
0100
0000
0001
0000
,  // measure 37
0010
0000
0100
0000
,  // measure 38
1000
0000
0001
0000
,  // measure 39
0100
0000
0001
0000
,  // measure 40
0100
0000
0001
0000
,  // measure 41
0010
0000
0100
0000
,  // measure 42
1000
0000
0000
0000
,  // measure 43
0001
0000
0001
0000
,  // measure 44
0100
0000
0000
0000
,  // measure 45
0100
0000
0100
0000
,  // measure 46
1000
0000
0000
0000
,  // measure 47
0010
0000
0010
0000
,  // measure 48
1000
0000
0000
0000
,  // measure 49
0100
0000
0100
0000
,  // measure 50
0001
0000
0000
0000
,  // measure 51
0010
0000
0010
0000
,  // measure 52
1000
0000
0000
0000
,  // measure 53
1000
0000
1000
0000
,  // measure 54
0001
0000
0000
0000
,  // measure 55
0010
0000
0010
0000
,  // measure 56
0001
0000
0000
0000
,  // measure 57
0100
0000
0100
0000
,  // measure 58
0010
0000
0010
0000
,  // measure 59
1000
0000
1000
0000
,  // measure 60
0100
0000
0100
0000
,  // measure 61
0001
0000
0001
0000
,  // measure 62
0100
0000
0100
0000
,  // measure 63
1000
0000
1000
0000
,  // measure 64
0010
0000
0010
0000
,  // measure 65
0100
0000
0100
0000
,  // measure 66
1000
0000
1000
0000
,  // measure 67
0010
0000
0000
0000
,  // measure 68
0010
0000
0010
0000
,  // measure 69
1000
0000
0000
0000
,  // measure 70
0001
0000
0001
0000
,  // measure 71
0100
0000
0000
0000
,  // measure 72
0010
0000
0010
0000
,  // measure 73
1000
0000
0100
0000
,  // measure 74
0020
0030
0000
0000
0000
0000
0000
0000
;
