#TITLE:KNIGHTS OF THE SOUND SYSTEM;
#SUBTITLE:- Jailbreak;
#ARTIST:Nizikawa;
#TITLETRANSLIT:;
#SUBTITLETRANSLIT:;
#ARTISTTRANSLIT:;
#GENRE:;
#CREDIT:;
#BANNER:bn.png;
#BACKGROUND:bg.png;
#LYRICSPATH:;
#CDTITLE:;
#MUSIC:KNIGHTS OF THE SOUND SYSTEM - Jailbreak.mp3;
#OFFSET:0.000000;
#SAMPLESTART:0.000000;
#SAMPLELENGTH:12.000000;
#SELECTABLE:YES;
#BPMS:0.000000=87.419998
,15.000000=90.000000
,15.500000=130.000000
,16.000000=180.000000
,16.500000=220.000000
,17.000000=260.000000
,17.500000=300.000000
,18.000000=320.000000
,18.500000=365.000000
,20.000000=174.839996
,48.000000=349.679993
,106.000000=174.839996
,106.500000=270.000000
,108.000000=174.839996
,108.500000=265.000000
,110.000000=174.839996
,110.500000=420.000000
,111.000000=480.000000
,112.000000=349.679993
,168.000000=60.000000
,168.500000=150.000000
,169.000000=249.999985
,169.500000=350.000000
,170.000000=450.000000
,170.500000=550.000000
,171.000000=650.000000
,172.000000=349.679993
,228.000000=174.839996
,228.500000=349.679993
,230.500000=174.839996
,231.000000=369.679993
,233.000000=174.839996
,233.500000=470.000000
,235.000000=349.679993
;
#STOPS:48.000000=1.000000,
168.000000=0.250000
;
#BGCHANGES:;
#KEYSOUNDS:;
#ATTACKS:;

//---------------dance-single - ----------------
#NOTES:
     dance-single:
     :
     Hard:
     16:
     0.683854,0.918502,0.802523,0.689888,0.000000,340.000000,283.000000,57.000000,49.000000,0.000000,1.000000,0.683854,0.918502,0.802523,0.689888,0.000000,340.000000,283.000000,57.000000,49.000000,0.000000,1.000000:
0000
2000
0000
3020
,
0000
0230
0000
0302
,
0023
2030
0000
3200
,
0000
0302
0000
0023
,
0000
0000
0000
0030
,
1000
1000
0001
0001
,
0100
0100
0010
0010
,
1000
1000
0001
0001
,
0100
0000
0100
0000
0010
0000
0010
1000
,
0100
0010
0100
0010
1000
0100
1000
0100
,
0001
0010
0001
0010
0100
1000
0010
0001
,
0100
0010
1000
0100
0001
0010
0100
0001
,
0010
0000
0010
2000
,
0100
3002
0010
0203
,
0001
0320
1000
0230
,
0001
0302
2000
0013
,
3200
0001
0320
1000
,
0230
0001
0320
1000
,
0032
0010
2003
0010
,
3200
1000
0320
0001
,
0002
0030
0203
1000
,
1000
0320
0100
0100
,
2030
0100
0100
3002
,
0100
0100
0023
0001
,
0001
0230
0010
0010
,
0302
0100
0100
2003
,
0010
3000
0101
0000
,
1010
0000
0101
0000
,
1010
0000
1020
0000
,
0000
0130
0000
0011
,
0000
0011
0000
0001
,
0001
0000
1000
0100
1000
0100
0000
0000
,
0110
0000
0120
0000
,
0000
0130
0000
0100
,
0001
0000
0001
0000
1000
0100
1000
0100
,
0010
0000
0010
0000
0001
0010
0001
0000
,
1100
0000
1200
0000
,
0300
0001
0000
0110
,
0000
0110
0000
0011
,
0001
0000
0100
0010
0100
0010
0000
0000
,
0011
0000
0000
1100
0000
0000
0110
0000
,
0000
1001
0000
0000
0100
0010
0100
0010
,
0100
0000
0000
0000
,
0101
0010
1100
0010
,
0001
0000
1000
0010
1000
0000
0001
0000
,
0011
0100
1100
0001
,
0010
0000
0100
1000
0100
0000
0010
0000
,
1000
0101
0010
1000
,
0101
0010
0010
1100
,
0001
0001
0110
1000
,
0010
0110
2002
3003
,
1010
0100
0011
0100
,
1000
0000
0001
0100
0001
0000
1000
0000
,
1100
0010
0011
1000
,
0100
0000
0010
0001
0010
0000
0100
0000
,
0010
0010
0101
0101
,
0010
1000
1010
0000
,
0101
0000
0000
0000
0000
1100
0000
0000
,
0000
0011
0000
1010
,
0100
0011
1000
0100
,
0001
0010
0100
0000
0001
0000
1100
0000
,
0010
1001
0100
0001
,
0010
1000
0100
0000
0010
0000
1100
0000
,
0010
1000
0101
0010
,
0100
1000
0101
0010
,
1000
0101
0010
0100
,
1001
0220
0330
0011
,
0100
0000
1010
0000
0100
0000
0001
0010
,
1000
0010
1100
0010
,
0101
0000
0010
0000
1000
0100
0001
0000
,
0100
1010
0100
0100
,
0011
0011
1000
1000
,
0110
0110
1000
0020
,
2030
3002
0203
2300
,
3020
0230
0302
2003
,
0000
0000
0000
0000
,
0000
0000
0000
3000
;

//---------------dance-single - ----------------
#NOTES:
     dance-single:
     :
     Medium:
     9:
     0.414335,0.693232,0.225270,0.225270,0.000000,206.000000,190.000000,16.000000,16.000000,0.000000,0.000000,0.414335,0.693232,0.225270,0.225270,0.000000,206.000000,190.000000,16.000000,16.000000,0.000000,0.000000:
0000
2000
0000
0000
,
0000
3002
0000
0000
,
0000
0023
0000
0000
,
0000
0230
0000
0000
,
0000
0300
0000
0000
,
0100
0000
0100
0000
,
0100
0000
0100
0000
,
0100
0000
0100
0000
,
0100
0000
0100
0000
,
0100
1000
0100
1000
,
0100
1000
0100
1000
,
0100
1000
0100
1000
0100
1000
0100
1000
,
0100
0000
0001
0000
,
0001
0000
1000
0000
,
0100
0000
0010
0000
,
0010
0000
0010
0000
,
0010
0000
0001
0000
,
0001
0000
1000
0000
,
0100
0000
0010
0000
,
0010
0000
0010
0000
,
2000
3000
0001
0000
,
1000
0000
0100
0000
,
0010
0000
0100
0000
,
0100
0000
0100
0000
,
0100
0000
0001
0000
,
1000
0000
0100
0000
,
0010
0000
1000
0000
,
0100
0000
0010
0000
,
0001
0000
0001
0000
,
1000
0001
0000
0001
,
0000
0001
0000
0100
,
1000
0010
0010
0100
,
0100
0000
0100
0000
,
0001
1000
0000
1000
,
0100
0010
0001
1000
,
0100
0010
0001
0001
,
0100
0000
0100
0000
,
1000
0001
0000
0001
,
0000
0001
0000
0001
,
1000
0010
0100
0001
,
1000
0000
0000
0001
0000
0000
0100
0000
,
0000
0010
0000
0000
1000
0000
0100
0000
,
0020
0030
0000
0000
0000
0000
0000
0000
,
0101
0000
1010
0000
,
0001
0000
0100
0000
,
1010
0000
0101
0000
,
0010
0000
0100
0000
,
0001
0100
0001
0001
,
1000
0100
0100
0010
,
0001
0001
1000
0010
,
0010
0000
0100
0000
0002
0003
0000
0000
,
0011
0000
1100
0000
,
0010
0000
1000
0000
,
0011
0000
1100
0000
,
0010
0000
0100
0000
,
1000
1000
0001
0100
,
0100
0010
1000
1000
,
0200
0000
0300
0000
0000
2000
0000
3000
,
0000
0000
0002
0003
0000
0000
1010
0000
,
0000
0101
0000
0001
,
0000
0100
0000
1010
,
0000
0101
0000
1000
,
0000
0100
0000
0001
,
0100
0010
0010
1000
,
0100
0100
0010
0001
,
0001
0100
0010
0010
,
1000
0000
0200
0300
0000
0000
0011
0000
,
0000
0101
0000
0010
,
1000
0100
0000
1010
,
0000
1100
0000
0010
,
0100
1000
0000
0010
,
0010
0100
0100
0001
,
1000
0100
0100
0002
,
0000
2003
0000
3200
,
0000
0320
0000
0032
,
0000
0000
0000
0003
;

//---------------dance-single - ----------------
#NOTES:
     dance-single:
     :
     Easy:
     6:
     0.243372,0.479930,0.000000,0.140794,0.000000,121.000000,121.000000,0.000000,10.000000,0.000000,0.000000,0.243372,0.479930,0.000000,0.140794,0.000000,121.000000,121.000000,0.000000,10.000000,0.000000,0.000000:
0000
2000
0000
3000
,
0000
0200
0000
0300
,
0000
0020
0000
0030
,
0000
0002
0000
0003
,
0000
0000
0000
0000
,
0001
0000
0000
0000
,
0001
0000
0001
0000
,
0001
0000
0000
0000
,
0001
0000
0001
0000
,
0001
0000
0001
0000
,
0001
0100
0001
0100
,
0001
0010
0100
1000
,
0100
0000
0000
0000
,
0100
0000
0000
0000
,
0001
0000
0000
0000
,
0010
0000
0010
0000
,
0010
0000
0000
0000
,
0100
0000
0000
0000
,
0001
0000
0000
0000
,
0010
0000
0010
0000
,
0020
0030
0000
0000
,
0100
0000
0000
0000
,
0001
0000
0000
0000
,
0010
0000
0010
0000
,
0010
0000
0000
0000
,
0100
0000
0000
0000
,
0001
0000
1000
0000
,
0001
0000
1000
0000
,
0010
0000
0010
0000
,
0000
0000
0000
0000
,
0100
0000
0100
0000
,
0000
0000
0000
0000
,
0001
0000
0001
0000
,
0000
0000
0000
0000
,
1000
0000
1000
0000
,
0000
0000
0000
0000
,
0100
0000
0100
0000
,
0100
0000
0000
0000
,
0001
0000
0001
0000
,
0001
0000
0000
0000
,
0010
0000
0010
0000
,
0010
0000
0010
0000
,
0200
0300
0000
0000
,
1000
0000
0001
0000
,
0100
0000
0100
0000
,
0001
0000
1000
0000
,
0100
0000
0100
0000
,
0010
0000
0010
0000
,
0100
0000
0100
0000
,
0010
0000
0010
0000
,
0100
0000
0000
0000
0200
0300
0000
0000
,
0100
0000
0010
0000
,
1000
0000
0001
0000
,
0010
0000
0100
0000
,
1000
0000
0001
0000
,
0010
0000
0010
0000
,
0100
0000
0100
0000
,
0001
0000
0000
0000
0000
0001
0000
0000
,
0000
0001
0000
0001
,
0000
1000
0000
0100
,
0000
0010
0000
0001
,
0000
1000
0000
0100
,
0000
0010
0000
0001
,
0000
1000
0000
0001
,
0000
1000
0000
0001
,
0000
1000
0000
0001
,
0000
0000
2000
3000
0000
0000
1000
0000
,
0000
0010
0000
0001
,
0000
0010
0000
0001
,
0000
0100
0000
1000
,
0000
0010
0000
0001
,
0000
0100
0000
0010
,
0000
1000
0000
0020
,
0000
0000
0000
0030
,
0000
0000
0000
0200
,
0000
0000
0000
0300
;

//---------------dance-single - ----------------
#NOTES:
     dance-single:
     :
     Beginner:
     4:
     0.156884,0.266628,0.000000,0.084476,0.000000,78.000000,78.000000,0.000000,6.000000,0.000000,0.000000,0.156884,0.266628,0.000000,0.084476,0.000000,78.000000,78.000000,0.000000,6.000000,0.000000,0.000000:
// measure 0
0000
0200
0000
0000
,  // measure 1
0000
0300
0000
0000
,  // measure 2
0000
0020
0000
0000
,  // measure 3
0000
0030
0000
0000
,  // measure 4
0000
0000
0000
0000
,  // measure 5
0000
0000
0100
0000
,  // measure 6
0000
0000
0100
0000
,  // measure 7
0000
0000
0100
0000
,  // measure 8
0000
0000
0100
0000
,  // measure 9
0100
0000
0100
0000
,  // measure 10
0100
0000
0100
0000
,  // measure 11
0010
0000
1000
0000
,  // measure 12
0001
0000
0001
0000
,  // measure 13
0000
0000
0000
0000
,  // measure 14
0000
0000
0001
0000
,  // measure 15
0000
0000
0000
0000
,  // measure 16
0000
0000
0100
0000
,  // measure 17
0000
0000
0000
0000
,  // measure 18
0000
0000
0100
0000
,  // measure 19
0000
0000
0000
0000
,  // measure 20
0000
0000
1000
0000
,  // measure 21
0000
0000
1000
0000
,  // measure 22
0000
0000
1000
0000
,  // measure 23
0000
0000
0000
0000
,  // measure 24
0000
0000
0100
0000
,  // measure 25
0000
0000
0100
0000
,  // measure 26
0000
0000
0200
0000
,  // measure 27
0000
0000
0300
0000
,  // measure 28
0100
0000
0000
0000
,  // measure 29
0100
0000
0000
0000
,  // measure 30
0100
0000
0000
0000
,  // measure 31
0000
0000
0000
0000
,  // measure 32
0010
0000
0000
0000
,  // measure 33
0010
0000
0000
0000
,  // measure 34
0010
0000
0000
0000
,  // measure 35
0000
0000
0000
0000
,  // measure 36
0001
0000
0000
0000
,  // measure 37
0001
0000
0000
0000
,  // measure 38
0001
0000
0000
0000
,  // measure 39
0000
0000
0000
0000
,  // measure 40
1000
0000
0000
0000
,  // measure 41
1000
0000
0000
0000
,  // measure 42
1000
0000
0000
0000
,  // measure 43
1000
0000
1000
0000
,  // measure 44
0000
0000
0000
0000
,  // measure 45
0001
0000
0001
0000
,  // measure 46
0000
0000
0000
0000
,  // measure 47
0100
0000
0100
0000
,  // measure 48
0100
0000
0100
0000
,  // measure 49
0100
0000
0100
0000
,  // measure 50
0100
0000
0100
0000
,  // measure 51
1000
0000
1000
0000
,  // measure 52
0000
0000
0000
0000
,  // measure 53
0001
0000
0001
0000
,  // measure 54
0000
0000
0000
0000
,  // measure 55
0010
0000
0010
0000
,  // measure 56
0010
0000
0010
0000
,  // measure 57
0020
0000
0000
0000
,  // measure 58
0000
0030
0000
1000
,  // measure 59
0000
0100
0000
0000
,  // measure 60
0000
0000
0000
0001
,  // measure 61
0000
0100
0000
0000
,  // measure 62
0000
0000
0000
0100
,  // measure 63
0000
0100
0000
0100
,  // measure 64
0000
0100
0000
0100
,  // measure 65
0000
0100
0000
0100
,  // measure 66
0000
0100
0000
0001
,  // measure 67
0000
0100
0000
0000
,  // measure 68
0000
0000
0000
1000
,  // measure 69
0000
0100
0000
0000
,  // measure 70
0000
0000
0000
0010
,  // measure 71
0000
0010
0000
0010
,  // measure 72
0000
0010
0000
0020
,  // measure 73
0000
0000
0000
0030
,  // measure 74
0000
0000
0000
0200
,  // measure 75
0000
0000
0000
0300
;
