#VERSION:0.83;
#TITLE:FM200;
#SUBTITLE:- S3RL;
#ARTIST:Douglas;
#TITLETRANSLIT:;
#SUBTITLETRANSLIT:;
#ARTISTTRANSLIT:;
#GENRE:;
#ORIGIN:;
#CREDIT:;
#BANNER:bn.png;
#BACKGROUND:bg.png;
#PREVIEWVID:;
#JACKET:cd.png;
#CDIMAGE:;
#DISCIMAGE:;
#LYRICSPATH:;
#CDTITLE:;
#MUSIC:FM200 (S3RL Remix) - Douglas.mp3;
#OFFSET:-0.020000;
#SAMPLESTART:-0.020000;
#SAMPLELENGTH:12.000000;
#SELECTABLE:YES;
#BPMS:0.000=175.000,
72.000=190.000,
74.000=205.000,
76.000=220.000,
78.000=235.000,
80.000=250.000,
82.000=265.000,
84.000=280.000,
86.000=295.000,
88.000=310.000,
89.000=325.000,
90.000=340.000,
91.000=355.000,
92.000=370.000,
93.000=385.000,
94.000=400.000,
95.000=415.000,
96.000=430.000,
97.000=445.000,
98.000=460.000,
99.000=475.000,
100.000=490.000,
101.000=505.000,
102.000=520.000,
103.000=535.000,
104.000=750.000,
108.000=175.000,
170.000=105.000,
170.500=200.000,
171.000=250.000,
171.500=275.000,
172.000=350.000,
290.000=125.000,
290.500=155.000,
291.000=185.000,
291.500=220.000,
292.000=255.000,
292.500=290.000,
293.000=325.000,
293.500=360.000,
294.000=415.000,
296.000=350.000,
416.000=300.000,
417.000=225.000,
418.000=150.000,
419.000=75.000;
#STOPS:104.000=0.195;
#DELAYS:232.000=0.650;
#WARPS:232.000=1.000,
234.000=1.000;
#TIMESIGNATURES:0.000=4=4;
#TICKCOUNTS:0.000=4;
#COMBOS:0.000=1;
#SPEEDS:0.000=1.000=0.000=0;
#SCROLLS:0.000=1.000;
#FAKES:;
#LABELS:0.000=Song Start,
108.000=begin beat,
140.000=begin claps,
172.000=begin kick,
232.000=drop,
296.000=drop 2,
416.000=End;
#BGCHANGES:;
#KEYSOUNDS:;
#ATTACKS:
;

//---------------dance-single - ----------------
#NOTEDATA:;
#CHARTNAME:;
#STEPSTYPE:dance-single;
#DESCRIPTION:;
#CHARTSTYLE:Pad;
#DIFFICULTY:Hard;
#METER:14;
#RADARVALUES:0.630114,0.912228,0.225669,0.359019,0.025644,430.000000,408.000000,22.000000,35.000000,0.000000,0.000000,0.000000,0.000000,1.000000,0.630114,0.912228,0.225669,0.359019,0.025644,430.000000,408.000000,22.000000,35.000000,0.000000,0.000000,0.000000,0.000000,1.000000;
#CREDIT:Elik;
#NOTES:
0000
0000
0000
0000
,
0000
0000
0000
0000
,
0000
0000
0000
0000
,
0000
0000
0000
0000
,
0000
0000
0000
0000
,
0000
0000
0000
0000
,
0000
0000
0000
0000
,
0000
0000
0000
0000
,
0002
0000
0000
0000
0000
0000
0000
0000
0000
1000
0003
0000
0010
0000
0000
0100
0000
0000
0010
0000
0000
0000
0000
0000
,
1000
0100
1000
0100
2000
0000
0000
0000
3200
0000
0000
0000
0302
0000
0000
0000
,
0013
0020
2030
0000
3200
0000
0320
0000
,
0031
0002
0203
0000
0320
0000
2030
0000
,
3200
0000
0000
0301
0002
0000
0203
0000
,
0320
0000
0030
0000
0010
0001
0010
0000
1000
0000
0100
0000
0010
0000
1000
0000
,
0100
0000
0100
0000
1000
0100
1000
0000
0200
0000
0000
0000
0320
0000
0000
0000
,
2030
3002
0203
0320
,
2030
3002
0203
0320
,
2030
3002
0023
0230
,
0000
0000
0000
0000
,
0000
0000
0000
0000
,
0000
0000
0000
0000
,
0000
0000
0000
0000
,
0000
0000
0000
0000
,
0000
0000
0000
0000
,
0000
0000
0000
0000
,
0000
0000
0000
0000
,
0300
0000
0000
0000
,
1100
0000
0101
0000
0110
0000
0001
1000
,
0100
0010
1000
0001
0100
0010
0100
0000
,
0101
0000
1100
1000
0010
0000
0001
0100
,
0010
0000
1000
0100
1000
0000
0010
0000
,
0100
0001
1000
0000
0010
0000
1000
0100
,
0001
0000
1000
0010
0100
0010
1000
0000
,
0001
1000
0100
0010
0100
0000
0001
1000
,
1000
0000
0100
1000
0100
0000
0000
0000
1000
0000
0100
0000
0001
0000
0010
0000
,
0100
1000
0100
1000
0001
0100
0001
0100
,
0010
1000
0010
1000
0100
0010
0001
1000
,
0100
0010
0100
0010
0001
1000
0001
1000
,
0010
0100
0010
0100
0001
0010
0001
0010
,
0001
1000
0100
0010
0001
1000
0100
0010
,
0001
0100
0010
1000
0100
0001
0010
1000
,
0001
0100
0010
1000
0100
0010
1000
0001
,
0100
0010
0100
0001
2000
0000
3000
0000
,
0010
0010
0100
0001
,
1000
1000
0100
0010
,
0001
0001
0010
1000
,
0010
0010
0001
0100
,
0010
0010
1000
0100
,
0001
0001
1000
0100
,
1000
1000
0010
0001
,
0100
0100
1000
0001
,
1000
1000
0010
0001
,
0100
0100
1000
0001
,
1000
1000
0001
0100
,
0010
0010
1000
0100
,
1000
1000
0001
0100
,
0010
0010
0100
0001
,
0100
0100
1000
0100
,
0010
0000
0100
0000
,
0010
0000
0100
0000
1000
0000
0001
0100
,
1000
0010
0100
1000
,
0001
0000
0100
0000
0010
0000
1000
0001
,
0100
0001
1000
0010
,
0100
0000
0001
0000
1000
0000
0001
0010
,
0100
0010
1000
0001
,
1000
0000
0100
0000
0001
0000
1000
0100
,
0010
1000
0001
0010
,
1000
0000
0100
0000
0001
0000
0010
0100
,
1000
0001
1000
0100
,
1000
0000
0100
0000
0001
0000
0100
0010
,
1000
0001
1000
0100
,
0010
0000
0001
0000
0100
0000
0001
0010
,
1000
0100
2002
0000
,
0000
0000
3003
0000
,
0110
0000
0000
0100
1000
0100
0000
0000
,
1000
0000
0000
0010
0001
0010
0000
0000
,
1100
0000
0000
0001
0010
0001
0000
0000
,
0010
0000
0000
0100
1000
0100
0000
0000
,
0011
0000
0000
0100
0010
0100
0000
0000
,
0100
0000
0000
0010
0001
0010
0000
0000
,
1100
0000
0000
0010
0001
0010
0000
0000
,
0010
0000
0000
0001
0100
0001
0000
0000
,
1001
0000
0000
1000
0100
0010
0000
0000
,
0010
0000
0000
0001
0010
0100
0000
0000
,
0101
0000
0000
0010
0100
1000
0000
0000
,
1000
0000
0000
0010
0100
0001
0000
0000
,
0110
0000
0000
0010
1000
0100
0000
0000
,
0001
0000
0000
0100
0010
1000
0000
0000
,
0110
0000
0000
1000
0001
0100
0000
0000
,
0001
0000
0000
0100
1000
0001
0000
0000
,
1100
0000
0000
0001
0100
0010
0000
0000
,
0001
0000
0000
0010
0001
0100
0000
0000
,
1010
0000
0000
0100
1000
0010
0000
0000
,
1000
0000
0000
0001
0010
0100
0000
0000
,
0110
0000
0000
0001
1000
0100
0000
0000
,
0100
0000
0000
1000
0100
0001
0000
0000
,
0011
0000
0000
0001
1000
0100
0000
0000
,
1000
0000
0000
1000
0001
0100
0000
0000
,
0110
0000
0000
1000
0001
0010
0000
0000
,
0100
0000
0000
1000
0010
0001
0000
0000
,
0110
0000
0000
0001
0100
1000
0000
0000
,
0100
0000
0000
0001
1000
0100
0000
0000
,
0110
0000
0000
0010
1000
0100
0000
0000
,
0100
0000
0000
0010
0100
0010
0000
0000
,
2002
0000
0000
0000
0000
3003
0000
0000
;

//---------------dance-single - ----------------
#NOTEDATA:;
#CHARTNAME:;
#STEPSTYPE:dance-single;
#DESCRIPTION:;
#CHARTSTYLE:Pad;
#DIFFICULTY:Challenge;
#METER:17;
#RADARVALUES:0.786910,1.073209,0.389792,0.379534,0.076933,537.000000,499.000000,38.000000,37.000000,0.000000,0.000000,0.000000,0.000000,1.000000,0.786910,1.073209,0.389792,0.379534,0.076933,537.000000,499.000000,38.000000,37.000000,0.000000,0.000000,0.000000,0.000000,1.000000;
#CREDIT:Elik;
#NOTES:
// measure 0
0000
0000
0000
0000
,  // measure 1
0000
0000
0000
0000
,  // measure 2
0000
0000
0000
0000
,  // measure 3
0000
0000
0000
0000
,  // measure 4
0000
0000
0000
0000
,  // measure 5
0000
0000
0000
0000
,  // measure 6
0000
0000
0000
0000
,  // measure 7
0000
0000
0000
0000
,  // measure 8
0020
0000
0000
0000
0000
0000
0000
0000
0000
0001
0030
0000
0010
0000
0000
0100
0000
0000
1000
0000
0000
0000
0000
0000
,  // measure 9
0010
0001
1000
0010
0200
0000
0000
0000
2300
0000
0000
0000
3020
0000
0000
0000
,  // measure 10
1030
0002
0203
0000
2300
0000
3002
0000
,  // measure 11
0103
0020
2030
0000
3002
0000
0203
0000
,  // measure 12
2300
0000
0000
3100
0020
0000
2030
0000
,  // measure 13
3002
0000
0003
0000
0010
1000
0001
0000
0100
0000
0010
0000
0100
0000
0010
0000
,  // measure 14
0100
0000
0010
0000
0001
1000
0100
0000
2000
0000
0000
0000
3002
0000
0000
0000
,  // measure 15
0203
0320
2030
3002
,  // measure 16
0203
0320
2030
3002
,  // measure 17
0203
0320
0032
0203
,  // measure 18
0000
0000
0000
0000
,  // measure 19
0000
0000
0000
0000
,  // measure 20
0000
0000
0000
0000
,  // measure 21
0000
0000
0000
0000
,  // measure 22
0000
0000
0000
0000
,  // measure 23
0000
0000
0000
0000
,  // measure 24
0000
0000
0000
0000
,  // measure 25
0000
0000
0000
0000
,  // measure 26
0300
0000
0000
0000
,  // measure 27
0011
0000
1001
0000
0101
0000
1000
0010
,  // measure 28
0001
0100
0010
1000
0001
0100
0001
0000
,  // measure 29
1001
0000
0011
0010
0100
0000
1000
0001
,  // measure 30
0100
0000
0010
0001
0010
0000
0100
0000
,  // measure 31
0001
1000
0010
0000
0100
0000
0010
0001
,  // measure 32
1000
0000
0000
0000
0010
0000
0100
0010
0001
0000
0100
0000
0010
0000
0000
0000
,  // measure 33
1000
0010
0001
0100
0001
0000
1000
0010
,  // measure 34
0010
0000
0001
0010
0001
0000
0000
0000
0010
0000
0001
0000
1000
0000
0100
0000
,  // measure 35
0001
0010
0001
0010
1000
0001
1000
0001
,  // measure 36
0100
0000
0010
1000
0100
0001
0010
0100
0001
0000
0100
0000
1000
0000
0010
0000
,  // measure 37
0001
0100
0001
0100
1000
0010
1000
0010
,  // measure 38
0100
0000
0001
0000
0100
0001
0010
0000
1000
0000
0100
0000
1000
0000
0100
0000
,  // measure 39
1000
0010
0001
0100
1000
0010
0001
0100
,  // measure 40
1000
0010
0001
1000
0100
0000
0010
0000
0001
0000
1000
0000
0100
0000
0010
0000
,  // measure 41
1000
0001
0100
0010
0001
0100
0010
1000
,  // measure 42
0001
0010
0100
0010
0001
0000
1000
0000
0020
0000
0000
0000
0030
0000
0000
0000
,  // measure 43
0010
0100
0010
0000
1000
0000
0001
0000
,  // measure 44
0100
0001
0100
0000
1000
0000
0010
0000
,  // measure 45
0001
0100
0001
0000
0010
0000
0100
0000
,  // measure 46
0010
1000
0010
0000
0001
0000
1000
0000
,  // measure 47
0010
0001
0010
0000
0100
0000
1000
0000
,  // measure 48
0001
0010
0001
0000
0100
0000
1000
0000
,  // measure 49
0100
0001
0100
0000
0010
0000
0001
0000
,  // measure 50
1000
0010
1000
0000
0100
0000
0001
0000
,  // measure 51
0100
0001
0100
0000
0010
0000
0001
0000
,  // measure 52
1000
0010
1000
0000
0100
0000
0001
0000
,  // measure 53
0100
0001
0100
0000
0001
0000
1000
0000
,  // measure 54
0010
0100
0010
0000
0100
0000
1000
0000
,  // measure 55
0100
0010
0100
0000
0001
0000
1000
0000
,  // measure 56
0010
0100
0010
0000
1000
0000
0001
0000
,  // measure 57
1000
0010
1000
0000
0100
0000
1000
0000
,  // measure 58
0001
0000
1000
0000
,  // measure 59
0001
0000
1000
0000
0100
0000
0010
1000
,  // measure 60
0100
0000
0001
0000
1000
0000
0100
0001
,  // measure 61
0010
0000
1000
0000
0001
0000
0100
0010
,  // measure 62
1000
0000
0010
0000
0100
0000
0001
0100
,  // measure 63
1000
0000
0010
0000
0100
0000
0010
0001
,  // measure 64
1000
0000
0001
0000
0100
0000
0010
1000
,  // measure 65
0100
0000
1000
0000
0010
0000
0100
1000
,  // measure 66
0001
0000
0100
0000
0010
0000
0001
1000
,  // measure 67
0100
0000
1000
0000
0010
0000
0001
1000
,  // measure 68
0100
0000
0010
0000
0100
0000
1000
0001
,  // measure 69
0100
0000
1000
0000
0010
0000
1000
0001
,  // measure 70
0100
0000
0010
0000
0100
0000
1000
0100
,  // measure 71
0001
0000
0010
0000
1000
0000
0010
0001
,  // measure 72
0100
0000
0000
0000
0000
0000
1000
0000
0000
0000
0000
0000
0220
0000
0000
0000
0000
0000
0000
0000
0000
0330
0000
2002
,  // measure 73
0000
0000
0000
3003
,  // measure 74
0101
0000
1000
0001
0010
0001
0100
0000
,  // measure 75
1010
0000
0001
0100
1000
0100
0001
0000
,  // measure 76
0011
0000
0001
1000
0100
1000
0001
0000
,  // measure 77
0110
0000
1000
0001
0010
0001
0010
0000
,  // measure 78
1100
0000
0010
0001
0100
0001
0100
0000
,  // measure 79
1001
0000
0010
0100
1000
0100
1000
0000
,  // measure 80
0011
0000
0001
0100
1000
0100
0010
0000
,  // measure 81
0101
0000
0100
1000
0001
1000
0001
0000
,  // measure 82
1010
0000
0100
0010
0001
0100
0001
0000
,  // measure 83
1100
0000
0010
1000
0100
0001
0100
0000
,  // measure 84
1001
0000
0010
0100
0001
0010
1000
0000
,  // measure 85
0110
0000
1000
0100
0001
1000
0010
0000
,  // measure 86
0101
0000
1000
0100
0010
0001
0100
0000
,  // measure 87
1010
0000
1000
0001
0100
0010
1000
0000
,  // measure 88
0101
0000
1000
0010
1000
0001
0100
0000
,  // measure 89
1010
0000
0100
0001
0010
1000
0100
0000
,  // measure 90
0011
0000
0100
1000
0001
0100
0010
0000
,  // measure 91
1100
0000
0001
0100
1000
0001
1000
0000
,  // measure 92
0110
0000
1000
0001
0010
0100
0001
0000
,  // measure 93
0110
0000
0001
1000
0100
0001
1000
0000
,  // measure 94
0101
0000
0010
1000
0010
0001
0100
0000
,  // measure 95
1001
0000
0100
0010
0001
1000
0001
0000
,  // measure 96
1100
0000
0001
1000
0010
0001
0100
0000
,  // measure 97
0011
0000
0100
0010
1000
0001
0010
0000
,  // measure 98
0101
0000
1000
0010
1000
0100
0010
0000
,  // measure 99
0101
0000
1000
0010
0100
1000
0010
0000
,  // measure 100
0101
0000
0010
1000
0001
0010
0100
0000
,  // measure 101
0011
0000
0100
1000
0010
0001
1000
0000
,  // measure 102
0101
0000
1000
0100
0010
0001
0100
0000
,  // measure 103
0011
0000
1000
0100
0001
0100
0001
0000
,  // measure 104
2020
0000
0000
0000
0000
3030
0000
0000
;

//---------------dance-single - ----------------
#NOTEDATA:;
#CHARTNAME:;
#STEPSTYPE:dance-single;
#DESCRIPTION:;
#CHARTSTYLE:;
#DIFFICULTY:Medium;
#METER:11;
#RADARVALUES:0.502626,0.752144,0.000000,0.164123,0.000000,343.000000,343.000000,0.000000,16.000000,0.000000,0.000000,0.000000,0.000000,1.000000,0.502626,0.752144,0.000000,0.164123,0.000000,343.000000,343.000000,0.000000,16.000000,0.000000,0.000000,0.000000,0.000000,1.000000;
#CREDIT:;
#NOTES:
0000
0000
0000
0000
,
0000
0000
0000
0000
,
0000
0000
0000
0000
,
0000
0000
0000
0000
,
0000
0000
0000
0000
,
0000
0000
0000
0000
,
0000
0000
0000
0000
,
0000
0000
0000
0000
,
2000
0000
3000
0100
0010
0100
0010
0000
,
0001
0001
2000
0000
3200
0000
0310
0000
,
0001
0010
0001
0000
1000
0000
0100
0000
,
0010
0100
0010
0000
0001
0000
0010
0000
,
2000
0000
3000
0100
0100
0000
1000
0000
,
0001
0000
0100
0100
0010
0010
0001
0000
,
1000
1000
0100
0000
0001
0000
0010
0000
,
1000
0100
0001
0010
,
0002
2003
3200
0320
,
0032
2003
3002
0203
,
0320
0000
0000
0000
,
0000
0000
0000
0000
,
0000
0000
0000
0000
,
0000
0000
0000
0000
,
0000
0000
0000
0000
,
0000
0000
0000
0000
,
0000
0000
0000
0000
,
0000
0000
0000
0000
,
0030
0000
0000
0000
,
1000
0000
1000
0000
0001
0000
0100
0010
,
0100
0000
0010
0001
1000
0100
0010
0000
,
1000
0000
0100
0010
0100
0000
0001
0000
,
0010
1000
0100
0010
,
0001
0100
0010
0000
0100
0000
0010
0100
,
0001
1000
0010
0100
,
0001
0000
0100
1000
0010
0000
0100
0000
,
0010
0010
0001
0000
1000
0000
0100
0000
,
0010
1000
0100
0001
,
1000
0010
0100
0001
0010
0001
0100
0000
,
0010
0000
1000
0100
0010
0000
0001
0100
,
0010
0000
1000
0100
1000
0000
0100
0000
,
0001
0000
0001
0000
0100
0000
0010
0010
,
1000
1000
0100
0010
0001
1000
0100
0000
,
0001
0000
1000
0100
0010
0000
0001
0000
,
0010
0010
0100
1000
0200
0000
0300
0000
,
1000
0001
0100
0000
,
0001
1000
0100
0000
,
0010
0100
1000
0000
,
0001
0010
0100
0000
,
1000
0001
0010
0000
,
0100
1000
0001
0000
,
0010
1000
0001
0000
,
0010
0001
1000
0000
,
0100
0001
1000
0000
,
0100
1000
0001
0000
,
0001
1000
0100
0000
,
1000
0010
0100
0000
,
0100
0001
0010
0000
,
1000
0010
0100
0000
,
1000
0100
0010
0000
,
0010
0000
0100
0000
,
0010
0000
0010
1000
,
0100
0010
0001
1000
,
0100
0010
0001
0000
,
0001
0000
0001
0010
,
0100
1000
0001
0010
,
0100
1000
0100
0000
,
0100
0000
0001
0000
,
0001
0000
1000
0010
,
0100
0001
1000
0010
,
0100
0001
1000
0000
,
1000
0000
0001
0000
,
0001
0000
1000
0100
,
0010
0001
1000
0100
,
0010
0001
2000
0000
,
0000
0000
3000
0000
,
1000
0010
0100
0001
,
0100
0010
1000
0100
,
0010
0001
0100
0010
,
1000
0001
0010
0100
,
0010
0001
1000
0010
,
0100
0001
1000
0100
,
0010
0100
1000
0001
,
0100
0010
1000
0001
,
1000
0100
0010
0001
,
1000
0010
0100
0001
,
0010
0100
0010
0100
,
1000
0001
0100
0010
,
1000
0100
0010
0100
,
1000
0001
0100
0010
,
1000
0001
0010
0001
,
1000
0010
1000
0100
,
0010
0100
1000
0010
,
0100
0001
0010
0001
,
0010
1000
0010
0001
,
0010
1000
0010
0001
,
0100
0010
1000
0100
,
0010
0001
1000
0010
,
0100
0001
1000
0100
,
0010
0001
1000
0010
,
0100
0001
1000
0100
,
0001
0100
1000
0100
,
0001
0100
1000
0010
,
0100
0001
0010
0001
,
1000
0100
1000
0010
,
0100
0001
1000
0010
,
0200
0000
0000
0300
;

//---------------dance-single - ----------------
#NOTEDATA:;
#CHARTNAME:;
#STEPSTYPE:dance-single;
#DESCRIPTION:;
#CHARTSTYLE:Pad;
#DIFFICULTY:Easy;
#METER:7;
#RADARVALUES:0.307730,0.482367,0.000000,0.133350,0.000000,210.000000,210.000000,0.000000,13.000000,0.000000,0.000000,0.000000,0.000000,0.000000,0.307730,0.482367,0.000000,0.133350,0.000000,210.000000,210.000000,0.000000,13.000000,0.000000,0.000000,0.000000,0.000000,0.000000;
#CREDIT:Elik;
#NOTES:
0000
0000
0000
0000
,
0000
0000
0000
0000
,
0000
0000
0000
0000
,
0000
0000
0000
0000
,
0000
0000
0000
0000
,
0000
0000
0000
0000
,
0000
0000
0000
0000
,
0000
0000
0000
0000
,
2000
0000
0100
0000
,
3002
0000
0100
0000
,
1003
0100
1000
0100
,
0001
0100
0001
0100
,
0020
0000
1000
0000
,
0230
0000
0001
0000
,
0310
0001
1000
0100
,
0010
0001
2000
0000
,
3200
0000
0320
0000
,
0032
0000
0203
0000
,
0302
0000
0000
0000
,
0000
0000
0000
0000
,
0000
0000
0000
0000
,
0000
0000
0000
0000
,
0000
0000
0000
0000
,
0000
0000
0000
0000
,
0000
0000
0000
0000
,
0000
0000
0000
0000
,
0003
0000
0000
0000
,
1000
0000
0100
0000
,
0001
0000
0100
0000
,
1000
1000
0001
0000
,
0001
0001
1000
0000
,
0100
0000
0010
0000
,
1000
0000
0100
0000
,
0001
0100
0001
0000
,
1000
0100
1000
0000
,
0010
1000
0100
0000
,
0001
0100
0010
0000
,
1000
0100
0010
0000
,
0001
0010
0100
0000
,
1000
0010
0100
0000
,
0001
0010
0100
0000
,
1000
0100
0010
0001
,
1000
0100
0020
0030
,
1000
0000
0100
0000
,
0001
0000
0000
0000
,
0001
0000
0100
0000
,
0010
0000
0000
0000
,
1000
0000
0100
0000
,
1000
0000
0100
0000
,
0001
0000
0100
0000
,
0010
0000
0000
0000
,
1000
0000
1000
0000
,
0010
0000
0000
0000
,
0100
0000
0010
0000
,
0010
0000
0000
0000
,
0100
0000
0001
0000
,
0100
0000
0010
0000
,
0010
0000
1000
0000
,
0100
0000
0000
0000
,
0100
0000
0001
0000
,
0100
0000
1000
0000
,
0100
0000
0010
0000
,
0001
0000
1000
0000
,
0100
0000
1000
0000
,
0010
0000
0001
0000
,
0100
0000
0010
0000
,
1000
0000
0001
0000
,
0100
0000
0010
0000
,
1000
0000
0100
0000
,
0010
0000
1000
0000
,
0010
0000
0100
0000
,
0001
0000
0010
0000
,
0100
0000
2000
0000
,
0000
0000
3000
0000
,
0001
0000
0100
0010
,
0100
0000
1000
0000
,
0010
0000
0100
0010
,
0100
0000
0001
0000
,
0100
0000
1000
0100
,
1000
0000
0010
0000
,
0100
0000
0010
0100
,
0010
0000
0001
0000
,
0100
0000
0100
0001
,
0100
0000
0010
0000
,
1000
0000
0010
1000
,
0010
0000
0100
0000
,
0001
0000
1000
0010
,
1000
0000
0001
0000
,
0100
0000
0100
1000
,
0100
0000
0010
0000
,
0001
0000
1000
0010
,
0100
0000
1000
0001
,
0100
0000
0010
1000
,
0100
0000
0001
0100
,
0010
0000
1000
0100
,
0010
0000
0001
0100
,
0010
0000
0001
0010
,
0100
0000
1000
0001
,
0010
0000
0010
0100
,
1000
0000
0100
0001
,
0100
0000
1000
0001
,
0100
0000
0010
0100
,
0001
0000
0010
1000
,
0100
0000
0001
0100
,
2000
0000
3000
0000
;

//---------------dance-single - ----------------
#NOTEDATA:;
#CHARTNAME:;
#STEPSTYPE:dance-single;
#DESCRIPTION:;
#CHARTSTYLE:Pad;
#DIFFICULTY:Beginner;
#METER:5;
#RADARVALUES:0.142142,0.267982,0.000000,0.071804,0.000000,97.000000,97.000000,0.000000,7.000000,0.000000,0.000000,0.000000,0.000000,0.000000,0.142142,0.267982,0.000000,0.071804,0.000000,97.000000,97.000000,0.000000,7.000000,0.000000,0.000000,0.000000,0.000000,0.000000;
#CREDIT:Elik;
#NOTES:
0000
0000
0000
0000
,
0000
0000
0000
0000
,
0000
0000
0000
0000
,
0000
0000
0000
0000
,
0000
0000
0000
0000
,
0000
0000
0000
0000
,
0000
0000
0000
0000
,
0000
0000
0000
0000
,
2000
0000
0000
3000
,
0020
0000
0000
0030
,
0200
0000
0000
0300
,
0002
0000
0000
0003
,
1000
0000
0010
0000
,
0100
0000
0001
0000
,
1000
0000
0000
0000
,
0100
0000
0000
0000
,
1000
0000
0100
0000
,
1000
0000
0100
0000
,
2000
0000
0000
0000
,
0000
0000
0000
0000
,
0000
0000
0000
0000
,
0000
0000
0000
0000
,
0000
0000
0000
0000
,
0000
0000
0000
0000
,
0000
0000
0000
0000
,
0000
0000
0000
0000
,
3000
0000
0000
0000
,
0000
0010
0000
0010
,
0000
0001
0000
0000
,
0000
0100
0000
0100
,
0000
1000
0000
0000
,
0000
0010
0000
0010
,
0000
0001
0000
0000
,
0000
0100
0000
0100
,
0000
0001
0000
0000
,
0000
0100
0000
0100
,
0000
1000
0000
1000
,
0000
0000
0010
0000
,
0000
0100
0000
0100
,
0000
0010
0000
0010
,
0000
0000
0001
0000
,
0000
0010
0000
0010
,
0000
0200
0300
0000
,
0100
0000
0000
0000
,
0001
0000
0000
0000
,
0100
0000
0000
0000
,
1000
0000
0000
0000
,
0100
0000
0000
0000
,
0000
0000
0000
0000
,
0010
0000
0000
0000
,
0000
0000
0000
0000
,
0001
0000
0000
0000
,
0100
0000
0000
0000
,
0010
0000
0000
0000
,
1000
0000
0000
0000
,
0010
0000
0000
0000
,
0000
0000
0000
0000
,
1000
0000
0000
0000
,
0010
0000
0000
0000
,
0000
0000
0100
0000
,
0000
0000
0010
0000
,
0000
0000
1000
0000
,
0000
0000
0001
0000
,
0000
0000
0100
0000
,
0000
0000
0100
0000
,
0000
0000
0010
0000
,
0000
0000
0000
0000
,
1000
0000
0000
0000
,
1000
0000
0000
0000
,
0001
0000
0000
0000
,
0001
0000
0000
0000
,
0100
0000
0000
0000
,
0100
0000
0000
0000
,
0000
0000
0000
0000
,
0010
0000
0000
0000
,
0010
0000
0000
0000
,
1000
0000
0000
0000
,
1000
0000
0000
0000
,
0100
0000
0000
0000
,
0100
0000
0000
0000
,
0001
0000
0000
0000
,
0001
0000
0000
0000
,
0100
0000
0000
0000
,
0100
0000
0000
0000
,
1000
0000
0000
0000
,
1000
0000
0000
0000
,
0010
0000
0000
0000
,
0010
0000
0000
0000
,
0100
0000
0000
0000
,
0100
0000
0000
0000
,
0100
0000
0000
0000
,
0001
0000
0000
0000
,
0010
0000
0000
0000
,
0001
0000
0000
0000
,
1000
0000
0000
0000
,
0100
0000
0000
0000
,
0010
0000
0000
0000
,
1000
0000
0000
0000
,
0001
0000
0000
0000
,
0100
0000
0000
0000
,
0010
0000
0000
0000
,
1000
0000
0000
0000
,
0010
0000
0000
0000
,
0100
0000
0000
0000
,
0020
0000
0030
0000
;
