#TITLE:Over The "Period";
#SUBTITLE:;
#ARTIST:TAG underground overlay;
#TITLETRANSLIT:;
#SUBTITLETRANSLIT:;
#ARTISTTRANSLIT:;
#CREDIT:;
#BANNER:Over The Period.png;
#BACKGROUND:Over The Period-bg.png;
#LYRICSPATH:;
#CDTITLE:./CDTitles/DanceDanceRevolution 2014.png;
#MUSIC:Over The Period.ogg;
#OFFSET:0.000;
#SAMPLESTART:23.380;
#SAMPLELENGTH:15.000;
#SELECTABLE:YES;
#DISPLAYBPM:33.000:840.000;
#BPMS:0.000=32.500,7.000=30.000,8.000=27.273,9.000=25.000,10.000=23.276,10.938=200.000,75.000=160.000,107.000=80.000,107.500=160.000,108.000=320.000,110.000=160.000,110.500=80.000,111.500=160.000,112.000=320.000,114.000=160.000,114.500=80.000,115.500=160.000,116.000=320.000,118.000=160.000,118.500=80.000,119.500=160.000,120.000=320.000,122.000=160.000,122.500=80.000,123.500=160.000,124.000=320.000,126.000=160.000,126.500=80.000,127.500=160.000,128.000=320.000,130.000=160.000,130.500=80.000,131.500=160.000,132.000=320.000,134.000=160.000,134.500=80.000,135.500=160.000,136.000=320.000,138.000=160.000,138.500=80.000,139.000=160.000,171.000=105.000,173.000=210.000,175.000=420.000,179.000=210.000,241.000=420.000,321.000=52.500,322.000=105.000,324.000=210.000,328.000=420.000,336.000=840.000,352.000=420.000;
#STOPS:10.938=1.407
,239.000=0.095
,239.333=0.095
,239.667=0.095
,240.000=0.095
,240.333=0.095
,240.667=0.095
;
#BGCHANGES:;

//---------------dance-single - ----------------
#NOTES:
     dance-single:
     :
     Hard:
     18:
     1.000,1.000,1.000,0.422,0.491:
0000
0000
0000
0000
1100
0110
0101
1010
0210
0000
0001
0300
0101
1010
0110
0101
,
2100
0000
0000
0000
0001
0000
3000
0000
1001
0000
0101
0000
0110
0000
0011
0000
2100
0000
0000
0000
0001
0000
3100
0010
0202
0000
0000
0000
0000
0000
0000
0303
,
2020
0000
0000
0000
0000
0000
0030
0000
0000
0000
0000
0000
3100
0000
0000
0000
0202
0000
0000
0000
0000
0000
0000
0000
0000
0000
0000
0000
0303
0000
0000
0000
0220
0000
0000
0000
0000
0000
0000
0000
0000
0000
0000
0000
0000
0000
0000
0300
1030
0000
0000
0000
0100
0000
0000
0000
0010
0000
0000
0000
0001
0000
0000
0000
,
2000
0000
0000
3001
0000
0100
1000
0000
,
0100
0000
0001
0000
0000
0000
0101
0000
0000
0000
0010
0000
0001
0100
0010
1000
,
0002
0000
0000
1003
0000
0100
0001
0000
,
0010
1000
0000
1010
0000
0100
1000
0010
,
0001
0100
1000
0001
0010
1000
0010
0100
,
0001
0000
1000
0000
0100
0000
0001
0000
0100
0000
1000
0000
0100
0000
1000
0010
,
0001
0010
0100
1000
0100
0000
0001
0100
1000
0100
0010
0001
0010
0000
0000
0110
,
0000
0000
1001
0000
0110
0000
0000
0101
0000
0000
1010
0000
0110
0000
0001
0000
,
0010
1000
0100
0010
0001
0110
1001
0110
,
1000
0010
0100
0001
1000
0101
1010
0101
,
0100
0010
1000
0100
0001
1100
0001
1100
,
0010
0011
0100
0011
1000
0101
0110
1000
,
0001
0100
1000
0100
0001
0110
0101
0110
,
1000
0100
0001
0010
1000
1001
1100
1001
,
0100
0000
0000
0010
0000
0000
1000
0000
0000
0001
0000
0000
0010
0000
0000
0100
0000
0000
1100
0000
0000
0000
0011
0000
,
0000
0000
0000
0000
0110
0000
0000
0000
0000
0000
0000
0000
1001
0000
0000
0000
0000
0000
0000
0000
0101
0000
0000
0000
0000
0000
0000
0000
0110
0000
0000
0000
0000
0000
0000
0000
1000
0000
0000
0001
0000
0000
1000
0000
0000
0000
0000
0000
,
0010
0100
0010
0000
0001
0010
0001
0000
1000
0010
1000
0000
0001
0100
0001
0000
,
1000
0100
0001
0000
0001
0010
1000
0000
0100
0010
0100
0000
0001
0010
0001
0000
,
0100
0010
0100
0000
1000
0010
0100
0000
0001
0100
0010
0000
1100
0000
0000
0110
,
0000
0000
0101
0000
1020
0000
0000
0000
0100
0001
0000
0000
0031
1000
0001
0000
,
0100
0010
0100
0000
1000
0100
1000
0000
0001
0100
0001
0000
1000
0010
1000
0000
,
0001
0010
1000
0000
1000
0100
0001
0000
0010
0100
0010
0000
1000
0100
1000
0000
,
0010
0100
0010
0000
0001
0100
0010
0000
1000
0010
0100
0000
0011
0000
0000
0110
,
0000
0000
1010
0000
0100
0010
0100
0000
0001
0010
0001
0000
2002
0000
0000
0000
,
0000
0000
0000
0000
0000
0000
0000
0000
3003
0000
0220
0000
0000
0000
0000
0000
0000
0000
0000
0000
0000
0000
0330
0000
0101
0000
0000
1010
0000
0000
0000
0000
,
0202
0000
0000
0303
2002
0000
0000
0000
0000
0000
0000
3003
2200
0000
0000
0000
,
0000
0000
0000
0000
0000
0000
0000
0000
0000
3300
0000
0000
0220
0000
0000
0000
0000
0000
0000
0000
0000
0000
0000
0000
0000
0000
0000
0000
0000
0000
0000
0000
0000
0330
0000
0000
0011
0000
0000
0000
0000
1100
0000
0000
0000
0000
0000
0000
,
0022
0000
0000
0033
2002
0000
0000
0000
0000
0000
0000
3003
0202
0000
0000
0000
,
0000
0000
0000
0000
0000
0000
0000
0000
0000
0303
0000
0000
0220
0000
0000
0000
0000
0000
0000
0000
0000
0000
0000
0000
0000
0000
0000
0000
0000
0000
0000
0000
0000
0330
0000
0000
1100
0000
0000
0000
0000
0101
0000
0000
0000
0000
0000
0000
,
0022
0000
0000
0033
2002
0000
0000
0000
0000
0000
0000
3003
0202
0000
0000
0000
,
0000
0000
0000
0000
0000
0000
0000
0000
0000
0303
0000
0000
0220
0000
0000
0000
0000
0000
0000
0000
0000
0000
0000
0000
0000
0000
0000
0000
0000
0000
0000
0000
0000
0330
0000
0000
0101
0000
0000
0000
0000
1100
0000
0000
0000
0000
0000
0000
,
0022
0000
0000
0000
0000
0000
0000
0000
0000
0000
0000
0000
0000
0000
0000
0000
0000
0000
0000
0000
0000
0000
0000
0000
0000
0000
0000
0000
0000
0000
0000
0000
0000
0000
0000
0000
0033
0000
0000
0000
0000
0000
0000
0000
0000
0000
0000
0000
2002
0000
0000
0000
0000
0000
0000
0000
0000
0000
0000
0000
0000
0000
0000
0000
0000
0000
0000
0000
0000
0000
0000
0000
0000
0000
0000
0000
0000
0000
0000
0000
0000
0000
0000
0000
0000
0000
0000
0000
0000
0000
0000
0000
0000
0000
0000
0000
0003
0000
0000
0000
0000
0000
0000
0000
0000
0000
0000
0000
3000
0000
0000
0000
0000
0000
0000
0000
0001
0000
0000
0000
0000
0000
0000
0000
0000
0000
0000
0000
0000
0000
0000
0000
0010
0000
0000
0000
0000
0000
1000
0000
0000
0000
0000
0000
0001
0000
0000
0000
0000
0000
0000
0000
0000
0000
0000
0000
0000
0000
0000
0000
0000
0000
0000
0000
0000
0000
0000
0000
0000
0000
0000
0000
0000
0000
0000
0000
0000
0000
0000
0000
0110
0000
0000
0000
0000
0000
0000
0000
0000
0000
0000
0000
,
0000
0000
1200
0000
0001
0000
0000
0000
0310
0000
0000
0000
0001
0100
0000
0010
,
1000
0000
0000
0101
0000
0000
1010
0000
0110
0000
1001
0000
0001
0000
0000
0110
,
0000
0000
1200
0000
0001
0000
0000
0000
0310
0000
0000
0000
0001
0100
0000
0010
,
1000
0000
0000
0101
0000
0000
1010
0000
0110
0000
0101
0000
1000
0000
1000
0000
,
1000
1000
0001
0001
0001
0001
1001
1001
,
1001
0000
1001
0000
0101
0000
1100
0000
0011
0000
1100
0000
0001
0010
0001
0010
,
0001
0010
0001
0010
0100
1000
0100
1000
0100
1000
0100
1000
0001
0010
0100
1000
,
0010
0100
0001
1000
0100
0010
0001
0100
0010
1000
0001
0100
0020
0000
0000
0000
,
0000
0000
0200
0000
,
0000
0000
0000
0000
0000
0000
0000
0000
0000
0000
0300
0000
1030
0100
0010
0001
,
1000
0100
0010
0101
0000
0110
1100
0000
,
0011
0000
1100
0000
0000
0000
0110
0000
1000
0001
1000
0000
0001
0100
0010
1000
,
0001
0000
0100
0000
1000
0000
0110
0000
0000
0000
0011
0000
1000
0100
1000
0000
,
0001
0010
0001
0000
0100
0010
0100
0010
1000
0001
1000
0001
1000
0100
0001
0010
,
1000
0010
0100
1100
0000
0110
0101
0110
,
1100
0101
1001
1010
0110
1001
0001
0010
,
1000
0100
1000
0000
0100
0000
0010
0000
0001
0010
0001
0000
0110
0000
0000
0000
,
0000
0000
0011
0000
1100
0000
0101
1010
,
0100
0001
0100
1000
0010
0101
0110
1100
,
0100
0010
0001
1000
0100
0011
0110
1001
,
0100
0001
0010
1000
0100
0011
1100
0101
,
1010
0110
1001
1100
0011
0110
1010
0101
,
0010
1000
0010
0001
0100
1010
0110
0011
,
0010
0100
1000
0001
0010
1100
0110
1001
,
0010
0000
0000
0000
0000
0000
0000
0000
1000
0000
0000
0000
0000
0000
0000
0000
0100
0000
0000
0000
0000
0000
0000
0000
0001
0000
0000
0000
0000
0000
0000
0000
0010
0000
0000
0000
0000
0000
0000
0000
1100
0000
0000
0000
0000
0000
0000
0000
0110
0000
0000
0000
0000
0101
0000
0000
0000
0000
1100
0000
0000
0000
0000
0000
,
0110
0000
0000
0000
0000
0000
0000
0000
0000
0000
0000
0000
0000
0000
0000
0101
0000
0000
0000
0000
0000
0000
0000
0000
0000
0000
0000
0000
0000
0000
0000
0000
1010
0000
0000
0000
0000
0000
0000
0000
0000
0000
0000
0000
0000
0000
0000
0000
0100
0000
0000
0000
0000
0000
0000
0000
0000
0000
0000
0000
0000
0000
0000
0000
0000
0000
0000
0000
0000
0000
0000
0000
0000
0000
0000
0000
0000
0000
0000
0000
0000
0000
0000
0000
0000
0000
0000
0000
0000
0000
0000
0000
0000
0000
0000
0000
0010
0000
0000
0000
0000
0000
0000
0000
0000
0000
0000
0000
0000
0000
0000
0000
0000
0000
0000
0000
0000
0000
0000
0000
0000
0000
0000
0000
0000
0000
0000
0000
0000
0000
0000
0000
0000
0000
0000
0000
0000
0000
0000
0000
0000
0000
0000
0000
1000
0000
0000
0000
0000
0000
0000
0000
0000
0000
0000
0000
0000
0000
0000
0000
0000
0000
0000
0000
0000
0000
0000
0000
0000
0000
0000
0000
0000
0000
0000
0000
0000
0000
0000
0000
0000
0000
0000
0000
0000
0000
0000
0000
0000
0000
0000
0000
,
0001
0010
1000
0100
,
0010
0001
0100
0010
,
1000
0001
0100
1000
,
0010
0001
0010
0100
,
0001
1000
0100
0010
,
0100
0011
0010
0110
,
0100
1100
1000
1001
,
0001
1001
0100
0010
,
0001
0100
0010
1000
,
0001
0010
1000
0100
,
0010
0001
0100
0010
,
1000
0001
0010
1000
,
0100
0001
0010
1000
,
0100
0001
0010
1000
,
0100
0001
0010
0100
,
1000
0100
0100
0100
,
0100
0100
0100
0100
,
0100
0000
0010
0100
0010
0100
0010
0100
,
0010
0100
0010
0100
0010
0100
0010
0100
,
0010
0000
0000
0100
0000
0000
0020
0000
0000
2030
0000
0000
3001
0010
0100
1000
0100
0010
0001
0100
0010
1000
0100
0010
,
0001
0010
0100
1000
0100
0010
0001
0100
0010
1000
0010
0100
,
1000
0100
0010
0001
0100
0010
1000
0001
,
0010
0100
1000
0100
0010
0001
0100
0010
,
1000
0100
0010
0001
,
1000
0100
0010
0001
,
1000
0100
0010
0001
,
1000
0100
0010
0001
,
0110
0101
0000
0110
,
1001
0000
0101
1010
,
0000
0101
1001
0000
,
0101
0101
1010
1010
,
0000
0110
0011
0110
,
1001
0110
0000
0101
,
0000
0110
1001
0000
,
1001
0000
0000
0000
;

//---------------dance-single - ----------------
#NOTES:
     dance-single:
     :
     Challenge:
     19:
     1.000,1.000,1.000,0.041,1.000: // measure 1
0000
0000
0000
0000
0000
0000
0000
0000
0000
0000
0000
0000
1000
0100
0010
0001
0010
0100
1000
0010
0100
0001
0100
0010
1000
0100
0010
0001
0010
0100
1000
0100
0010
0001
0100
0010
0001
0010
0100
1000
0100
0010
0001
0100
0010
1000
0010
0100
,  // measure 2
0001
0010
0100
1000
0100
0010
0001
0010
0100
1000
0010
0100
0010
0100
0001
0010
0100
1000
0010
0100
0001
0010
0100
1000
0100
0010
1000
0100
0010
0001
0100
0010
1000
0100
0010
0001
0100
0010
0001
0010
1000
0100
0001
0010
0100
1000
0100
0010
,  // measure 3
0001
0100
1000
0010
0001
0100
0010
0100
0001
0010
0100
1000
0001
0010
0100
1000
0010
0100
1000
0100
0010
0001
0100
0010
1000
0010
0100
0001
0010
1000
0100
0010
0001
0100
0010
2000
3001
0000
0000
0010
0000
0000
1000
0000
0000
0100
0000
0000
,  // measure 4
0001
0000
0000
0110
0000
0011
0110
0000
,  // measure 5
1001
0000
0101
0000
0000
0000
0011
0000
0000
0000
0110
0000
1000
0010
0001
0100
,  // measure 6
1000
0000
0000
0110
0000
0101
0110
0000
,  // measure 7
1100
0110
0000
0101
0000
0011
1100
0010
,  // measure 8
0101
0010
1100
1010
0101
0110
1100
0010
,  // measure 9
0101
0000
0011
0000
0101
0000
1010
0000
0110
0000
1001
0000
0100
0010
0000
0001
,  // measure 10
0010
0000
1000
0100
0010
0001
0000
0010
0100
0000
0001
0010
1100
0000
0000
0110
,  // measure 11
0000
0000
0101
0000
0011
0000
0000
0110
0000
0000
1001
0000
1100
0000
0110
0000
,  // measure 12
0101
1100
0110
0101
1100
0110
0101
1100
,  // measure 13
0110
0101
0110
1001
0110
1001
0011
0110
,  // measure 14
1010
0011
0110
1010
0011
0110
1010
1001
,  // measure 15
0011
1100
0101
1010
0101
1010
0110
1001
,  // measure 16
0101
0110
1001
0101
0110
1001
0101
0110
,  // measure 17
1001
0101
0011
0110
1100
0110
0110
1001
,  // measure 18
1010
0000
0000
0110
0000
0000
1001
0000
0000
1010
0000
0000
0110
0000
0000
0201
0000
0000
0010
0000
0000
0000
0001
0000
,  // measure 19
0000
0000
0000
0000
0010
0000
0000
0000
0000
0000
0000
0000
1000
0000
0000
0000
0000
0000
0000
0000
0010
0000
0000
0000
0000
0000
0000
0000
0001
0000
0000
0000
0000
0000
0000
0000
1300
0000
0000
0100
0000
0000
0010
0000
0000
0001
0000
0000
,  // measure 20
0100
0010
1000
0100
0010
0001
0100
0010
0001
0010
0100
1000
0010
0100
0001
0010
,  // measure 21
0100
1000
0010
0100
0001
0100
0010
1000
0100
0001
0010
1000
0100
0010
0001
0100
,  // measure 22
0010
0100
0001
0010
0100
1000
0100
0010
0001
0010
0100
1000
0110
0100
0000
1100
,  // measure 23
0100
0000
0110
0100
0101
0001
0100
0000
1010
1000
0010
0000
0001
0010
0100
1000
,  // measure 24
0010
0100
0001
0010
0100
1000
0010
0100
1000
0100
0010
0001
0100
0010
1000
0100
,  // measure 25
0010
0001
0100
0010
1000
0010
0100
0001
0010
1000
0100
0001
0010
0100
1000
0010
,  // measure 26
0100
0010
1000
0100
0010
0001
0010
0100
1000
0100
0010
0001
0110
0010
0000
0011
,  // measure 27
0010
0000
0000
0000
0110
0000
0010
0000
0001
0000
1000
0000
0010
0000
0100
0000
0010
0000
0001
0000
0100
0000
0010
0000
1000
0100
0000
0001
0010
0000
0000
0000
,  // measure 28
0100
0000
0000
0000
0010
0000
0000
0000
0110
0000
0000
0000
0000
0000
0000
0000
0101
0000
0000
0000
0110
0000
0000
0000
1000
0100
0000
0001
0010
0000
0000
0000
,  // measure 29
1100
0000
0000
0000
0000
0000
0000
0000
0110
0000
0000
0000
0000
0000
0000
0000
0101
0000
0000
0000
1100
0000
0011
0000
1100
0000
0000
0011
0000
0000
0000
0000
,  // measure 30
0110
0000
0000
0000
0000
0000
0000
0000
0101
0000
0000
0000
0000
0000
0000
0000
0010
0000
0000
0000
0100
0000
0000
0000
1000
0100
0000
0001
0010
0000
0000
0000
,  // measure 31
1000
0000
0000
0000
0100
0000
0000
0000
1100
0000
0000
0000
0000
0000
0000
0000
0101
0000
0000
0000
0110
0000
1001
0000
0110
0000
0000
1100
0000
0000
0000
0000
,  // measure 32
0011
0000
0000
0000
0000
0000
0000
0000
0110
0000
0000
0000
0000
0000
0000
0000
1100
0000
0000
0000
0100
0000
0000
0000
0010
1000
0000
0001
0100
0000
0000
0000
,  // measure 33
1100
0000
0000
0000
0000
0000
0000
0000
0011
0000
0000
0000
0000
0000
0000
0000
0110
0000
0000
0000
1001
0000
0110
0000
0011
0000
0000
1100
0000
0000
0000
0000
,  // measure 34
0011
0000
0000
0000
0000
0000
0000
0000
0110
0000
0000
0000
0000
0000
0000
0000
0000
0000
1000
0000
0100
0000
0001
0000
0110
0000
0000
1100
0000
0000
0000
0000
,  // measure 35
0011
0000
0000
0000
0000
0000
0000
0000
0110
0000
0000
0000
0000
0000
0000
0000
0000
0000
0011
0000
0000
0000
1000
0010
0101
0000
0000
0000
0000
0000
1010
0000
,  // measure 36
0000
0000
0110
0000
0001
0000
0010
0000
0100
0000
1000
0000
0100
0010
0000
0010
,  // measure 37
0100
0000
0000
0011
0000
0000
1100
0000
0011
0000
0110
0000
1010
0000
0000
0101
,  // measure 38
0000
0000
0110
0000
1000
0000
0100
0000
0010
0000
0001
0000
0010
0100
0000
0100
,  // measure 39
0010
0000
0000
1100
0000
0000
0011
0000
1100
0000
0101
0000
0011
0000
0101
0000
,  // measure 40
1010
1100
0110
1001
0101
0110
1001
0101
,  // measure 41
0011
0000
0110
0000
1010
0000
0110
0000
1001
0000
0101
0000
0001
0010
1000
0100
,  // measure 42
0001
0001
0010
0100
1000
0010
0001
0010
1000
1000
0100
0010
0001
0100
1000
0010
,  // measure 43
0001
0010
0100
0010
0001
0001
0010
0010
1000
1000
0100
0100
0002
0000
0000
0000
,  // measure 44
0000
0000
0000
0000
0000
0000
0000
0000
1003
0100
0010
0001
1000
0000
0010
0000
,  // measure 45
0100
0000
0001
0000
0010
0000
0100
0000
0010
0000
1000
0000
0001
0010
1000
0100
,  // measure 46
0001
0000
0010
0000
0100
0000
1100
0000
0010
0000
0101
0000
1000
0100
0010
0001
,  // measure 47
0100
0000
0001
0010
0100
1000
0010
0000
0001
0010
1000
0000
1000
0100
0001
0010
,  // measure 48
1000
0000
0100
0000
0010
0000
0011
0000
0000
0000
1010
0000
0001
0010
0100
1000
,  // measure 49
0010
0100
0001
1000
0001
0010
1000
0100
0001
0001
0010
0010
0001
0010
0100
0010
,  // measure 50
0001
0010
0100
1010
0100
0011
1100
1100
,  // measure 51
0001
0010
0011
0000
0011
0000
0010
0100
0110
0000
1001
0000
1100
0000
0110
0000
,  // measure 52
0001
0010
0100
1000
0101
0000
0110
0000
1000
0100
0010
0001
0100
0010
1000
0001
,  // measure 53
0010
0100
0001
1000
0100
0001
0010
1000
0200
0000
0000
0000
0310
0000
0110
0000
,  // measure 54
0110
0101
0101
0101
1010
1010
1010
1100
,  // measure 55
1100
1100
0011
0011
0011
0110
1001
1001
,  // measure 56
1001
0101
0101
0101
1010
0110
1001
0101
,  // measure 57
0011
1100
0110
1001
0110
0011
0110
0110
,  // measure 58
0110
1010
1010
1010
0101
0101
0101
0011
,  // measure 59
0011
0011
1100
1100
1100
0110
1001
1001
,  // measure 60
1001
0000
0000
0000
0000
0000
0000
0000
1010
0000
0000
0000
0000
0000
0000
0000
1010
0000
0000
0000
0000
0000
0000
0000
1010
0000
0000
0000
0000
0000
0000
0000
0101
0000
0000
0000
0000
0000
0000
0000
0110
0000
0000
0000
0000
0000
0000
0000
1100
0000
0000
0000
0000
0110
0000
0000
0000
0000
1010
0000
0000
0000
0000
0000
,  // measure 61
0101
0000
0000
0000
0000
0110
0000
0000
0000
0000
0101
0000
0000
0000
0000
0000
1000
0000
0000
0000
0000
0000
0000
0000
0000
0000
0000
0000
0000
0000
0000
0000
0100
0000
0000
0000
0000
0000
0000
0000
0000
0000
0000
0000
0000
0000
0000
0000
0001
0000
0000
0000
0000
0000
0000
0000
0000
0000
0000
0000
0000
0000
0000
0000
,  // measure 62
0010
1000
0100
0010
,  // measure 63
0001
0100
1000
0010
,  // measure 64
0001
0100
0010
1000
,  // measure 65
0001
0010
0100
0001
,  // measure 66
0010
0100
0010
0001
,  // measure 67
1000
0110
0110
0101
,  // measure 68
0101
0011
0011
1001
,  // measure 69
1001
0100
0010
1001
,  // measure 70
0110
0001
1000
1001
,  // measure 71
0110
0001
0010
1000
,  // measure 72
0100
0001
0100
0010
,  // measure 73
1000
0100
0010
0100
,  // measure 74
1000
0100
0001
0010
,  // measure 75
1000
0100
0010
0001
,  // measure 76
0010
1000
0100
0001
,  // measure 77
0010
1100
0110
1001
,  // measure 78
0101
0011
0110
1001
,  // measure 79
0110
0000
0001
0010
0100
1000
0100
0010
,  // measure 80
0001
0100
0010
1000
0001
0100
0010
1000
,  // measure 81
0100
0000
0000
0010
0000
0000
0002
0000
0000
0103
0000
0000
0001
0010
1000
0100
0010
0001
0100
1000
0010
0100
0001
0010
,  // measure 82
1000
0100
0010
0001
0100
0010
1000
0001
0010
1000
0100
0001
,  // measure 83
0010
0100
0001
1000
0100
0010
0001
0001
,  // measure 84
0010
1000
1000
0100
0010
1000
0001
0010
,  // measure 85
0100
1000
0010
0100
,  // measure 86
0001
0010
0100
1000
,  // measure 87
0010
0001
0100
0010
,  // measure 88
1000
0100
0001
0010
,  // measure 89
1100
0011
0000
0110
,  // measure 90
1001
0000
0011
1100
,  // measure 91
0000
0101
1010
0000
,  // measure 92
0110
0000
1001
0000
0100
0010
1000
0001
,  // measure 93
1000
0000
0001
0010
0001
0010
1000
0100
,  // measure 94
0001
0100
1000
0000
0000
0000
0110
0000
,  // measure 95
1000
0100
0001
0010
1000
0100
0010
0100
,  // measure 96
1001
0000
0000
0000
;
