#TITLE:Freedom Dive;
#SUBTITLE:;
#ARTIST:xi;
#TITLETRANSLIT:;
#SUBTITLETRANSLIT:;
#ARTISTTRANSLIT:;
#GENRE:;
#CREDIT:;
#BANNER:Freedom Dive-banner.png;
#BACKGROUND:Freedom Dive-bg.png;
#LYRICSPATH:;
#CDTITLE:;
#MUSIC:Freedom Dive.mp3;
#OFFSET:0.000000;
#SAMPLESTART:100.000000;
#SAMPLELENGTH:12.000000;
#SELECTABLE:YES;
#BPMS:0.000000=190.000000
,202.250000=249.999985
,274.000000=165.000000
,285.666656=175.000000
,295.333344=190.000000
,326.000000=249.999985
,469.000000=190.000000
;
#STOPS:
;
#BGCHANGES:;
#KEYSOUNDS:;
#ATTACKS:;

//---------------dance-single - ----------------
#NOTES:
     dance-single:
     :
     Challenge:
     17:
     0.993699,1.000000,0.683962,0.341981,0.471934,867.000000,100.000000,50.000000,0.000000,1.000000,0.000000,0.993699,1.000000,0.683962,0.341981,0.471934,867.000000,100.000000,50.000000,0.000000,1.000000,0.000000:
// measure 0
0000
2000
0000
0000
,  // measure 1
3000
1000
1000
0001
0001
1000
1000
0001
,  // measure 2
0001
1000
1000
0001
0001
1000
1000
0001
,  // measure 3
0001
1000
1000
0001
0001
1000
1000
0001
,  // measure 4
0001
0000
1000
0000
1000
0000
1000
0000
1000
0000
0000
0000
0001
0000
0000
0001
0000
0000
1000
0000
0000
1000
0000
0000
,  // measure 5
0001
0001
1000
1000
0001
0001
1000
1000
,  // measure 6
0100
0100
0100
0000
0001
0001
1000
1000
0001
0001
1000
1000
,  // measure 7
0000
0001
0001
0001
0001
0001
0000
0000
0000
0000
1000
0000
0100
0000
1100
0000
,  // measure 8
0001
0010
0011
1000
0100
1100
0001
0010
,  // measure 9
0011
0100
0010
0110
1000
0001
1001
0010
,  // measure 10
1000
0000
0000
1010
0000
0000
0100
0000
0000
0001
0000
0000
0101
0000
0000
0000
1100
0000
1100
0000
1100
0000
0011
0000
,  // measure 11
0011
0000
1000
1100
0010
0011
1000
1100
,  // measure 12
0001
0011
0000
1000
1010
0001
0101
0000
,  // measure 13
1000
1000
0001
0001
1000
1000
0000
0011
,  // measure 14
0011
0000
0000
1100
0000
0000
1000
0000
0100
0000
0010
0000
0001
0000
0000
0000
0000
0000
2100
0000
0000
0000
0000
0000
,  // measure 15
0100
0000
0200
3000
0010
0000
0010
0020
,  // measure 16
0301
0000
0001
0000
0002
0030
0000
0000
,  // measure 17
2000
0003
0100
0000
0100
0000
0200
0000
,  // measure 18
0000
3000
0010
0020
,  // measure 19
0300
0001
0002
0030
,  // measure 20
0003
0000
0000
0000
0000
0000
1000
0000
0000
1000
0000
0000
0001
0000
0000
0001
0000
0000
1000
0000
1000
0000
1000
0000
,  // measure 21
1000
0000
1000
0000
0000
0000
0000
0000
0000
0000
0000
0000
2000
0000
0000
0000
0000
0000
0000
0000
0000
0200
0000
0000
,  // measure 22
0000
3000
0000
0020
0000
0000
0300
0000
,  // measure 23
0002
0000
0000
0030
0000
0000
0023
0000
,  // measure 24
0000
0000
0000
0000
0000
0030
0000
1000
1000
0100
0200
0000
,  // measure 25
0000
0000
0000
0020
0000
0000
0000
0000
0000
0000
0300
0002
,  // measure 26
0000
0000
0000
0000
0030
0000
0000
0000
0003
2000
3200
0320
,  // measure 27
0230
2300
3000
0200
0000
0000
0000
0300
0000
0000
0000
0000
,  // measure 28
1000
0000
0000
1000
0000
0000
0001
0000
0000
0001
0000
0000
1000
0000
0100
0000
0010
0000
0001
0000
0000
1000
0000
0000
,  // measure 29
1000
0000
0001
0001
0001
0001
0000
2000
0000
0000
0000
3000
,  // measure 30
0100
0000
0100
0000
0100
0000
0100
0000
0010
0000
0001
0000
1000
0000
0000
0100
0000
0000
0010
0000
0000
0100
0000
0000
,  // measure 31
1000
0100
0010
0001
0100
1000
0020
0000
,  // measure 32
0000
0030
0200
0000
0000
0000
0300
1000
,  // measure 33
0100
0000
0000
0010
0000
0000
0001
0000
0000
0000
0000
0000
1000
0000
0100
0000
0010
0000
0001
0000
0010
0000
0100
0000
,  // measure 34
1000
0000
0100
0000
0010
0000
0001
0000
0000
1100
0000
0000
0110
0000
0000
0011
0000
0000
1001
0000
0000
0000
0000
0000
,  // measure 35
0000
1000
1000
0001
0001
1000
1000
0001
,  // measure 36
0001
0000
0000
0100
0000
0000
0100
0000
0000
0000
0000
0000
0001
0000
0001
0000
0001
0000
0001
0000
0001
0000
0000
0000
,  // measure 37
0000
1000
0100
0010
0001
1100
0011
0100
,  // measure 38
0011
1000
0100
0010
0001
0010
1100
0011
,  // measure 39
1100
0001
0010
0100
1000
0100
0011
1100
,  // measure 40
0001
0010
0100
1000
0100
0010
0001
0010
,  // measure 41
0100
1000
0100
0010
0100
1000
0100
0010
,  // measure 42
0001
0110
1100
0011
0110
0000
0000
0110
,  // measure 43
0110
0110
0110
1001
0000
0000
1000
0100
,  // measure 44
0010
0001
0010
0100
1000
0100
0010
0001
,  // measure 45
1000
1000
1000
1000
0100
0010
0001
0010
,  // measure 46
0100
1000
0100
0010
0010
0010
0010
0000
,  // measure 47
1000
0100
0010
0001
0010
0001
0100
1000
,  // measure 48
0100
0011
1100
0011
0000
2200
3300
0010
,  // measure 49
0001
0000
0000
0010
0000
0000
0100
0000
0000
0010
0000
0000
0001
0000
0000
0000
1000
0000
0100
0000
1000
0000
0100
0000
,  // measure 50
1000
0000
0100
0000
1000
0000
0000
0000
0000
1001
0000
0000
0000
0000
0000
1000
0000
0000
0100
0000
0000
1000
0000
0000
,  // measure 51
0100
1000
0100
0010
0100
0010
0100
0010
,  // measure 52
0001
0010
0001
0010
0001
0010
0100
0010
,  // measure 53
0001
0010
0100
1000
0100
0010
0100
1000
,  // measure 54
0100
1000
0100
1000
0100
0001
0001
0001
,  // measure 55
0001
0000
1000
0100
0010
0001
0010
0100
,  // measure 56
0010
0001
0010
0100
1000
0100
0010
0001
,  // measure 57
0001
0001
0001
1000
0100
0010
0001
0020
,  // measure 58
0230
0300
1000
0100
0010
0001
0100
0010
,  // measure 59
0000
0000
1000
0000
0001
0000
1000
0000
0001
0000
1000
0000
0000
0000
0000
0100
0000
0000
0010
0000
0000
0001
0000
0000
,  // measure 60
0010
0000
0000
0100
0000
0000
0010
0000
0000
0001
0000
0000
0010
0000
1000
0000
0100
0000
1000
0000
0100
0000
1000
0000
,  // measure 61
0000
1100
0000
0001
0010
0001
0010
0001
,  // measure 62
0010
1000
1000
1000
1000
0200
0320
0032
,  // measure 63
0023
0000
0030
1000
0100
1000
0100
0010
,  // measure 64
0100
0010
0001
0010
0001
0010
0100
1000
,  // measure 65
0100
0010
0001
0010
0100
1000
0100
0010
,  // measure 66
0100
1000
0100
0010
0001
0010
0001
0010
,  // measure 67
0001
0010
0100
0010
0100
0010
1100
0000
,  // measure 68
0011
1100
0011
2000
,  // measure 69
0000
0000
3100
0002
0000
0000
0000
0013
,  // measure 70
2000
0000
0000
0000
0000
3100
0002
0000
,  // measure 71
0000
0000
0000
0000
0000
0000
0000
0000
0000
0013
0000
0000
0000
0000
1000
0000
0100
0000
0010
0000
0001
0000
0010
0000
,  // measure 72
0100
1000
0100
0010
0001
0010
0100
1000
0100
0010
0001
0010
,  // measure 73
0100
0000
1000
0000
0100
0000
0010
0000
0001
0000
0010
0000
0100
0000
1000
0000
0100
0000
0010
0000
0001
1100
0000
0000
,  // measure 74
1100
1100
0011
0011
0011
0000
1100
1100
,  // measure 75
1100
0000
0000
0011
0000
0000
0011
0000
0000
0011
0000
0000
0000
0000
0000
0000
1100
0000
1100
0000
1100
0000
0000
0000
,  // measure 76
0011
0011
0011
0000
1100
1100
1100
0000
0000
1000
0100
1000
,  // measure 77
0001
0010
0001
1000
0100
1000
0001
0010
0001
1000
0100
1000
,  // measure 78
0001
0010
0001
1000
0100
1000
0001
0010
0001
0000
1000
0100
,  // measure 79
1000
0000
0000
0000
0001
0000
0000
0000
0010
0000
0000
0000
0001
0000
0000
0000
0000
0000
0000
0000
0000
0000
0000
0000
1000
0000
0000
0100
0000
0000
1000
0000
0000
0000
0000
0000
0001
0000
0000
0010
0000
0000
0001
0000
0000
0000
0000
0000
,  // measure 80
1000
0100
1000
0000
0001
0010
0001
0000
1000
0100
1000
0000
2002
0000
0000
0000
,  // measure 81
0000
0000
0000
0000
0000
0000
0000
3003
0000
0000
1000
0000
0100
0000
1000
0000
,  // measure 82
0100
1000
0100
0010
1000
0010
1000
0010
,  // measure 83
1000
0100
0001
0100
0001
0100
0001
1000
,  // measure 84
1000
1000
1000
0100
0010
0100
0010
0001
,  // measure 85
0010
0001
0010
0100
1000
0100
0010
0100
,  // measure 86
1000
0200
0300
0010
0001
0010
0100
0010
,  // measure 87
0001
1000
1000
1000
1000
0002
0023
0230
,  // measure 88
2300
3000
0011
1000
0100
0010
0001
0010
,  // measure 89
1100
1100
1100
1100
0010
0001
0010
0001
,  // measure 90
1000
1000
1000
1000
0100
0010
0001
0010
,  // measure 91
0100
0000
0000
1000
0000
0000
0100
0000
0000
0010
0000
0000
0001
0000
0010
0000
0100
0000
0010
0000
0100
0000
0010
0000
,  // measure 92
0000
1000
0100
1000
0100
0010
0001
0010
,  // measure 93
0100
0010
0001
0010
0001
0001
0001
0001
,  // measure 94
0001
1000
0100
1000
0100
0010
0100
0010
,  // measure 95
0100
0010
0001
0100
0001
0100
0001
0100
,  // measure 96
1000
0100
0010
0001
0010
1000
0100
1000
,  // measure 97
0100
0010
0001
0001
0001
0001
0000
1000
,  // measure 98
0100
1000
0100
1000
0100
0010
0100
0010
,  // measure 99
0100
0010
0001
0010
0001
0010
0001
0010
,  // measure 100
0001
0010
0100
0100
0100
0100
1000
0100
,  // measure 101
1000
0100
1000
0100
0010
0001
0010
0001
,  // measure 102
0010
0001
1000
0100
0010
0001
0010
0100
,  // measure 103
0010
0001
0000
1000
1000
1000
1000
0100
,  // measure 104
0010
0100
0010
0100
0010
0001
0010
0001
,  // measure 105
0010
0001
0000
1100
1100
1100
1100
0001
,  // measure 106
0010
0100
1000
0200
0300
0010
0001
0010
,  // measure 107
0100
0000
0000
1000
0000
0000
1000
0000
0100
0000
1000
0000
0100
0000
1000
0100
0000
0000
0010
0000
0000
0001
0000
0000
,  // measure 108
0010
0100
1000
0100
1000
0100
1000
0100
,  // measure 109
0010
0000
0000
0001
0000
0000
0010
0000
0000
0001
0000
0000
0010
0000
0000
0000
1000
0000
0100
0000
1000
0000
0100
0000
,  // measure 110
1000
0000
0100
0000
0000
0000
0010
0000
0000
0001
0000
0000
0010
0000
0000
0100
0000
0000
1000
0000
0000
0100
0000
0000
,  // measure 111
1000
0100
1000
0001
0010
0001
0010
0001
,  // measure 112
0010
0000
0100
0000
0010
0000
0100
0000
0010
0000
0100
0000
0010
0000
0000
1000
0000
0000
0100
0000
0000
1000
0000
0000
,  // measure 113
0000
0100
0010
0100
0010
0100
0010
1000
0100
1000
0100
1000
,  // measure 114
0100
0000
0001
0010
0001
0010
0100
0010
,  // measure 115
0100
1000
0100
0010
0001
0010
1000
0100
,  // measure 116
0010
0001
0010
0100
1000
0100
0010
0001
,  // measure 117
2002
3003
0110
0000
1001
0000
0110
0000
,  // measure 118
1001
0110
1001
0110
,  // measure 119
1001
0110
1001
0110
,  // measure 120
1001
0000
0000
0110
0000
0000
1000
0001
1000
0001
1000
0001
,  // measure 121
2002
0000
0000
0000
,  // measure 122
0000
0000
0000
0000
0000
0000
0000
0000
0000
0000
0000
3003
;
