#TITLE:The Way U Move (DvF SM Edit);
#SUBTITLE:;
#ARTIST:Killer Instinct;
#TITLETRANSLIT:;
#SUBTITLETRANSLIT:;
#ARTISTTRANSLIT:;
#GENRE:Techno;
#CREDIT:DvF;
#BANNER:dvf_wayumove - banner.png;
#BACKGROUND:dvf_wayumove - BG.png;
#LYRICSPATH:;
#CDTITLE:;
#MUSIC:dvf_wayumove.mp3;
#OFFSET:0.040000;
#SAMPLESTART:113.480095;
#SAMPLELENGTH:12.000000;
#SELECTABLE:YES;
#BPMS:0.000000=124.999992
;
#STOPS:
;
#BGCHANGES:0.000=dvf_wayumove.avi=1.000=0=0=0=StretchNoLoop====,
99999=-nosongbg-=1.000=0=0=0 // don't automatically add -songbackground-
;
#KEYSOUNDS:;
#ATTACKS:;

//---------------dance-single - ----------------
#NOTES:
     dance-single:
     :
     Beginner:
     3:
     0.274925,0.333254,0.230343,0.200621,0.000000,201.000000,31.000000,27.000000,0.000000,2.000000,0.000000,0.274925,0.333254,0.230343,0.200621,0.000000,201.000000,31.000000,27.000000,0.000000,2.000000,0.000000:
0000
0000
0000
0000
,
0000
0000
0000
0000
,
0000
0000
0000
0000
,
0000
0000
0000
0000
,
0000
0000
0000
0000
,
0000
0000
0000
0000
,
0000
1001
0110
0110
,
0110
0020
0000
0000
,
2030
0000
0000
0000
,
3002
0000
0000
0000
,
2003
0000
0000
3000
,
0200
0000
0000
0000
,
0320
0000
0000
0000
,
2030
0000
0000
0000
,
3002
0000
0003
1001
,
0010
0100
0010
0100
,
0000
0010
0100
0010
,
0000
0010
0100
0010
,
0000
1000
0100
1000
,
0000
0001
0010
0001
,
0000
0100
1000
0100
,
0000
0001
0010
0001
,
0000
1000
0100
1000
,
0001
0010
0001
1000
,
0000
0010
0100
0100
,
0010
0010
0001
1000
,
0100
0010
0001
1000
,
0010
0010
0100
0100
,
0001
0001
1000
1000
,
0100
0100
0010
0010
,
1001
0010
0110
0110
,
0002
1000
1000
2003
,
0000
0001
0001
3000
,
0020
1000
1000
0230
,
0000
0001
0001
0300
,
1001
0020
0000
0230
,
0000
0300
2000
0000
,
0000
3000
0002
0000
,
0113
0100
0010
0100
,
1001
0110
0010
0000
,
0100
1000
0100
0001
,
0010
0001
0010
0100
,
1000
0100
1000
0110
,
0001
0001
0001
0001
,
1000
1000
1000
1000
,
0001
0001
0001
0001
,
1000
0001
1000
0001
,
1001
1000
0001
1000
,
1001
0001
1000
0001
,
1001
1000
0001
1000
,
1001
0000
0100
0110
,
0010
0010
0100
0100
,
0110
0110
0001
0001
,
1000
1000
0110
0110
,
0001
0001
1000
1000
,
0110
0100
0100
0010
,
0010
0100
0100
0010
,
0010
0100
0100
0010
,
0010
0100
0110
0110
,
2002
0003
0001
0001
,
3002
1000
1000
0203
,
0000
0010
0011
2300
,
0000
0100
0010
3001
,
0002
1000
0010
0100
,
2003
0100
0010
0001
,
3002
1000
0100
0010
,
2003
0000
0100
0010
,
3001
1001
1001
0000
,
1001
0000
2002
0000
,
3003
0000
0000
0000
;

//---------------dance-single - ----------------
#NOTES:
     dance-single:
     :
     Easy:
     5:
     0.321631,0.333254,0.170900,0.252634,0.000000,246.000000,23.000000,34.000000,0.000000,0.000000,0.000000,0.321631,0.333254,0.170900,0.252634,0.000000,246.000000,23.000000,34.000000,0.000000,0.000000,0.000000:
0000
0000
0000
0000
0000
2000
0000
0000
,
0000
3000
0002
0000
0000
0000
0000
0000
,
0003
2000
0000
0000
0000
0000
0000
3000
,
0200
0000
0000
0000
0000
0300
0000
0020
,
0000
0000
0030
0200
,
0000
0000
0300
2000
0000
0000
0000
3000
,
0000
0000
1001
1001
0000
1001
0000
1001
,
0000
0110
0000
0100
0000
0100
0000
0100
,
0000
0010
0000
0010
0000
0010
0000
0100
,
0000
0010
0000
0010
0000
0100
0000
0100
,
0000
0001
0000
0001
0000
2000
0000
3001
,
0000
2000
0000
0001
0000
0001
0000
0001
,
0000
3002
0000
1000
0000
1000
0000
1000
,
0003
0200
0000
1000
0000
1000
0000
1000
,
0300
0020
0000
0001
0000
0001
0000
0001
,
0030
1001
0000
0110
0000
0001
0000
0001
,
0000
0110
0000
1000
0000
1000
0000
0100
,
0000
0110
0000
0001
0000
0001
0000
0010
,
0000
0100
0000
1000
0000
0100
0000
0001
,
0000
0010
0000
0100
0000
1000
0000
1100
,
0000
0010
0000
0001
0000
0010
0000
0011
,
0000
0100
0000
0010
0000
0100
0000
1100
,
0000
0010
0000
0001
0000
0010
0000
0110
,
0000
0001
0000
0001
0000
0001
0000
0001
,
0000
1000
0000
1000
0000
1000
0000
1000
,
0000
0001
0000
0001
0000
0001
0000
0110
,
0000
0001
0000
0001
0000
0001
0000
0110
,
0000
1000
0000
1000
0000
1000
0000
0110
,
0000
0001
0000
0001
0000
0001
0000
0110
,
0000
1000
0000
1000
0000
1000
0000
0110
,
0000
0001
0000
1000
0000
0001
0000
1000
,
0000
1001
0010
0000
0010
0000
0000
1000
,
0100
1000
0100
0000
0100
0000
0000
0010
,
0001
0010
0001
0000
0001
0000
0000
0100
,
0010
0100
0100
0001
0000
0000
0000
0000
,
0000
0110
0001
0000
1000
0000
0000
0100
,
0010
0001
1000
0000
0100
0000
0000
0010
,
0100
0010
0100
0000
0001
0000
0000
1000
,
0100
1000
0000
0010
0100
0000
0000
0000
,
0000
0001
0010
0000
0100
0000
0000
1000
,
0100
1000
0000
0010
0001
0000
0000
0010
,
0001
0010
0100
0000
1000
0000
0000
0100
,
1000
0010
0001
0000
0110
0000
0001
0000
,
0000
2000
0000
0000
0000
3200
0000
0000
,
0000
0320
0000
0000
0000
0032
0000
0000
,
0000
2003
0000
0000
0000
3200
0000
0000
,
0000
0320
0000
0000
0032
0000
0000
0000
,
0023
0000
0230
0000
,
2300
0000
3200
0000
,
0320
0000
0230
0000
,
0302
0000
2003
0000
,
3000
1001
0000
0010
0000
0100
0000
0010
,
0000
0100
0000
0010
0000
0100
0000
0010
,
0000
0100
0000
0010
0000
0100
0000
0010
,
0000
0100
0000
0010
0000
0100
0000
0010
,
0000
1000
0000
0001
0000
1000
0000
0001
,
0000
1000
0000
0001
0000
1000
0000
0001
,
0000
1000
0000
0001
0000
1000
0000
0001
,
0000
1000
0000
0001
0000
1000
0000
0001
,
0000
2000
0000
0010
0000
0001
0000
0100
,
0000
0010
0000
0001
0000
0100
0000
0010
,
0000
0001
0000
0100
0000
0010
0000
0100
,
0000
0100
0000
0010
0000
0100
0000
0001
,
0000
3002
0000
0010
0000
0100
0000
1000
,
0000
0010
0000
0100
1000
0000
0000
0010
,
0100
1000
0100
0000
1000
0000
0000
0010
,
0100
1000
0010
0000
0100
0000
0000
0000
,
0003
2000
0000
0000
3002
0000
0000
0003
,
0000
2002
0000
0000
0000
0000
0000
0000
,
3003
0000
0000
0000
;

//---------------dance-single - ----------------
#NOTES:
     dance-single:
     :
     Medium:
     6:
     0.369398,0.435004,0.289786,0.156039,0.367806,288.000000,39.000000,21.000000,0.000000,0.000000,0.000000,0.369398,0.435004,0.289786,0.156039,0.367806,288.000000,39.000000,21.000000,0.000000,0.000000,0.000000:
0000
0000
0000
0000
0000
0000
0000
0000
0000
0000
0000
0000
0000
2000
0000
0000
,
0000
0000
0000
0000
0000
0000
0000
0000
0000
0000
0000
0000
0000
3000
0000
0000
,
0000
0002
0000
0000
,
0000
0000
0000
0000
0000
0000
0000
0000
0000
0003
0000
0000
2000
0000
0000
0000
,
0000
0000
0000
0000
0000
0000
0000
0000
0000
0000
0000
3000
0000
0000
0200
0000
,
0000
0000
0000
0000
0300
0020
0000
0000
0000
0000
0000
0000
0000
0000
0000
0000
,
0030
0000
0000
1001
0000
0000
0110
0000
0000
0000
0110
0000
0110
0000
0110
0100
,
0000
0002
0000
0000
0000
0000
0000
0000
,
0003
2000
0000
0000
0000
0000
0000
0000
0000
0000
0000
0000
0000
0000
0000
3000
,
0000
0200
0000
0000
0000
0000
0000
0000
0000
0000
0000
0000
0000
0000
0000
0000
,
0300
0020
0000
0000
0000
0000
0000
0030
0000
0001
0000
0000
0000
1000
0000
0000
,
0000
0220
0000
0000
0000
0000
0000
0000
0000
0000
0000
0000
0000
0000
0000
0330
,
0000
2000
0000
0000
0000
0000
0000
0000
0000
0000
0000
0000
0000
0000
0000
3000
,
0002
0000
0000
0000
0000
0000
0000
0003
,
2000
0000
0000
0000
3000
0110
0000
1001
,
0000
0200
0000
0000
0000
0310
0000
0000
0000
0001
0000
0000
0000
1000
0000
0000
,
0000
0100
0000
0000
0000
0000
1000
0000
0000
0000
0100
0000
0000
0000
0010
0000
,
0000
0001
0000
0000
0000
0001
0000
1000
0000
0000
0000
0100
0000
1000
0000
0100
,
0000
0010
0001
0000
0000
0001
0000
0000
0010
0000
0000
0100
0000
0000
1000
0000
,
0100
1000
0000
0000
0000
1000
0000
0010
0000
0000
0000
0010
0000
0100
0000
0000
,
0001
1000
0000
0000
1000
0000
0000
0000
0100
0000
0000
0100
0000
0000
0010
0001
,
0000
1000
0000
0000
1000
0000
0000
0000
0100
0000
0000
0100
0000
0000
0010
0001
,
0000
0100
0000
0000
0000
0100
0000
0000
0010
0000
0000
0001
0000
1000
0000
0000
,
0000
0000
0110
0000
0000
0001
0000
0000
1000
0000
0000
1000
0000
0000
0001
1000
,
0000
0000
0010
0000
0000
0010
0000
0000
0100
0000
0000
0100
0000
0000
0010
0100
,
0000
0000
0010
0000
0000
0010
0000
0000
0100
0000
0000
0100
0000
0000
0001
0000
,
1000
0010
0000
0000
0000
0010
0000
0000
0100
0000
0000
0100
0000
0001
0000
0010
,
0000
0100
0000
0000
0100
0000
0000
0000
0001
0000
0000
0001
0000
0000
0010
0001
,
0000
0010
0000
0000
0000
0010
0000
0000
0100
0000
0000
0100
0000
0000
1000
0000
,
0100
0000
1000
0000
0000
1000
0000
0000
0100
0000
0000
0000
0100
0000
1000
0010
,
0000
0100
0000
0000
0000
0000
1000
0000
0000
0000
0100
0000
0000
0000
0010
0000
,
0000
0001
1000
0000
0110
0000
0000
0100
0010
0000
0000
0000
0000
1001
0000
0110
,
0000
0000
0110
0000
0000
0001
0000
0000
1000
0000
0000
0000
0000
0000
0110
0000
,
0001
0000
1000
0000
0000
0110
0000
0000
0110
0000
0000
0000
0000
0001
0000
0000
,
1000
0010
0000
0000
0000
0100
0000
0000
0010
0000
0000
0000
0000
0000
0000
0000
,
0000
0000
0011
0000
0000
1000
0000
0000
0100
0000
0000
0000
0000
0000
0011
0000
,
0100
0000
1000
0000
0000
0100
0000
0000
0100
0000
0000
0000
0000
0000
0010
0000
,
1000
0000
0100
0000
0000
0010
0000
0000
0010
0000
0000
0000
0000
0000
1001
0000
,
0110
0000
0110
0000
0000
0001
0000
0000
1000
0000
0000
0000
0000
0000
0000
0000
,
0000
0000
0110
0000
0001
0000
0000
1000
0000
0000
0000
0000
0000
0000
0110
0000
,
0001
0000
0001
0000
0000
0010
0000
0000
0100
0000
0000
0000
0000
0000
1000
0000
,
0100
0000
1000
0000
0000
0010
0000
0000
0010
0000
0000
0000
0000
0000
0110
0000
,
0001
0000
1000
0000
0000
0110
0000
0000
0001
0000
0000
0000
0000
1000
0000
0000
,
0000
0100
1000
0100
1000
0100
1000
0100
,
1000
0000
0100
0000
1000
0000
0100
0000
1000
0000
0100
0000
1000
0000
0100
1000
,
0000
0001
0010
0001
0010
0001
0010
0001
,
0010
0000
0001
0000
0010
0000
0001
0000
0010
0000
0001
0000
0010
0000
0001
0010
,
0000
0010
0000
0000
0000
0000
0100
0000
0010
0000
0000
0010
0000
0000
0100
0000
,
0010
0000
0001
0000
0000
0001
0000
0000
0000
0000
0000
1000
0000
0000
1000
0000
,
0100
0000
0010
0000
0000
0100
0000
0000
0010
0000
0000
0010
0000
0000
0001
0000
,
0010
0000
0100
0000
0000
0100
0000
0000
0000
0000
0100
0000
0000
0000
0100
0000
,
0000
0110
0000
0001
0000
1000
0000
0001
,
0000
1000
0000
0001
0000
1000
0000
0001
,
0000
0000
1000
0000
0000
1000
0000
0000
0010
0000
0000
0100
0000
0000
0010
0000
,
0100
0000
0010
0000
0000
0010
0000
0000
0001
0000
0000
0000
0001
0000
0001
0000
,
0000
1000
0000
0001
0000
1000
0000
0001
,
0000
1000
0000
0001
0000
1000
0000
0001
,
0000
1000
0000
0010
0000
0100
0000
0010
,
0000
0100
0000
0100
0000
0100
0000
0100
,
0000
0020
0000
0000
0000
0000
0000
0030
,
0200
0000
0000
0000
0000
0000
0300
2000
,
0000
0000
0000
0000
0000
0000
0000
0000
0000
0000
0000
3000
0000
0000
0001
0000
,
1000
0000
0001
0000
0000
1000
0000
0000
0010
0000
0000
0010
0000
0100
0000
0000
,
0000
0002
0000
0000
0000
0000
0000
0000
0000
0000
0000
0003
0000
2000
0000
0000
,
0000
0000
0000
0000
0000
0000
0000
0000
0000
0000
0000
3000
0000
0200
0000
0000
,
0000
0000
0000
0000
0000
0000
0300
0001
,
1000
0000
0001
0000
0000
1000
0000
0000
0110
0000
0110
0000
0000
0000
1001
0000
,
0000
0110
0000
1001
0000
0110
0000
1001
,
0000
0110
0110
1001
0000
0110
0110
1001
;

//---------------dance-single - ----------------
#NOTES:
     dance-single:
     :
     Hard:
     10:
     0.524375,0.623412,0.572142,0.156039,0.743041,396.000000,77.000000,21.000000,0.000000,0.000000,0.000000,0.524375,0.623412,0.572142,0.156039,0.743041,396.000000,77.000000,21.000000,0.000000,0.000000,0.000000:
// measure 0
0000
0000
0000
0000
0000
2000
0000
0000
,  // measure 1
0000
0200
0000
0000
0000
0000
0000
0000
0000
0000
3000
0000
0020
0000
0000
0000
0000
0000
0000
0300
0000
0000
0000
0000
,  // measure 2
0001
0000
0002
0000
0000
0000
0000
0000
0000
0030
0000
0000
0000
0000
0000
0000
0000
0000
0000
0000
0000
0000
0000
0000
,  // measure 3
0003
2000
0000
0000
0000
0000
0000
0000
0200
0000
3000
0000
0000
0000
0020
0300
0000
0000
0000
0000
0002
0030
0000
0000
,  // measure 4
0000
0000
0020
0003
0000
0000
0000
0000
0230
0000
0000
0000
0000
0000
0000
2300
0000
0000
0000
0000
0000
3200
0000
0000
,  // measure 5
0000
0020
0300
0000
0000
0000
0000
0032
0000
0000
0000
0000
0000
2003
0000
0000
0000
0000
0000
0000
0200
3000
0000
0000
,  // measure 6
0000
0000
0010
0300
0000
0000
0000
0000
1001
0000
0000
0000
0000
0110
0000
0000
0000
0110
0000
0000
0110
0000
0110
0110
,  // measure 7
0000
0000
0000
0001
0000
0000
0000
0000
0000
0001
0000
0000
1000
0000
0000
0000
0000
1000
0000
0000
0000
0100
0000
0010
,  // measure 8
0000
0000
0000
0001
0000
0000
0000
0001
0000
0000
0000
0000
1000
0000
0000
0000
0000
1000
0000
0000
0000
0100
0000
0000
,  // measure 9
0010
0000
0100
0000
0000
0000
0000
0100
0000
0000
0000
0000
0010
0000
0000
0000
0000
0010
0000
0000
0000
0001
0000
1000
,  // measure 10
0000
0000
0100
0000
0000
0000
0000
0100
0000
0000
0000
0000
0010
0000
0000
0000
0000
0010
0000
0000
0000
0001
0000
1000
,  // measure 11
0000
0000
0100
0000
0000
0000
0000
0100
0000
0000
0000
0000
0010
0000
0000
0000
0000
0010
0000
0000
0000
0001
0000
0000
,  // measure 12
1000
0000
0100
0000
0000
0000
0000
0000
0100
0000
0000
0000
0010
0000
0000
0000
0000
0010
0000
0000
0100
0000
0000
0010
,  // measure 13
0000
0000
0100
0000
0000
0000
0000
0100
0000
0000
0000
0001
0000
0000
0000
0000
0000
0001
0000
0000
0000
0010
0000
0001
,  // measure 14
0000
0000
0010
0000
0000
0000
0000
0010
0000
0000
0000
0000
0001
0000
0000
0000
0001
0000
0000
0000
1000
0000
0000
0000
,  // measure 15
0000
0000
0002
0000
0000
0000
0000
0000
0000
1000
0003
0000
0000
0000
0000
1000
0000
0000
0000
0000
0000
0100
0000
0000
,  // measure 16
0000
0010
0000
0000
0001
0000
0000
0001
0000
0000
0010
0000
,  // measure 17
0000
0100
0000
1000
1000
0100
0000
0010
,  // measure 18
0000
0000
0001
0000
0000
0000
0000
0000
0000
1000
0000
0000
0001
0000
0000
1000
0000
0001
0000
0000
0010
0000
0000
0100
,  // measure 19
0000
0000
0000
0010
0000
0000
0000
0000
0001
0000
0000
1000
0000
0000
0001
0000
0000
1000
0000
0000
0010
0000
0000
0000
,  // measure 20
0000
0000
0100
0000
0000
0000
0000
0100
0000
0000
0000
0010
0000
0000
0000
0000
0001
0000
0000
0000
0010
0000
0000
0100
,  // measure 21
0000
0000
1000
0000
0000
0000
0000
0000
1000
0000
0000
0100
0000
0000
1000
0000
0000
0100
0000
0000
0000
0010
0000
0000
,  // measure 22
0000
0001
0000
1000
0001
1000
0001
1000
,  // measure 23
0000
0000
0000
0010
0000
0000
0100
0000
0000
0010
0000
0000
0100
0000
0000
0000
0000
0100
0000
0000
0000
0010
0000
0100
,  // measure 24
0000
0000
0000
0010
0000
0000
0000
0010
0000
0000
0000
0001
0000
0000
0000
0000
0000
0001
0000
0000
1000
0000
0000
0100
,  // measure 25
0000
0000
0000
1000
0000
0000
0000
1000
0000
0000
0000
0000
0100
0000
0000
0000
0000
0100
0000
0000
0010
0000
0000
0000
,  // measure 26
0001
0000
0000
0010
0000
0000
0000
0000
0110
0000
0000
0000
0010
0000
0000
0010
0000
0000
0001
0000
0000
1000
0000
0000
,  // measure 27
0000
0000
0000
0100
0000
0100
0000
0000
0010
0000
0000
0000
0000
0000
0001
0000
0000
0001
0000
0000
0010
0000
0000
0000
,  // measure 28
0000
0000
0100
0000
0000
0100
0000
0000
1000
0000
0000
0000
0000
0000
0100
0000
0000
0100
0000
0000
1000
0000
0000
0000
,  // measure 29
0000
0000
0010
0000
0000
0010
0000
0000
0001
0000
0000
0000
0000
0000
0000
0010
0000
0001
0000
0000
0000
1000
0000
0000
,  // measure 30
0000
0000
0000
0100
0000
0000
0000
0000
0010
0000
0000
1000
0000
0000
0000
0100
0000
1000
0000
0000
0100
0000
0000
0000
,  // measure 31
0000
0000
0110
0000
0000
0000
0000
0110
0000
0000
0000
1001
0000
0000
0000
0000
0000
0000
0000
0000
0110
0000
0000
0000
,  // measure 32
0110
0000
0001
0000
0000
0000
0000
1000
0000
0000
0000
0100
0000
0000
0000
0000
0000
0000
0000
0000
0110
0000
0000
0000
,  // measure 33
0110
0000
0001
0000
0000
0000
0000
1000
0000
0000
0000
0100
0000
0000
0000
0000
0000
0000
0000
0000
0010
0000
0000
1000
,  // measure 34
0000
0000
0000
0100
0000
0000
0000
0010
0000
0000
0000
0001
0000
0000
1000
0000
0001
0000
0000
1000
0000
0000
0010
0000
,  // measure 35
0000
0100
0000
0000
0100
0000
0000
0000
0000
0110
0000
0000
0000
0110
0000
0000
0000
0000
0000
0000
0000
0001
0000
0000
,  // measure 36
1000
0000
0000
0110
0000
0000
0000
0000
0000
0110
0000
0000
0110
0000
0000
0000
0000
0000
0000
0000
0000
0001
0000
1000
,  // measure 37
0000
0000
0110
0000
0000
0000
0000
0000
0010
0000
0000
0000
0010
0000
0000
0000
0000
0000
0000
0000
0110
0000
0000
0110
,  // measure 38
0000
0000
0000
0001
0000
0000
0000
1000
0000
0000
0000
0000
0001
1000
0000
1001
0000
0000
1001
0000
0000
0110
0000
0000
,  // measure 39
0000
0000
0000
0001
0000
0000
0000
0001
0000
0000
0000
0000
0010
0000
0000
0000
0000
0000
0000
0000
1000
0000
0000
0100
,  // measure 40
0000
0000
0000
1000
0000
0000
0000
0100
0000
0000
0000
0000
0100
0000
0000
0000
0000
0000
0000
0000
0000
0010
0000
0000
,  // measure 41
1000
0000
0000
0010
0000
0000
0000
0000
0100
0000
0000
0100
0000
0000
0000
0000
0000
0000
0000
0000
0010
0000
0000
0001
,  // measure 42
0000
0000
0010
0000
0000
0000
0000
0100
0000
0000
0000
1000
0000
0000
0000
0000
0000
0000
0000
0110
0000
0000
0000
0000
,  // measure 43
0000
0000
0001
0000
0000
0000
0000
0000
1000
0000
0000
0000
0001
0000
0000
0000
0000
0000
1000
0000
0000
0001
0000
1000
,  // measure 44
0000
0000
0000
0001
0000
1000
0000
0000
0000
0001
0000
0000
1000
0000
0000
0001
0000
0000
1000
0000
0000
0001
0000
0000
,  // measure 45
1000
0000
0000
0001
0000
0000
1000
0000
0000
0001
0000
1000
0000
0000
0000
0001
0000
1000
0000
0000
0001
0000
0000
1000
,  // measure 46
0000
0000
0000
0001
0000
0000
1000
0000
0000
0001
0000
0000
1000
0000
0000
0001
0000
1000
0000
0000
0000
0001
0000
1000
,  // measure 47
0000
0000
0100
0000
0000
0010
0000
0000
0000
0100
0000
0000
0010
0000
0000
0100
0000
0010
0000
0000
0000
0100
0000
0010
,  // measure 48
0000
0100
0010
0100
0010
0100
0010
0100
,  // measure 49
0010
0100
0010
0100
0010
0100
0010
0100
,  // measure 50
0010
0100
0010
0100
0010
0100
0010
0100
,  // measure 51
0000
0000
0001
1000
0000
0000
0000
0000
0110
0000
0000
0000
0110
0000
0000
0000
0000
0000
0110
0000
0000
0110
0000
0000
,  // measure 52
0110
0000
0000
0110
0000
0000
0000
0110
0000
0000
0000
0000
0001
0010
0000
0000
0000
0001
0010
0000
0000
0011
0000
0000
,  // measure 53
0011
0000
0000
0011
0000
0000
0000
0000
0110
0000
0000
0000
0110
0000
0000
0000
0000
0000
0110
0000
0000
1100
0000
0000
,  // measure 54
1100
0000
0000
1100
0000
0000
0000
0000
1100
0000
0000
0000
0100
0000
0000
0000
0000
0100
0000
0000
0000
0110
0000
0100
,  // measure 55
0010
0000
0000
0110
0000
0000
0000
0001
0000
0000
0000
0000
0001
0000
0000
0000
0000
0001
0000
0000
0000
0011
0000
0000
,  // measure 56
0011
0000
0011
0000
0000
0000
0000
0000
0110
0000
0000
0000
0110
0000
0000
0000
0000
0110
0000
0000
0000
1100
0000
0000
,  // measure 57
1100
0000
0000
1100
0000
0000
0000
0000
1100
0000
0000
0000
0000
0110
0000
0000
0000
0110
0000
0000
0000
0110
0000
0000
,  // measure 58
0110
0000
0000
0011
0000
0000
0000
0011
0000
0000
0000
0000
0100
0010
0000
0000
0000
0000
0110
0000
0110
0000
0000
0000
,  // measure 59
0000
0000
0000
0010
0000
0000
0000
0000
1000
0000
0000
0000
0100
0000
0000
0000
0100
0000
0000
0100
0000
0010
0000
0000
,  // measure 60
0000
0001
0000
0000
0010
0000
0000
0000
0100
0000
0000
0000
0100
0000
0000
0000
0000
0100
0000
0000
1000
0000
0000
0000
,  // measure 61
0100
0000
0000
1000
0000
0000
0000
0000
1000
0000
0000
0000
1000
0000
0000
0000
0000
0000
0000
0000
0000
0010
0000
0001
,  // measure 62
0000
0000
0000
0010
0000
0000
0000
0100
0000
0000
0000
0000
0000
1000
0000
0100
0000
0000
1000
0000
0000
0100
0000
0000
,  // measure 63
0000
0000
0000
0110
0000
0000
0000
0110
0000
0000
0000
0000
1001
0000
0000
0000
0000
0000
0000
0000
0000
0110
0000
0000
,  // measure 64
0110
0000
0000
0110
0000
0000
0000
0000
1001
0000
0000
0000
1001
0000
0000
0000
0000
0000
0000
0000
0000
0110
0000
0000
,  // measure 65
0110
0000
0000
0110
0000
0000
0000
0000
1001
0000
0000
0001
1000
0000
0000
0000
0000
0000
0000
0000
0000
0000
0011
0000
,  // measure 66
0000
0000
0000
0001
0010
0000
0000
0000
0000
0010
0000
0000
0000
0000
0000
0100
0000
0000
0000
0000
0000
1000
0000
0000
,  // measure 67
0000
0000
0000
0110
0000
0000
0000
0000
0000
0200
0000
0000
0000
0000
0000
0010
0000
0000
0000
0000
0000
0020
0300
0000
,  // measure 68
0000
0000
0000
0000
0001
0030
0000
0000
0002
0000
0000
0000
0000
0000
0000
0010
0000
0000
0000
0000
0010
0000
0000
0000
,  // measure 69
0000
0000
0103
0000
0000
0000
0100
0000
0000
0200
0000
0000
0000
0000
0000
0000
0000
0000
0000
0000
0000
0000
0300
0000
;
