#TITLE:Wonderwall;
#SUBTITLE:(Club Killers Remix);
#ARTIST:Oasis;
#TITLETRANSLIT:;
#SUBTITLETRANSLIT:;
#ARTISTTRANSLIT:;
#GENRE:Trap;
#CREDIT:Feraligatr;
#BANNER:Wonderwall (Club Killers Remix)-bn.png;
#BACKGROUND:Wonderwall (Club Killers Remix)-bg.png;
#LYRICSPATH:;
#CDTITLE:FeraligatrV3-cd.png;
#MUSIC:Wonderwall (Club Killers Remix).ogg;
#OFFSET:0.009000;
#SAMPLESTART:83.990997;
#SAMPLELENGTH:21.600000;
#SELECTABLE:YES;
#DISPLAYBPM:100.000000;
#BPMS:0.000000=100.000000
,44.000000=66.667000
,46.000000=100.000000
;
#STOPS:139.000000=1.800000
;
#BGCHANGES:;
#KEYSOUNDS:;
#ATTACKS:;

//---------------dance-single - Feraligatr----------------
#NOTES:
     dance-single:
     Feraligatr:
     Challenge:
     9:
     0.635149,0.652878,0.151079,0.647482,0.690647,507.000000,21.000000,90.000000,30.000000,0.000000,18.000000,0.635149,0.652878,0.151079,0.647482,0.690647,507.000000,21.000000,90.000000,30.000000,0.000000,18.000000:
// measure 0
0000
0000
0000
0000
,  // measure 1
0000
0000
0000
0000
,  // measure 2
0000
0000
0000
0000
,  // measure 3
0000
0000
0000
0000
,  // measure 4
0001
0000
1000
0000
0020
0000
0000
0130
0010
1000
0001
0010
0200
0000
1300
0001
,  // measure 5
0100
0010
0100
0001
2000
3000
0100
0020
0000
0000
0030
0000
0001
0000
0100
0000
,  // measure 6
0001
0000
1000
0000
0020
0000
0000
0130
0010
1000
0002
0000
0023
0000
0031
1000
,  // measure 7
0020
0000
0130
0010
2000
0000
3100
0020
0000
0000
0030
0000
0001
0000
0100
0000
,  // measure 8
1000
0100
0010
2000
0000
0000
3100
0002
0000
0000
0103
0020
0000
0031
0000
0000
,  // measure 9
2000
0000
0000
3100
1000
0010
0000
0200
0000
0300
0000
0001
1000
0000
0100
0010
,  // measure 10
0000
0200
0000
0000
1300
0000
0001
0000
0100
0000
0000
0010
1000
0000
0100
0000
,  // measure 11
0MM0
0000
0000
0000
0000
0000
0000
0000
4MM0
3000
4000
3000
0101
0000
2000
0000
,  // measure 12
3002
0000
0000
0013
0100
1000
0001
0100
0020
0000
0130
0001
1000
0100
1000
0001
,  // measure 13
0020
0000
0130
2000
0000
0000
3001
0000
0100
0010
0010
0000
1010
0000
0002
0000
,  // measure 14
2003
0000
0000
3100
1000
0001
0100
0010
0200
0000
0301
1000
0100
1000
0001
0100
,  // measure 15
0020
0000
0130
0002
0000
0000
1003
1000
0001
0010
0010
0000
1000
0010
0100
2000
,  // measure 16
0000
0000
3010
0002
0000
0000
0013
0200
0000
0301
0000
0000
2000
0000
0000
3010
,  // measure 17
0100
0001
0000
0020
0000
0030
0000
0100
1000
0000
0001
0100
0000
0020
0000
0000
,  // measure 18
1030
0000
0000
0000
0001
0000
0000
0000
0010
0000
0000
0000
0100
1000
0100
1000
0001
0000
0000
0000
1000
0000
0000
0000
0010
0000
0000
0000
0100
0000
0001
0000
,  // measure 19
0100
0000
0010
0000
0000
0000
4000
3000
4000
3000
4000
3200
0000
0000
0310
0002
,  // measure 20
0000
0000
0103
0020
0000
0000
0130
0002
0000
0000
1003
0200
0000
0000
0320
0000
,  // measure 21
0001
0000
0000
0000
0130
0000
0000
0000
1000
0001
1000
0001
0100
0000
0000
0000
0010
0000
1000
0000
1000
0000
0020
0000
0000
0000
0000
0000
1030
0000
0002
0000
,  // measure 22
0000
0000
0013
0200
0000
0000
1300
0002
0000
0000
0103
0020
0000
0000
2030
0000
,  // measure 23
0001
0000
3100
0000
0000
0000
1000
1000
0001
0100
0100
0000
0120
0000
1030
0002
,  // measure 24
0000
0000
1003
0200
0000
0000
1300
0002
0000
0000
0003
0100
2000
0000
0000
3100
,  // measure 25
0002
0000
0013
0200
0000
0000
1300
0001
0100
0020
0000
0000
2030
0000
3200
0320
,  // measure 26
0000
0000
0000
0000
0031
0000
0000
0000
1000
0000
0000
0000
0001
0100
0001
0100
0010
0000
0000
0000
0100
0000
0000
0000
0001
0000
0000
0000
1000
0000
0100
0000
,  // measure 27
1000
0000
0000
0000
0001
0000
0000
0000
0100
0000
0000
0000
0010
0000
1000
0000
0001
0000
1000
0000
0100
0000
0010
0000
0012
0000
0000
0000
0000
4003
0000
0000
,  // measure 28
0000
0000
0000
0000
,  // measure 29
3000
0000
0001
0020
0000
0130
0010
0001
2000
0000
3010
0000
0200
0000
0000
0304
,  // measure 30
0000
0000
0000
0000
,  // measure 31
0003
0000
2000
0000
3200
0000
1300
0001
0010
0001
0100
0010
1010
0000
0000
0001
,  // measure 32
1000
0000
0400
0300
1000
0001
0100
0000
0040
0030
0040
0030
1000
0000
0000
0001
,  // measure 33
0010
0000
0100
0000
0010
0001
4000
3000
4000
3000
0010
0000
0100
0001
1000
0100
,  // measure 34
1000
0010
0400
0301
1000
0100
1000
0010
0100
0001
0040
0130
1100
0000
0000
0000
,  // measure 35
2MM1
0000
0000
0000
0000
3000
2000
0000
0001
0000
0000
3000
2000
0000
0000
0000
3020
0000
0000
0000
0130
0000
0000
0000
0002
0000
0000
0000
1003
0000
0100
0000
,  // measure 36
0210
0000
0000
0000
0000
0300
0200
0000
1000
0000
0000
0300
0200
0000
0000
0000
0320
0000
0000
0000
0031
0000
0000
0000
4M00
0000
3001
0000
4000
0000
3000
0000
,  // measure 37
0101
0000
0100
0000
0100
0000
0001
0100
0001
1000
0100
0000
M010
0001
0010
0001
,  // measure 38
1000
0000
0001
0000
0100
0000
0010
0000
0200
0000
0000
0000
0302
0000
0000
0000
1003
0100
1000
0000
0001
0100
0001
0000
1000
0000
0001
0000
0010
0000
0100
0000
,  // measure 39
2100
0000
0000
0000
0000
3000
2000
0000
0001
0000
0000
3000
2000
0000
0000
0000
3020
0000
0000
0000
0130
0000
0010
0000
1000
0000
0001
0000
0000
0000
0010
0000
,  // measure 40
0210
0000
0000
0000
0000
0300
0200
0000
1000
0000
0000
0300
0200
0000
0000
0000
0320
0000
0000
0000
0031
0000
1000
0000
001M
0000
0100
0000
0100
0000
0000
0000
,  // measure 41
0101
0000
0100
0000
0100
0000
0001
1000
0001
0010
0100
0000
M001
0000
0100
0100
,  // measure 42
0010
0000
0100
0000
1000
0000
0001
0000
0100
0000
0000
0000
0010
0000
0000
0000
1000
0001
1000
0000
0001
0010
0001
0000
1000
0000
0000
0000
0010
0000
0100
0000
,  // measure 43
0102
0003
0100
M00M
0100
0000
2000
3000
0010
M00M
0010
0000
0100
0000
1000
0001
,  // measure 44
0012
0003
0010
M00M
0010
0000
2000
3000
0100
M00M
0100
0000
M004
0013
0004
0003
,  // measure 45
1100
0000
0100
0000
0100
0000
1000
0001
1000
0010
0100
0000
001M
1000
0010
1000
,  // measure 46
0001
0000
0010
0000
0100
0000
1000
0000
0200
0000
0000
0000
0320
0000
0000
0000
0130
1000
0100
0000
1000
0001
1000
0000
0010
0000
0100
0000
0001
0000
1000
0000
,  // measure 47
2100
3000
0100
M00M
0100
0000
0002
0003
0100
M00M
0100
1000
0001
0010
0000
0100
,  // measure 48
2100
3000
0100
M00M
0100
0000
0002
0003
0010
M00M
0010
0100
M001
1000
0100
0000
,  // measure 49
0110
0000
0010
0000
0010
0000
0001
1000
0010
1000
0100
0000
M001
0000
0100
1000
,  // measure 50
0001
0000
0100
0000
0001
0000
1000
0000
0100
0000
0000
0000
0100
0000
0000
0000
1000
0001
1000
0000
0001
0100
0001
0000
1000
0000
0000
0000
0001
0000
1000
0000
,  // measure 51
1010
0000
0010
0000
0100
0000
0001
0000
1000
0000
0001
0010
0001
1000
0000
0100
,  // measure 52
0110
0000
0010
0000
0100
0000
1000
0000
0001
0000
1000
1000
0010
0100
0100
0000
,  // measure 53
0101
0000
1000
0000
0001
0000
0010
0000
0100
0000
0010
0001
1000
0000
0010
1000
,  // measure 54
0010
0000
0100
0000
0001
0000
1000
0000
0001
0000
0000
0000
0010
0000
0000
0000
0001
1000
0001
0000
1000
0010
1000
0000
0100
0000
0000
0000
0010
0000
0001
0000
,  // measure 55
1000
0000
0000
0000
;
