#TITLE:This is it;
#SUBTITLE:;
#ARTIST:Rogue;
#TITLETRANSLIT:;
#SUBTITLETRANSLIT:;
#ARTISTTRANSLIT:;
#GENRE:;
#CREDIT:Loodee;
#BANNER:This is it-bn.png;
#BACKGROUND:This is it-bg.png;
#LYRICSPATH:;
#CDTITLE:loodeecdtitle.png;
#MUSIC:This is it.ogg;
#OFFSET:-0.035000;
#SAMPLESTART:43.938999;
#SAMPLELENGTH:18.309999;
#SELECTABLE:YES;
#DISPLAYBPM:108.000000;
#BPMS:0.000000=108.000000
,53.000000=162.000000
,55.000000=108.000000
,61.000000=162.000000
,63.000000=108.000000
,69.000000=162.000000
,71.000000=108.000000
,78.000000=162.000000
,78.750000=216.000000
,79.375000=108.000000
,79.687500=54.000000
,80.125000=108.000000
,80.250000=216.000000
,80.750000=108.000000
,80.875000=54.000000
,81.000000=216.000000
,81.125000=108.000000
,81.187500=54.000000
,81.250000=216.000000
,81.375000=108.000000
,81.437500=54.000000
,81.500000=216.000000
,81.625000=108.000000
,81.687500=54.000000
,81.750000=216.000000
,81.875000=108.000000
,81.937500=54.000000
,82.062500=108.000000
,82.125000=216.000000
,82.625000=108.000000
,82.812500=54.000000
,83.000000=108.000000
,84.000000=162.000000
,84.187500=54.000000
,84.250000=162.000000
,84.437500=54.000000
,84.500000=162.000000
,84.687500=54.000000
,84.750000=162.000000
,84.937500=54.000000
,85.000000=108.000000
,87.000000=216.000000
,87.500000=108.000000
,87.750000=54.000000
,88.125000=108.000000
,88.250000=216.000000
,88.750000=108.000000
,88.875000=54.000000
,89.000000=216.000000
,89.125000=108.000000
,89.187500=54.000000
,89.250000=216.000000
,89.375000=108.000000
,89.437500=54.000000
,89.500000=216.000000
,89.625000=108.000000
,89.687500=54.000000
,89.750000=216.000000
,89.875000=108.000000
,89.937500=54.000000
,90.062500=108.000000
,90.125000=216.000000
,90.625000=108.000000
,90.812500=54.000000
,91.000000=108.000000
,92.000000=162.000000
,92.187500=54.000000
,92.250000=162.000000
,92.437500=54.000000
,92.500000=162.000000
,92.687500=54.000000
,92.750000=162.000000
,92.937500=54.000000
,93.000000=108.000000
,94.000000=81.000000
,94.250000=108.000000
,94.500000=162.000000
,94.750000=81.000000
,95.000000=108.000000
,95.250000=162.000000
,95.500000=108.000000
,96.000000=54.000000
,96.125000=108.000000
,96.250000=216.000000
,96.750000=108.000000
,96.875000=54.000000
,97.000000=108.000000
,97.250000=216.000000
,97.375000=108.000000
,97.437500=54.000000
,97.500000=216.000000
,97.625000=108.000000
,97.687500=54.000000
,97.750000=216.000000
,97.875000=108.000000
,97.937500=54.000000
,98.062500=108.000000
,98.125000=216.000000
,98.625000=108.000000
,98.812500=54.000000
,99.000000=108.000000
,100.000000=162.000000
,100.187500=54.000000
,100.250000=162.000000
,100.437500=54.000000
,100.500000=162.000000
,100.687500=54.000000
,100.750000=162.000000
,100.937500=54.000000
,101.000000=108.000000
,103.000000=216.000000
,103.125000=108.000000
,103.187500=54.000000
,103.250000=216.000000
,103.375000=108.000000
,103.437500=54.000000
,103.500000=216.000000
,103.750000=108.000000
,103.875000=54.000000
,104.000000=324.000000
,104.375000=36.000000
,104.500000=324.000000
,104.875000=36.000000
,105.000000=81.000000
,105.166664=108.000000
,105.333336=162.000000
,105.500000=108.000000
,106.000000=54.000000
,106.062500=108.000000
,106.125000=216.000000
,106.625000=108.000000
,106.812500=54.000000
,107.000000=108.000000
,108.000000=162.000000
,108.187500=54.000000
,108.250000=162.000000
,108.437500=54.000000
,108.500000=162.000000
,108.687500=54.000000
,108.750000=162.000000
,108.937500=54.000000
,109.000000=108.000000
,110.000000=81.000000
,110.250000=108.000000
,110.500000=162.000000
,110.750000=81.000000
,111.000000=108.000000
,111.250000=162.000000
,112.000000=54.000000
,112.125000=108.000000
,112.250000=216.000000
,112.750000=108.000000
,112.875000=54.000000
,113.000000=108.000000
,113.250000=216.000000
,113.375000=108.000000
,113.437500=54.000000
,113.500000=216.000000
,113.625000=108.000000
,113.687500=54.000000
,113.750000=216.000000
,113.875000=108.000000
,113.937500=54.000000
,114.062500=108.000000
,114.125000=216.000000
,114.625000=108.000000
,114.812500=54.000000
,115.000000=108.000000
,116.000000=162.000000
,116.187500=54.000000
,116.250000=162.000000
,116.437500=54.000000
,116.500000=324.000000
,116.875000=36.000000
,117.000000=162.000000
,117.187500=54.000000
,117.250000=162.000000
,117.437500=54.000000
,117.500000=324.000000
,117.875000=36.000000
,118.000000=108.000000
,119.000000=216.000000
,119.500000=108.000000
,119.750000=54.000000
,120.125000=108.000000
,120.250000=216.000000
,120.750000=108.000000
,120.875000=54.000000
,121.000000=108.000000
,121.250000=216.000000
,121.375000=108.000000
,121.437500=54.000000
,121.500000=216.000000
,121.625000=108.000000
,121.687500=54.000000
,121.750000=216.000000
,121.875000=108.000000
,121.937500=54.000000
,122.062500=108.000000
,122.125000=216.000000
,122.625000=108.000000
,122.812500=54.000000
,123.000000=108.000000
,124.000000=162.000000
,124.187500=54.000000
,124.250000=162.000000
,124.437500=54.000000
,124.500000=162.000000
,124.687500=54.000000
,124.750000=162.000000
,124.937500=54.000000
,125.000000=108.000000
,126.000000=81.000000
,126.250000=108.000000
,126.500000=162.000000
,126.750000=81.000000
,127.000000=108.000000
,127.250000=162.000000
,127.500000=108.000000
,128.000000=54.000000
,128.125000=108.000000
,128.250000=216.000000
,128.750000=108.000000
,128.875000=54.000000
,129.000000=108.000000
,129.250000=216.000000
,129.375000=108.000000
,129.437500=54.000000
,129.500000=216.000000
,129.625000=108.000000
,129.687500=54.000000
,129.750000=216.000000
,129.875000=108.000000
,129.937500=54.000000
,130.062500=108.000000
,130.125000=216.000000
,130.625000=108.000000
,130.812500=54.000000
,131.000000=108.000000
,132.000000=162.000000
,132.187500=54.000000
,132.250000=162.000000
,132.437500=54.000000
,132.500000=324.000000
,132.875000=36.000000
,133.000000=162.000000
,133.187500=54.000000
,133.250000=162.000000
,133.437500=54.000000
,133.500000=324.000000
,133.875000=36.000000
,134.000000=108.000000
,135.000000=216.000000
,135.125000=108.000000
,135.187500=54.000000
,135.250000=216.000000
,135.375000=108.000000
,135.437500=54.000000
,135.500000=216.000000
,135.750000=108.000000
,135.875000=54.000000
,136.000000=324.000000
,136.375000=36.000000
,136.500000=324.000000
,136.875000=36.000000
,137.000000=81.000000
,137.166672=108.000000
,137.333328=162.000000
,137.500000=108.000000
,138.000000=54.000000
,138.062500=108.000000
,138.125000=216.000000
,138.625000=108.000000
,138.812500=54.000000
,139.000000=108.000000
,140.000000=162.000000
,140.187500=54.000000
,140.250000=162.000000
,140.437500=54.000000
,140.500000=162.000000
,140.687500=54.000000
,140.750000=162.000000
,140.937500=54.000000
,141.000000=108.000000
,142.000000=81.000000
,142.250000=108.000000
,142.500000=162.000000
,142.750000=81.000000
,143.000000=108.000000
,143.250000=162.000000
,144.000000=108.000000
,149.000000=162.000000
,151.000000=108.000000
,157.000000=162.000000
,159.000000=108.000000
,165.000000=162.000000
,167.000000=108.000000
,173.000000=162.000000
,175.000000=108.000000
,182.000000=162.000000
,182.750000=108.000000
,184.000000=54.000000
,184.125000=108.000000
,184.250000=216.000000
,184.750000=108.000000
,184.875000=54.000000
,185.000000=216.000000
,185.250000=108.000000
,185.375000=54.000000
,185.500000=216.000000
,185.750000=108.000000
,185.875000=54.000000
,186.000000=216.000000
,186.125000=108.000000
,186.187500=54.000000
,186.250000=216.000000
,186.375000=108.000000
,186.437500=54.000000
,186.500000=216.000000
,186.625000=108.000000
,186.687500=54.000000
,186.750000=216.000000
,186.875000=108.000000
,186.937500=54.000000
,187.000000=108.000000
,188.000000=162.000000
,188.187500=54.000000
,188.250000=162.000000
,188.437500=54.000000
,188.500000=162.000000
,188.687500=54.000000
,188.750000=162.000000
,188.937500=54.000000
,189.000000=108.000000
,190.000000=162.000000
,190.166672=108.000000
,190.333328=81.000000
,190.500000=162.000000
,190.666672=108.000000
,190.833328=81.000000
,191.000000=162.000000
,191.166672=108.000000
,191.333328=81.000000
,191.500000=108.000000
,192.000000=54.000000
,192.125000=108.000000
,192.250000=216.000000
,192.750000=108.000000
,192.875000=54.000000
,193.000000=108.000000
,193.250000=216.000000
,193.375000=108.000000
,193.437500=54.000000
,193.500000=216.000000
,193.625000=108.000000
,193.687500=54.000000
,193.750000=216.000000
,193.875000=108.000000
,193.937500=54.000000
,194.062500=108.000000
,194.125000=216.000000
,194.625000=108.000000
,194.812500=54.000000
,195.000000=108.000000
,196.000000=162.000000
,196.187500=54.000000
,196.250000=162.000000
,196.437500=54.000000
,196.500000=162.000000
,196.687500=54.000000
,196.750000=162.000000
,196.937500=54.000000
,197.000000=162.000000
,197.375000=54.000000
,197.500000=162.000000
,197.687500=54.000000
,197.750000=162.000000
,197.937500=54.000000
,198.000000=81.000000
,198.250000=108.000000
,198.500000=162.000000
,198.750000=81.000000
,199.000000=108.000000
,199.250000=162.000000
,199.500000=108.000000
,200.000000=54.000000
,200.125000=108.000000
,200.250000=216.000000
,200.750000=108.000000
,200.875000=54.000000
,201.000000=216.000000
,201.250000=108.000000
,201.375000=54.000000
,201.500000=216.000000
,201.750000=108.000000
,201.875000=54.000000
,202.000000=216.000000
,202.125000=108.000000
,202.187500=54.000000
,202.250000=216.000000
,202.375000=108.000000
,202.437500=54.000000
,202.500000=216.000000
,202.625000=108.000000
,202.687500=54.000000
,202.750000=216.000000
,202.875000=108.000000
,202.937500=54.000000
,203.000000=108.000000
,204.000000=162.000000
,204.187500=54.000000
,204.250000=162.000000
,204.437500=54.000000
,204.500000=162.000000
,204.687500=54.000000
,204.750000=162.000000
,204.937500=54.000000
,205.000000=108.000000
,206.000000=216.000000
,206.125000=108.000000
,206.187500=54.000000
,206.250000=216.000000
,206.375000=108.000000
,206.437500=54.000000
,206.500000=216.000000
,206.625000=108.000000
,206.687500=54.000000
,206.750000=216.000000
,206.875000=108.000000
,206.937500=54.000000
,207.000000=216.000000
,207.125000=108.000000
,207.187500=54.000000
,207.250000=216.000000
,207.375000=108.000000
,207.437500=54.000000
,207.500000=216.000000
,207.625000=108.000000
,207.687500=54.000000
,207.750000=216.000000
,207.875000=108.000000
,207.937500=54.000000
,208.000000=324.000000
,208.375000=36.000000
,208.500000=324.000000
,208.875000=36.000000
,209.000000=108.000000
,210.250000=162.000000
,210.437500=54.000000
,210.500000=162.000000
,210.687500=54.000000
,210.750000=162.000000
,210.937500=54.000000
,211.000000=162.000000
,211.375000=54.000000
,211.500000=162.000000
,211.687500=54.000000
,211.750000=162.000000
,211.937500=54.000000
,212.000000=108.000000
,212.250000=162.000000
,212.437500=54.000000
,212.500000=162.000000
,212.687500=54.000000
,212.750000=162.000000
,212.937500=54.000000
,213.000000=108.000000
,214.000000=81.000000
,214.250000=108.000000
,214.500000=162.000000
,214.750000=81.000000
,215.000000=108.000000
,215.250000=162.000000
,215.500000=108.000000
,216.000000=54.000000
,216.125000=108.000000
,216.250000=216.000000
,216.750000=108.000000
,216.875000=54.000000
,217.000000=108.000000
,217.250000=216.000000
,217.375000=108.000000
,217.437500=54.000000
,217.500000=216.000000
,217.625000=108.000000
,217.687500=54.000000
,217.750000=216.000000
,217.875000=108.000000
,217.937500=54.000000
,218.062500=108.000000
,218.125000=216.000000
,218.625000=108.000000
,218.812500=54.000000
,219.000000=108.000000
,220.000000=162.000000
,220.187500=54.000000
,220.250000=162.000000
,220.437500=54.000000
,220.500000=162.000000
,222.166672=108.000000
,222.333328=81.000000
,222.500000=216.000000
,222.625000=108.000000
,222.687500=54.000000
,222.750000=216.000000
,222.875000=108.000000
,222.937500=54.000000
,223.000000=216.000000
,223.500000=108.000000
,223.750000=54.000000
,224.125000=108.000000
,224.250000=216.000000
,224.750000=108.000000
,224.875000=54.000000
,225.000000=216.000000
,225.125000=108.000000
,225.187500=54.000000
,225.250000=216.000000
,225.375000=108.000000
,225.437500=54.000000
,225.500000=216.000000
,225.625000=108.000000
,225.687500=54.000000
,225.750000=216.000000
,225.875000=108.000000
,225.937500=54.000000
,226.062500=108.000000
,226.125000=216.000000
,226.625000=108.000000
,226.812500=54.000000
,227.000000=108.000000
,228.000000=162.000000
,228.187500=54.000000
,228.250000=162.000000
,228.437500=54.000000
,228.500000=162.000000
,228.687500=54.000000
,228.750000=162.000000
,228.937500=54.000000
,229.000000=162.000000
,230.000000=81.000000
,230.166672=108.000000
,230.333328=162.000000
,230.500000=108.000000
,230.750000=81.000000
,231.000000=108.000000
,231.250000=162.000000
,231.500000=108.000000
,232.000000=54.000000
,232.125000=108.000000
,232.250000=216.000000
,232.750000=108.000000
,232.875000=54.000000
,233.000000=216.000000
,233.250000=108.000000
,233.375000=54.000000
,233.500000=216.000000
,233.750000=108.000000
,233.875000=54.000000
,234.000000=216.000000
,234.125000=108.000000
,234.187500=54.000000
,234.250000=216.000000
,234.375000=108.000000
,234.437500=54.000000
,234.500000=216.000000
,234.625000=108.000000
,234.687500=54.000000
,234.750000=216.000000
,234.875000=108.000000
,234.937500=54.000000
,235.000000=108.000000
,236.000000=162.000000
,236.187500=54.000000
,236.250000=162.000000
,236.437500=54.000000
,236.500000=162.000000
,236.687500=54.000000
,236.750000=162.000000
,236.937500=54.000000
,237.000000=162.000000
,238.000000=216.000000
,238.125000=108.000000
,238.187500=54.000000
,238.250000=216.000000
,238.375000=108.000000
,238.437500=54.000000
,238.500000=216.000000
,238.625000=108.000000
,238.687500=54.000000
,238.750000=216.000000
,238.875000=108.000000
,238.937500=54.000000
,239.000000=216.000000
,239.125000=108.000000
,239.187500=54.000000
,239.250000=216.000000
,239.375000=108.000000
,239.437500=54.000000
,239.500000=216.000000
,239.625000=108.000000
,239.687500=54.000000
,239.750000=216.000000
,239.875000=108.000000
,239.937500=54.000000
,240.000000=324.000000
,240.375000=36.000000
,240.500000=324.000000
,240.875000=36.000000
,241.000000=81.000000
,241.166672=108.000000
,241.333328=162.000000
,241.500000=108.000000
,242.000000=54.000000
,242.062500=108.000000
,242.125000=216.000000
,242.625000=108.000000
,242.812500=54.000000
,243.000000=108.000000
,244.000000=162.000000
,244.187500=54.000000
,244.250000=162.000000
,244.437500=54.000000
,244.500000=162.000000
,244.687500=54.000000
,244.750000=162.000000
,244.937500=54.000000
,245.000000=162.000000
,246.166672=108.000000
,246.333328=81.000000
,246.500000=162.000000
,246.666672=108.000000
,246.833328=81.000000
,247.000000=162.000000
,247.166672=108.000000
,247.333328=81.000000
,247.500000=162.000000
,247.666672=108.000000
,247.833328=81.000000
,248.000000=108.000000
;
#STOPS:53.000000=0.046000,
53.250000=0.046000,
53.500000=0.046000,
53.750000=0.047000,
54.000000=0.046000,
54.250000=0.046000,
54.500000=0.047000,
54.750000=0.047000,
61.000000=0.046000,
61.250000=0.046000,
61.500000=0.046000,
61.750000=0.047000,
62.000000=0.046000,
62.250000=0.046000,
62.500000=0.047000,
62.750000=0.046000,
69.000000=0.046000,
69.250000=0.046000,
69.500000=0.047000,
69.750000=0.046000,
70.000000=0.046000,
70.250000=0.046000,
70.500000=0.047000,
70.750000=0.046000,
78.000000=0.046000,
78.250000=0.046000,
78.500000=0.047000,
111.500000=0.046000,
111.750000=0.047000,
143.500000=0.046000,
143.750000=0.046000,
149.000000=0.046000,
149.250000=0.046000,
149.500000=0.047000,
149.750000=0.046000,
150.000000=0.046000,
150.250000=0.047000,
150.500000=0.046000,
150.750000=0.046000,
157.000000=0.046000,
157.250000=0.046000,
157.500000=0.047000,
157.750000=0.046000,
158.000000=0.046000,
158.250000=0.047000,
158.500000=0.046000,
158.750000=0.047000,
165.000000=0.046000,
165.250000=0.046000,
165.500000=0.047000,
165.750000=0.046000,
166.000000=0.046000,
166.250000=0.047000,
166.500000=0.046000,
166.750000=0.047000,
173.000000=0.046000,
173.250000=0.046000,
173.500000=0.047000,
173.750000=0.046000,
174.000000=0.046000,
174.250000=0.047000,
174.500000=0.046000,
174.750000=0.046000,
182.000000=0.046000,
182.250000=0.046000,
182.500000=0.047000,
220.500000=0.093000,
221.000000=0.092000,
221.500000=0.093000,
229.000000=0.093000,
229.500000=0.092000,
237.000000=0.093000,
237.500000=0.093000,
245.000000=0.092000,
245.500000=0.093000
;
#BGCHANGES:;
#KEYSOUNDS:;
#ATTACKS:;

//---------------dance-single - Loodee----------------
#NOTES:
     dance-single:
     Loodee:
     Challenge:
     11:
     0.714063,0.895886,0.346152,0.692305,0.972688,722.000000,672.000000,50.000000,100.000000,21.000000,0.000000,0.714063,0.895886,0.346152,0.692305,0.972688,722.000000,672.000000,50.000000,100.000000,21.000000,0.000000:
// measure 0
0000
0000
0000
0000
,  // measure 1
0000
0000
0000
0000
,  // measure 2
0000
0000
0000
0000
,  // measure 3
0000
0000
0000
0000
,  // measure 4
0101
0000
0000
0001
1000
0000
0001
0000
0010
0000
0100
0000
0010
0001
0000
0001
,  // measure 5
0100
0000
0010
1000
0010
0000
0010
0000
0010
0000
1000
0000
0100
0010
0000
0010
,  // measure 6
0001
0000
0000
1000
0010
0000
1000
0000
0100
0000
0010
0000
0001
0100
0000
0100
,  // measure 7
0010
0000
0010
1000
0100
0000
0100
0000
0010
0000
0001
1000
0010
0100
0000
0100
,  // measure 8
0010
0000
0000
1000
0001
0000
1000
0000
0001
0000
0010
0000
0100
1000
0000
1000
,  // measure 9
0010
0000
0100
0001
0100
0000
0100
0000
0100
0000
0010
0000
1000
0001
0000
0001
,  // measure 10
0010
0000
0000
0100
0010
0000
0001
0000
1000
0000
0010
0000
0100
0001
0000
0001
,  // measure 11
1000
0000
0100
0010
0100
0000
0100
0000
0010
0000
0001
0100
0010
1000
0000
0001
,  // measure 12
0200
0000
0000
0010
0000
0000
0302
0000
0000
0000
0010
0000
2003
0000
0000
0000
,  // measure 13
3001
0010
0002
0000
0103
010M
0100
0100
0100
0100
0100
0100
1000
0001
0100
0100
,  // measure 14
0010
0000
0000
1000
0010
0000
1000
0000
0001
0000
0010
0000
0001
0100
0000
0100
,  // measure 15
0010
1000
0002
0000
0103
010M
0100
0100
0100
0100
0100
0100
1000
0100
0000
0100
,  // measure 16
0010
0000
0010
0001
1000
0000
0001
0000
0100
0000
0010
0000
1000
0100
1000
0100
,  // measure 17
0010
0001
1000
0001
0100
010M
0100
0100
0100
0100
0100
0100
1000
0001
0010
0010
,  // measure 18
0001
1000
0100
0010
0001
1000
0010
0100
0001
0010
0100
1000
0010
1000
0001
0010
,  // measure 19
0100
1000
0100
1000
0001
0100
0010
1000
0001
0010
0001
0010
0100
1000
0001
0100
0001
0000
1000
0000
0001
0000
1000
0000
0000
0000
0000
0000
0000
0000
0000
0000
,  // measure 20
1020
0000
0230
0000
0301
0010
0100
0010
0001
0200
0000
0000
0301
0100
0010
0001
,  // measure 21
0010
0000
0000
0100
0000
0000
0010
0000
0000
1000
0000
0000
1010
0000
0000
0000
0000
0000
0010
0000
M000
0010
0000
0000
0002
0000
0000
0000
0000
0000
0000
0000
0000
0013
0000
0000
0110
0000
0000
0000
0000
0000
0000
0000
0000
0000
0000
0000
,  // measure 22
2001
0000
3200
0000
1300
0001
0100
0001
1000
0200
0000
0000
0310
0100
0010
1000
,  // measure 23
0010
0000
0000
0100
0000
0000
0010
0000
0000
0001
0000
0000
0011
0000
0000
0000
0000
0000
0010
0000
000M
0010
0000
0000
2000
0000
0000
0000
0000
0000
0000
0000
0000
3002
0000
0000
0000
0000
0000
0000
0000
0000
0103
0000
0000
0000
0000
0000
,  // measure 24
0120
0000
2030
0000
3001
0100
0100
0100
0001
2000
0000
0000
3100
0010
0100
0001
,  // measure 25
0100
0000
0000
0010
0000
0000
0100
0000
0000
1000
0000
0000
1100
0000
0000
0000
0000
0000
0100
0000
M000
0100
0000
0000
0002
0000
0000
0000
0000
0000
0000
0000
0000
1003
0000
0000
1010
0000
0000
0000
0000
0000
0000
0000
0000
0000
0000
0000
,  // measure 26
2002
3003
0000
0000
2002
3003
0000
0000
0014
0000
0000
0000
0000
0000
0000
0000
0103
0000
0020
0000
0000
0000
0000
0000
1030
0000
0010
0000
0100
0000
1000
0000
,  // measure 27
0100
0000
0000
0010
0000
0000
0100
0000
0000
0001
0000
0000
0101
0000
0000
0000
0000
0000
0100
0000
000M
0100
0000
0000
2000
0000
0000
0000
0000
0000
0000
0000
0000
3002
0000
0000
0000
0000
0000
0000
0000
0000
0013
0000
0000
0100
0000
0000
,  // measure 28
0120
0000
0032
0000
1003
0100
0100
0100
1000
0002
0000
0000
0103
0010
0100
1000
,  // measure 29
0100
0010
0002
0000
0013
0100
2000
0000
3200
0000
0000
0301
1001
0000
0000
0000
,  // measure 30
2100
0000
3002
0000
1003
0010
0010
0010
0100
0002
0000
0000
0013
0100
0010
1000
,  // measure 31
0010
0100
1000
0001
1001
0000
1000
0010
2000
0000
0000
3200
0000
0000
0310
0000
,  // measure 32
0012
0000
2003
0000
3001
0100
0100
0100
0010
2000
0000
0000
3001
0010
0100
0001
,  // measure 33
0100
0010
2000
0000
3010
0100
0002
0000
0203
0000
0000
0310
0011
0000
0000
0000
,  // measure 34
0202
0303
0000
0000
0202
0303
0000
0000
4001
0000
0000
0000
0000
0000
0000
0000
3010
0000
0200
0000
0000
0000
0000
0000
0301
0000
0100
0000
0010
0000
0001
0000
,  // measure 35
0010
0000
0000
1000
0000
0000
0100
0000
0000
0010
0000
0000
0110
0000
0000
0000
0000
0000
0100
0000
00M0
0100
0000
0000
0002
0000
0000
0000
0000
0000
0000
0000
0000
2003
0000
0000
0000
0000
0000
0000
0000
0000
3010
0000
0000
0100
0000
0000
,  // measure 36
0001
0000
0100
0000
1001
0000
0001
0000
0010
0010
0100
1000
0010
0000
0100
0001
,  // measure 37
1000
0001
0020
0000
0130
01M0
0100
0100
0100
0100
0100
0100
0001
0000
1000
1000
,  // measure 38
0010
0000
1000
0000
0101
0000
0001
0000
1000
1000
0001
0010
0001
0000
1000
0010
,  // measure 39
1000
0001
0020
0000
0130
01M0
0100
0100
0100
0100
0100
0100
0001
0000
0020
0000
,  // measure 40
0031
0000
0100
0000
1010
0000
1000
0000
0001
0001
0010
0100
0010
0000
0001
0100
,  // measure 41
0010
1000
0002
0000
0103
010M
0100
0100
0100
0100
0100
0100
1000
0000
0010
0010
,  // measure 42
0100
0000
0001
0000
1001
0000
1000
0000
0100
0100
0010
0001
1000
0000
0010
0100
,  // measure 43
0001
1000
0002
0000
0103
010M
0100
0100
0100
0100
0100
0100
1000
0001
1000
0100
,  // measure 44
0020
0000
0031
0010
0001
1000
0001
1000
0010
0100
0001
0010
0100
1000
0010
1000
,  // measure 45
0001
0100
0001
0100
0010
1000
0001
1000
0100
0010
0100
1000
0001
0100
0010
1000
0001
0000
0010
0000
0001
0000
0010
0000
0000
0000
0000
0000
0000
0000
0000
0000
,  // measure 46
0012
0000
0000
0000
0000
0000
0203
0000
0000
0000
0000
0000
2300
0000
0000
0000
3000
0000
2000
0000
0000
0000
3000
0000
0100
0000
0000
0100
0000
0000
0010
0000
0000
0010
0000
0000
1000
0000
0000
0100
0000
0000
0010
0000
0000
0001
0000
0000
,  // measure 47
0100
0000
0000
0001
0000
0000
0010
0000
0000
0001
0000
0000
0200
0000
0000
0000
0300
0000
0010
0000
0M00
0010
0000
0000
0001
0000
0000
0000
0000
0000
1001
0000
0000
0000
0000
0000
1010
0000
0000
0000
0000
0000
0010
0000
0000
0100
0000
0000
,  // measure 48
0102
0000
2003
0000
3100
0010
0010
0010
0001
0200
0000
0000
0310
1000
0001
0010
,  // measure 49
0100
1000
0010
1000
0100
0000
0100
1000
0002
0000
0003
0011
0000
0000
0110
0000
,  // measure 50
2100
0000
0000
0000
0000
0000
3020
0000
0000
0000
0000
0000
0032
0000
0000
0000
0003
0000
0002
0000
0000
0000
0003
0000
0010
0000
0000
0010
0000
0000
0100
0000
0000
0100
0000
0000
0001
0000
0000
1000
0000
0000
0100
0000
0000
1000
0000
0000
,  // measure 51
0001
0000
0000
0100
0000
0000
0010
0000
0000
1000
0000
0000
0002
0000
0000
0000
0003
0000
0100
0000
000M
0100
0000
0000
0001
0000
0M00
0001
0000
0000
0010
0000
000M
0010
0000
0000
1000
0000
0000
1000
0000
0000
1000
0000
0000
0100
0000
0000
,  // measure 52
0020
0000
0000
0000
0000
0000
0030
0000
0000
0000
0000
0000
0000
0000
0000
0000
0000
0000
0000
0000
0000
0000
0000
0000
0220
0000
0000
0000
0000
0000
0330
0000
0000
0000
0000
0000
0000
0000
0000
0000
0000
0000
0000
0000
0000
0000
0000
0000
1002
0000
0000
0000
0000
0000
0000
0000
0000
0000
0000
0000
0000
0000
0000
0000
0003
0000
0000
0000
0000
0000
0000
0000
0100
0000
0000
0000
0000
0000
0000
0000
000M
0000
0000
0000
0100
0000
0000
0000
0000
0000
0000
0000
0000
0000
0000
0000
1000
0000
0000
0000
0000
0000
0000
0000
0000
0000
0000
0000
0001
0000
0000
0000
0000
0000
0000
0000
0000
0000
0000
0000
0100
0000
0000
0000
0000
0000
0000
0000
0000
0000
0000
0000
0001
0000
0000
0000
0000
0000
0000
0000
0000
0000
0000
0000
0010
0000
0000
0000
0000
0000
0000
0000
0000
0000
0000
0000
0000
0000
0000
0000
0000
0000
0000
0000
0000
0000
0000
0000
0010
0000
0000
0000
0000
0000
0000
0000
0000
0000
0000
0000
0100
0000
0000
0000
0000
0000
0000
0000
0000
0000
0000
0000
,  // measure 53
1000
0010
1000
0100
0010
0400
0000
0000
2300
0000
3000
1100
0000
0000
1010
0000
,  // measure 54
1002
0000
0023
0000
0031
0100
0100
0100
0001
2000
0000
0000
3010
0100
0001
0010
,  // measure 55
0100
0000
1000
0000
0020
0030
0000
0000
0120
0030
0000
0000
0020
0030
0000
0000
0020
0030
0000
0000
0001
0000
0010
0000
1000
0000
0000
0000
0000
0000
0000
0000
,  // measure 56
2100
0000
3002
0000
0103
0100
0010
0010
1000
0020
0000
0000
0130
0001
0010
0100
,  // measure 57
1000
0000
0000
0000
0000
0000
0000
0000
0000
0000
0000
0000
0010
0000
0000
0000
0000
0000
0000
0000
0000
0000
0000
0000
1000
0000
0000
0000
0000
0000
0000
0000
0000
0000
0000
0000
0100
0000
0000
0000
0000
0000
0000
0000
0000
0000
0000
0000
0020
0000
0000
0000
0000
0000
0030
0000
0000
0000
0000
0000
0000
0000
0000
0000
0000
0000
0000
0000
0000
0000
0000
0000
0020
0000
0000
0000
0000
0000
0030
0000
0000
0000
0000
0000
0000
0000
0000
0000
0000
0000
0000
0000
0000
0000
0000
0000
0002
0000
0000
0000
0000
0000
0000
0000
0000
0000
0000
0000
0000
0000
0000
0000
0003
0000
0000
0000
0000
0000
0000
0000
0100
0000
0000
0000
0000
0000
0000
0000
000M
0000
0000
0000
0200
0000
0000
0000
0000
0000
0000
0000
0000
0000
0000
0000
0000
0000
0000
0000
0000
0000
0000
0000
0000
0000
0000
0000
0300
0000
0000
0000
0000
0000
0000
0000
0000
0000
0000
0000
1100
0000
0000
0000
0000
0000
0000
0000
0000
0000
0000
0000
0000
0000
0000
0000
0000
0000
0000
0000
0000
0000
0000
0000
,  // measure 58
0120
0000
0000
0000
0000
0000
0230
0000
0000
0000
0000
0000
0302
0000
0000
0000
0003
0000
0002
0000
0000
0000
0003
0000
0100
0000
0000
0100
0000
0000
0010
0000
0000
0010
0000
0000
0001
0000
0000
1000
0000
0000
0010
0000
0000
0100
0000
0000
,  // measure 59
0001
0000
0000
0000
0000
0000
0000
0000
0000
0000
0000
0000
0010
0000
0000
0000
0000
0000
0000
0000
0000
0000
0000
0000
0001
0000
0000
0000
0000
0000
0000
0000
0000
0000
0000
0000
0010
0000
0000
0000
0000
0000
0000
0000
0000
0000
0000
0000
0200
0000
0000
0000
0000
0000
0300
0000
0000
0000
0000
0000
0000
0000
0000
0000
0000
0000
0000
0000
0000
0000
0000
0000
0200
0000
0000
0000
0000
0000
0300
0000
0000
0000
0000
0000
0000
0000
0000
0000
0000
0000
0000
0000
0000
0000
0000
0000
0001
0000
0000
0000
0000
0000
0000
0000
0M00
0000
0000
0000
0001
0000
0000
0000
0000
0000
0000
0000
0000
0000
0000
0000
0010
0000
0000
0000
0000
0000
0000
0000
000M
0000
0000
0000
0010
0000
0000
0000
0000
0000
0000
0000
0000
0000
0000
0000
1000
0000
0000
0000
0000
0000
0000
0000
0000
0000
0000
0000
1000
0000
0000
0000
0000
0000
0000
0000
0000
0000
0000
0000
1000
0000
0000
0000
0000
0000
0000
0000
0000
0000
0000
0000
0100
0000
0000
0000
0000
0000
0000
0000
0000
0000
0000
0000
,  // measure 60
0020
0030
0000
0000
0220
0330
0000
0000
4001
0000
0000
0000
0000
0000
0000
0000
3010
0000
0200
0000
0000
0000
0000
0000
0301
0000
0100
0000
0010
0000
1000
0000
,  // measure 61
0100
0000
0010
0000
0100
0000
0010
0000
0002
0003
0000
0000
0002
0003
0000
0000
0101
0000
0000
0000
1010
0000
0000
0000
1100
0000
0000
0000
0110
0000
0000
0000
,  // measure 62
1001
0000
0000
0000
,  // measure 63
0000
000M
0000
0000
0000
0000
0000
0000
;

//---------------dance-single - Loodee----------------
#NOTES:
     dance-single:
     Loodee:
     Hard:
     10:
     0.630987,0.643844,0.242307,0.609228,0.747689,638.000000,603.000000,35.000000,88.000000,11.000000,0.000000,0.630987,0.643844,0.242307,0.609228,0.747689,638.000000,603.000000,35.000000,88.000000,11.000000,0.000000:
0000
0000
0000
0000
,
0000
0000
0000
0000
,
0000
0000
0000
0000
,
0000
0000
0000
0000
,
0011
0000
0000
0001
1000
0000
0001
0000
0010
0000
0100
0000
1000
0100
0000
0100
,
1000
0000
0010
0100
0010
0000
0010
0000
0010
0000
1000
0000
0001
0010
0000
0010
,
0100
0000
0000
0010
0001
0000
1000
0000
0010
0000
0100
0000
0001
1000
0000
1000
,
0100
0000
0010
0001
0100
0000
0100
0000
0010
0000
1000
0001
1000
0100
0000
0100
,
0010
0000
0000
0001
0010
0000
0100
0000
1000
0000
0010
0000
0100
0010
0000
0010
,
1000
0000
0001
0100
0001
0000
0001
0000
0001
0000
0010
0000
0100
0010
0000
0010
,
0001
0000
0000
1000
0010
0000
0100
0000
0001
0000
1000
0000
0100
1000
0000
1000
,
0010
0000
0100
0001
1000
0000
1000
0000
0100
0000
0010
0001
1000
0001
0100
0000
,
0020
0000
0000
0000
0000
0000
2030
0000
3100
1000
0001
0000
0000
0000
0100
0000
,
0100
0001
2000
0000
3100
0010
0100
0010
0100
0010
0100
0010
0001
1000
0001
0010
,
0100
0000
0000
0010
0001
0000
0100
0000
0010
1000
0001
0000
0010
0100
0000
0100
,
1000
0000
0010
0000
0100
0001
0100
0001
0100
0001
0100
0001
1000
0100
0000
0100
,
1000
0000
0001
1000
0100
0000
0010
0000
0100
0000
0010
0000
0001
1000
0001
1000
,
0010
0000
0100
0001
1000
0000
0100
0000
0010
0000
0100
0000
1000
0001
1000
0001
,
0100
0010
0100
0010
1000
0100
0010
0001
0100
0010
1000
0001
0010
0100
1000
0010
,
0400
0004
0000
0000
0000
0000
0000
0000
0000
0000
0000
0000
0000
0303
0000
0000
1001
0000
00M0
0000
0M00
0000
00M0
0000
0000
0000
0000
0000
0000
0000
0000
0000
,
1200
0000
0320
0000
0031
1000
0001
1000
0020
0000
0000
0030
0110
0000
0100
0001
,
1000
0100
1000
0100
0010
0000
0010
0001
2000
0000
0000
3010
0100
0000
0000
0000
,
1020
0000
0230
0000
0301
1000
0001
0010
0200
0000
0000
0300
1100
0000
1000
0001
,
0100
0010
0100
0010
1000
0000
1000
0001
0200
0000
0000
2300
0000
0000
3100
0000
,
1002
0000
0023
0000
0130
1000
0100
0010
0002
0000
0000
0003
0101
0000
0100
0010
,
1000
0001
1000
0001
0010
0000
0010
0001
0200
0000
0000
0310
1000
0000
0000
0000
,
2200
3300
0000
0000
2200
3300
0000
0000
0120
0000
0000
0000
0000
0000
0000
0000
0032
0000
0000
0000
0000
0000
0003
0000
1001
0000
0000
0000
1000
0000
0010
0000
,
0100
0001
0100
0001
0010
0000
0010
0100
0020
0000
0000
2030
0000
0000
3010
0001
,
2000
0000
3020
0000
1030
0001
1000
0100
0020
0000
0000
0030
0011
0000
0001
1000
,
0100
0000
M000
0100
0000
0000
0002
0000
0000
0000
0003
0000
0100
0000
000M
0100
0000
0000
2000
0000
0000
0000
3000
0000
0020
0000
0000
0000
0000
0000
0000
0000
0000
0130
0000
0000
0001
0000
0000
0000
0000
0000
0000
0000
0000
0000
0000
0000
,
0021
0000
0230
0000
1300
0010
1000
0100
0020
0000
0000
0030
0011
0000
0001
1000
,
0001
0100
0010
1000
0100
0000
1000
0001
0200
0000
0000
2300
0000
0000
3100
0000
,
0210
0000
0320
0000
1030
0001
1000
0100
0020
0000
0000
0030
0110
0000
0100
1000
,
0010
0000
M000
0010
0000
0000
0002
0000
0000
0000
0003
0000
0100
0000
000M
0100
0000
0000
2000
0000
0000
0000
3000
0000
0002
0000
0000
0000
0000
0000
0000
0000
0000
0013
0000
0000
0100
0000
0000
0000
0000
0000
0000
0000
0000
0000
0000
0000
,
2002
3003
0000
0000
2002
3003
0000
0000
0201
0000
0000
0000
0000
0000
0000
0000
0320
0000
0000
0000
0000
0000
0030
0000
0110
0000
0000
0000
0100
0000
0001
0000
,
1000
0100
1000
0001
0100
0000
0100
0001
0020
0000
0000
2030
0000
0000
3010
0100
,
1000
0000
0001
0000
0100
0000
0100
0000
0010
1000
0001
1000
0100
0000
0010
0100
,
2000
0000
3001
0000
1000
0010
1000
0010
1000
0010
1000
0010
0100
0000
0001
1000
,
0001
0000
0010
0000
0100
0000
0100
0000
0010
0001
1000
0001
0010
0000
0001
1000
,
0020
0000
0130
0000
0001
0010
0001
0010
0001
0010
0001
0010
0100
0000
2000
0000
,
3010
0000
0100
0000
0001
0000
0001
0000
0010
0100
0010
0001
1000
0000
0010
0100
,
0002
0000
1003
0000
0100
1000
0100
1000
0100
1000
0100
1000
0001
0000
0100
0010
,
0100
0000
0001
0000
1000
0000
1000
0000
0100
0010
0100
1000
0001
0000
0100
0001
,
0200
0000
0310
0000
1000
0001
1000
0001
1000
0100
0010
0100
0010
0001
1000
0010
,
0200
0000
0301
1000
0001
1000
0001
1000
0001
0010
0100
1000
0010
0100
0001
1000
,
0400
0040
0000
0000
0000
0000
0000
0000
0000
0000
0000
0000
0000
0000
0000
0000
033M
0000
M000
0000
000M
0000
M000
0000
0000
0000
0000
0000
0000
0000
0000
0000
,
0012
0000
2003
0000
3010
0000
0010
0000
0100
0001
0010
0100
1000
0010
1000
0001
,
0010
0100
0010
0100
1000
0000
1000
0001
0200
0000
2300
0000
3100
0000
0001
0100
,
0020
0000
2030
0000
3100
0010
0001
0010
0200
0000
0000
0300
0110
0000
0010
0001
,
1000
0010
1000
0001
0100
0000
0100
0001
0020
0000
0000
2030
0000
0000
3010
0000
,
0210
0000
2300
0000
3001
0000
0001
0000
0100
0010
0100
0001
1000
0100
0010
0001
,
0100
0010
1000
0010
0100
0000
0100
0001
0010
0100
1000
0100
0010
0100
1000
0100
,
0020
0030
0000
0000
0022
0033
0000
0000
2001
0000
0000
0000
0000
0000
0000
0000
3010
0000
0100
0000
0001
0000
0100
0000
0010
0000
0000
0000
0010
0000
1000
0000
,
0100
0010
0100
0010
0001
0010
0000
0010
0200
0000
0000
0302
0000
0000
0103
0000
,
2100
0000
3002
0000
0103
0010
1000
0010
0200
0000
0000
0300
0101
0000
0001
1000
,
0100
0010
0001
0000
0001
0000
0001
0000
0002
0000
0103
0010
1000
0000
0000
0000
,
2010
0000
3002
0000
0013
0100
1000
0100
2000
0000
0000
3000
1001
0000
0001
0100
,
0010
1000
0010
1000
0001
0000
0001
0000
0200
0000
0000
2300
0000
0000
3100
0000
,
0120
0000
2030
0000
3001
0000
0001
0000
0010
0100
0010
0001
0100
0010
1000
0001
,
0010
0100
0010
0100
0010
0000
0010
0000
0010
0001
1000
0001
0100
0001
1000
0001
,
0200
0300
0000
0000
0220
0330
0000
0000
2010
0000
0000
0000
0000
0000
0000
0000
3002
0000
0000
0000
0000
0000
0003
0000
0011
0000
0000
0000
0010
0000
0100
0000
,
1000
0001
1000
0001
0100
0000
0100
0000
1000
0000
0001
0000
0010
0000
0100
0000
,
0101
0000
0000
0000
;

//---------------dance-single - Loodee----------------
#NOTES:
     dance-single:
     Loodee:
     Medium:
     8:
     0.437141,0.515075,0.069230,0.567690,0.252691,442.000000,432.000000,10.000000,82.000000,7.000000,0.000000,0.437141,0.515075,0.069230,0.567690,0.252691,442.000000,432.000000,10.000000,82.000000,7.000000,0.000000:
0000
0000
0000
0000
,
0000
0000
0000
0000
,
0000
0000
0000
0000
,
0000
0000
0000
0000
,
1001
0000
0000
1000
0010
0000
1000
0000
0001
0000
0100
0000
0001
1000
0000
1000
,
0001
0000
0010
0000
0010
0000
0010
0000
0010
0000
0001
0000
1000
0010
0000
0010
,
1000
0000
0000
0001
1000
0000
0100
0000
1000
0000
0001
0000
0100
0010
0000
0010
,
0100
0001
0010
0010
0001
0100
0010
0010
,
1000
0000
0000
0100
0010
0000
0100
0000
1000
0000
0001
0000
0100
0010
0000
0010
,
0100
0000
0001
0000
0001
0000
0001
0000
0001
0000
1000
0000
0100
1000
0000
1000
,
0001
0000
0000
0100
0001
0000
0010
0000
0001
0000
0100
0000
0010
1000
0000
1000
,
0001
0010
0100
0100
1000
0010
0010
1000
,
0002
0000
0000
0023
0000
0000
0230
0000
,
1300
0001
0400
0000
0000
0000
0310
1000
,
0001
0000
0000
0010
0001
0000
1000
0000
0001
0000
1000
0000
0010
1000
0000
1000
,
0001
0010
0400
0000
0000
0000
1300
0001
,
0100
0000
0001
1000
0001
0000
0010
0000
0100
0000
1000
0000
0010
0100
0010
0100
,
0001
0000
0010
0100
0010
0000
0001
0000
1000
0000
0010
0000
0010
1000
0010
1000
,
0004
0000
0000
0000
,
4000
0000
0000
0000
0000
0000
3003
0000
1001
00M0
0M00
00M0
0000
0000
0000
0000
,
0002
0000
2003
0000
3100
0000
0100
0000
0020
0000
0000
0000
0031
0000
1000
0010
,
1000
0000
1000
0000
0001
0000
1000
0000
0200
0000
0000
0310
0001
0000
0000
0000
,
0200
0000
0320
0000
1030
0000
1000
0000
0200
0000
0000
0000
0310
0000
0001
1000
,
0001
0000
0001
0000
0100
0000
0010
0000
2000
0000
0000
3002
0000
0000
1003
0000
,
1001
0000
0001
0000
0010
0000
0010
0000
0200
0000
0000
0000
1300
0000
0010
0100
,
0010
0000
0010
0000
0100
0000
0001
0000
2000
0000
0000
3100
1000
0000
0000
0000
,
2020
3030
0000
0000
2020
3030
0000
0000
0120
0000
0000
0000
0000
0000
0000
0000
0230
0000
0000
0000
0000
0000
0000
0000
0301
0000
0000
0000
0010
0000
0100
0000
,
1000
0000
1000
0000
0001
0000
0100
0000
0020
0000
0000
2030
0000
0000
3001
0010
,
0002
2003
3010
0010
0200
0000
0301
0100
,
0100
0000
2000
0000
3100
0000
2000
0000
3200
0000
0000
0310
0100
0000
0000
0000
,
0002
0000
2003
0000
3100
0000
0100
0000
0020
0000
0000
0000
0130
0000
1000
0001
,
0100
0000
0100
0000
0010
0000
1000
0001
2000
0000
0000
3200
0000
0000
0310
0000
,
0002
0203
0310
0010
2000
0000
3001
0010
,
0010
0000
2000
0000
3010
0000
2000
0000
3020
0000
0000
0130
1000
0000
0000
0000
,
0202
0303
0000
0000
0202
0303
0000
0000
1002
0000
0000
0000
0000
0000
0000
0000
0023
0000
0000
0000
0000
0000
0000
0000
0130
0000
0000
0000
1000
0000
0100
0000
,
0010
0000
0010
0000
0001
0000
0100
0000
0020
0000
0000
2030
0000
0000
3001
0100
,
0001
0001
1000
1000
0100
0020
0130
0020
,
0031
1000
0040
0000
0000
0000
0130
0001
,
1000
1000
0100
0100
0010
0200
1300
0200
,
0310
0001
0400
0000
0000
0000
0310
1000
,
0100
0100
0010
0010
0001
2000
3010
2000
,
3001
0010
0400
0000
0000
0000
1300
0001
,
0100
0100
0010
0010
1000
0002
0103
0002
,
1003
0100
0040
0000
0000
0000
0130
1000
,
0004
0000
0000
0000
,
4000
0000
0000
0000
0000
0000
0000
0000
30M3
0M00
00M0
0M00
0000
0000
0000
0000
,
2000
0000
3200
0000
0310
0000
0010
0000
0001
1000
0001
1000
0001
0000
0100
0000
,
0010
0000
0010
0000
1000
0000
0100
0000
0020
0000
0032
0000
1003
0000
1000
0010
,
1000
0000
0001
0000
0100
0001
0100
0001
0200
0000
0000
0000
0310
0000
1000
0000
,
0001
0000
0001
0000
0010
0000
0010
0100
0020
0000
0000
0032
0000
0000
1003
0000
,
2000
0000
3020
0000
0130
0000
0100
0000
0001
0010
0001
0010
0001
0000
1000
0000
,
0010
0000
0010
0000
0100
0000
0001
0000
1000
0001
1000
0001
1000
0001
1000
0001
,
2000
3000
0000
0000
2000
3000
0000
0000
1020
0000
0000
0000
0000
0000
0000
0000
0130
0000
0000
0000
0100
0000
0000
0000
0001
0000
0000
0000
0100
0000
0010
0000
,
0100
0000
0001
0000
2000
0000
0000
3000
2000
0000
0000
3200
0000
0000
0310
0000
,
0002
0000
2003
0000
3010
0100
0010
0100
0020
0000
0000
0000
0130
0000
0001
0000
,
1000
0000
0100
0000
0100
0000
0100
0000
0010
0000
0001
1000
0001
0000
0000
0000
,
0200
0000
0320
0000
1030
0001
1000
0001
2000
0000
0000
0000
3100
0000
1000
0000
,
0001
0000
0001
0000
0100
0000
0100
0000
2000
0000
0000
3200
0000
0000
0310
0000
,
2000
0000
3002
0000
0013
0000
0010
0000
0100
1000
0100
1000
0100
0000
0010
0000
,
0001
0000
0100
0000
0100
0000
0100
0000
0010
1000
0010
1000
0010
1000
0010
1000
,
0001
0001
0020
0000
0230
0000
1300
0010
,
0100
0100
0001
0001
0010
1000
0010
0100
,
1000
0000
0000
0000
;

//---------------dance-single - Loodee----------------
#NOTES:
     dance-single:
     Loodee:
     Easy:
     5:
     0.292746,0.364845,0.048461,0.366922,0.000000,296.000000,289.000000,7.000000,53.000000,0.000000,0.000000,0.292746,0.364845,0.048461,0.366922,0.000000,296.000000,289.000000,7.000000,53.000000,0.000000,0.000000:
0000
0000
0000
0000
,
0000
0000
0000
0000
,
0000
0000
0000
0000
,
0000
0000
0000
0000
,
0001
1000
0001
0010
,
0100
1000
0001
1000
0001
0000
0100
0000
,
0010
1000
0100
0010
,
0001
0100
0010
0100
0001
0000
1000
0001
,
1000
0100
1000
0001
,
0100
0010
1000
0010
1000
0000
0100
0000
,
0010
0001
1000
0010
,
0100
0001
1000
0001
0100
0000
0010
1000
,
0020
0000
0000
0230
0000
0000
0302
0000
,
0000
2000
0000
3003
,
2000
0000
0000
3200
0000
0000
0320
0000
,
0000
0002
0000
0033
,
0001
0000
0001
0010
0100
0000
0100
1000
,
0002
0200
0000
0303
,
0100
0010
0100
0010
1000
0001
1000
0001
,
0020
0000
0130
0000
,
1000
0000
0010
0010
2000
0000
3100
0010
,
0001
1001
0002
0003
,
1000
0000
0001
0001
0020
0000
0130
1000
,
0100
0110
0200
0300
,
0010
0000
0001
0001
2000
0000
3010
0100
,
0001
0101
0002
0013
,
0100
0100
0100
0000
2000
0000
3001
0010
,
0100
0000
1100
0000
0200
0000
0000
0310
,
0001
0000
1000
1000
0020
0000
0130
0000
,
0001
2000
3001
2000
3200
0000
0310
0000
,
0001
0000
0100
0100
0020
0000
1030
0000
,
0001
0000
1001
0000
0002
0000
0000
0103
,
0010
0000
1000
1000
0002
0000
1003
0000
,
0100
0020
0130
0020
0032
0000
1003
0000
,
0010
0010
0100
0000
0002
0000
0103
0010
,
1000
0000
1010
0000
2000
0000
0000
3001
,
0010
0001
1000
1000
0010
0000
0100
0000
,
0010
1000
0002
0000
0000
0000
0013
0100
,
0010
0001
1000
1000
0010
0000
0100
0000
,
0001
0010
0200
0000
0000
0000
0310
0000
,
0001
1000
0010
0010
1000
0000
0001
0000
,
1000
0100
0020
0000
0000
0000
0031
1000
,
0001
1000
0010
0010
1000
0000
0100
0000
,
0010
0100
2000
0000
0000
0000
3100
0000
,
0020
0000
0000
0000
,
0000
0000
0000
0000
0000
0000
0000
0000
0002
0000
0000
0033
0000
0000
0000
0000
,
0001
1000
0010
0010
2000
0000
3001
0010
,
0100
0000
1000
0000
1000
0100
0010
0001
,
0100
0010
0100
0010
0100
0010
0100
0010
,
1000
0001
1000
0001
2000
0000
0000
3100
,
0010
0001
1000
1000
0020
0000
1030
0001
,
0100
0010
0020
2030
,
3001
0001
0010
0100
0020
0000
0032
0000
,
1003
0000
0010
0000
0200
0000
0000
0301
,
0100
0001
1000
1000
0020
0000
0130
0001
,
1000
0100
0100
0100
0100
0010
0001
0000
,
0100
0010
1000
1000
0002
0000
0013
0100
,
0010
0000
0001
0001
0002
0000
0000
1003
,
0010
0000
1000
1000
0002
0000
1003
0100
,
0010
0001
0001
0001
0200
0000
0320
0000
,
1030
1000
0010
0000
2000
0000
3001
0010
,
0100
0000
1000
1000
2000
0000
3001
0000
,
1001
0000
0000
0000
;

//---------------dance-single - Loodee----------------
#NOTES:
     dance-single:
     Loodee:
     Beginner:
     2:
     0.076154,0.107307,0.000000,0.069230,0.000000,77.000000,77.000000,0.000000,10.000000,0.000000,0.000000,0.076154,0.107307,0.000000,0.069230,0.000000,77.000000,77.000000,0.000000,10.000000,0.000000,0.000000:
0000
0000
0000
0000
,
0000
0000
0000
0000
,
0000
0000
0000
0000
,
0000
0000
0000
0000
,
0001
0000
0000
0000
,
0001
0000
0000
0000
,
1000
0000
0000
0000
,
1000
0000
0000
0000
,
0010
0000
0000
0000
,
0010
0000
0000
0000
,
0100
0000
0000
0000
,
0100
0000
0000
0000
,
0002
0000
0000
0000
,
2003
0000
0000
0000
,
3002
0000
0000
0000
,
2003
0000
0000
0000
,
3001
0000
0001
0000
,
0001
0000
0001
0000
,
0020
0000
0000
0000
,
0000
0000
0030
0000
,
0001
0000
0000
0000
,
0001
0000
0010
0000
,
0001
0000
0000
0000
,
0001
0000
1000
0000
,
1000
0000
0000
0000
,
1000
0000
0010
0000
,
1000
0000
0000
0000
,
1000
0000
0001
0000
,
0001
0000
0000
0000
,
0010
0000
0010
0000
,
0001
0000
0000
0000
,
1000
0000
0001
0000
,
1000
0000
0000
0000
,
0100
0000
0100
0000
,
1000
0000
0000
0000
,
0001
0000
1000
0000
,
0001
0000
0001
0000
,
0002
0000
0000
0000
,
1003
0000
1000
0000
,
2000
0000
0000
0000
,
3010
0000
0010
0000
,
0020
0000
0000
0000
,
0130
0000
0100
0000
,
0200
0000
0000
0000
,
0302
0000
0000
0000
,
0000
0000
0003
0000
,
1000
0000
0000
0000
,
0010
0000
0010
0000
,
0010
0000
0000
0000
,
0100
0000
0000
0000
,
0001
0000
0000
0000
,
1000
0000
0001
0000
,
1000
0000
0000
0000
,
0010
0000
0000
0000
,
0100
0000
0000
0000
,
0010
0000
0010
0000
,
0100
0000
0000
0000
,
0001
0000
0001
0000
,
0001
0000
0000
0000
,
0010
0000
0001
0000
,
0010
0000
0000
0000
,
0100
0000
0100
0000
,
1000
0000
0000
0000
;
