#TITLE:This Will Be the Day;
#SUBTITLE:(James Landino's Magical Girl Remix);
#ARTIST:Jeff Williams & Casey Lee Williams;
#TITLETRANSLIT:;
#SUBTITLETRANSLIT:;
#ARTISTTRANSLIT:;
#GENRE:;
#CREDIT:;
#BANNER:rwby-bn.png;
#BACKGROUND:rwby-bg.png;
#LYRICSPATH:;
#CDTITLE:loodeecdtitle.png;
#MUSIC:This Will Be the Day (remix).ogg;
#OFFSET:-0.003000;
#SAMPLESTART:59.094002;
#SAMPLELENGTH:29.540001;
#SELECTABLE:YES;
#BPMS:0.000000=130.000000
;
#STOPS:
;
#BGCHANGES:;
#KEYSOUNDS:;
#ATTACKS:;

//---------------dance-single - Loodee----------------
#NOTES:
     dance-single:
     Loodee:
     Challenge:
     11:
     0.744937,1.014897,0.239063,0.866603,1.236403,698.000000,666.000000,32.000000,116.000000,6.000000,2.000000,0.744937,1.014897,0.239063,0.866603,1.236403,698.000000,666.000000,32.000000,116.000000,6.000000,2.000000:
// measure 0
0000
0000
0000
0000
,  // measure 1
0000
0000
0000
0000
,  // measure 2
0001
0000
0010
0002
0000
2003
0000
3010
0100
0000
0001
0000
1000
0000
0001
0000
,  // measure 3
0000
0000
0010
0200
0000
0320
0000
0031
1000
0000
0010
0000
2000
0000
0000
3000
,  // measure 4
0000
0000
0001
2000
0000
3200
0000
0310
0100
0000
0010
0000
0001
0000
0100
0000
,  // measure 5
1000
0000
0000
0000
0100
0000
0000
0000
0010
0000
0000
0000
1000
0000
0000
0000
0000
0000
0000
0000
0000
0002
0000
0000
0000
0000
0000
0023
0000
0000
0000
0000
0000
0000
0000
0000
0032
0000
0000
0000
0000
0000
0000
0000
0000
0003
0000
0000
,  // measure 6
0101
0000
0010
2000
0000
0000
3100
0010
0001
0000
0100
0000
0001
0000
1000
0000
,  // measure 7
0000
0000
0010
2000
0000
0000
3001
0010
0100
0000
0010
0000
0200
0000
0000
0300
,  // measure 8
0000
0000
0000
0000
0010
0000
0002
0000
0000
0000
1003
0000
0000
0000
0010
0000
0100
0000
0000
0000
0001
0000
0000
0000
1000
0000
0000
0000
0010
0000
1000
0001
,  // measure 9
1000
0000
0000
0000
0100
0000
1001
0000
0000
1001
0000
0001
0101
0000
0000
0000
,  // measure 10
0110
0000
0000
0010
1000
0000
0001
0000
1000
0000
0100
0000
0020
0000
0000
0030
,  // measure 11
1100
0000
0000
1000
0010
0000
1000
0000
0001
0100
0010
1000
0000
0100
1000
0010
,  // measure 12
0000
0100
0000
0001
0000
1000
0000
0100
0000
0010
0000
0200
1000
0000
0000
0310
,  // measure 13
0000
0001
0000
0100
0000
0010
0000
0100
0000
2000
0000
0000
3100
0002
0000
0000
,  // measure 14
0013
0100
0010
0001
0100
0000
0010
1000
0000
0100
0000
0001
0200
0000
0000
0000
,  // measure 15
1300
0001
0010
0001
0100
0000
0010
0001
0000
1000
0000
0100
0000
0001
0000
0020
,  // measure 16
0000
0000
0130
1000
0100
0010
0001
1000
0010
0000
0010
0100
0000
0002
0000
0000
,  // measure 17
0103
0000
0001
1000
0001
0010
0100
0010
1000
0000
0010
0100
0000
2000
0000
0000
,  // measure 18
3010
0100
0010
1000
0100
0000
0010
0001
0000
0100
0000
1000
0000
0200
0000
0000
,  // measure 19
0301
1000
0100
1000
0010
0000
1000
0001
0000
0010
0000
0100
0000
0010
0000
0100
,  // measure 20
1000
0000
1000
0001
0100
0002
0000
0000
0013
0000
0010
0100
1000
0200
0000
0000
,  // measure 21
1300
0000
0000
0000
1000
0000
0010
0000
0100
0000
0020
0000
0000
0000
0000
0000
0130
0000
0000
0000
0100
0000
0001
0000
1000
0000
0001
0000
0100
0010
0100
0000
,  // measure 22
0001
0000
0001
1000
0100
2000
0000
0000
3100
0000
0100
0010
0001
0020
0000
0000
,  // measure 23
0031
0000
0001
0100
0010
0200
0000
0000
0310
1000
0100
0010
0000
0001
1000
0010
,  // measure 24
2020
0000
0000
3030
0000
1000
0100
0010
0001
0100
0010
1000
0000
0000
1000
0000
,  // measure 25
2020
0000
0000
3030
0000
1000
0100
0010
0001
0100
0010
1000
0000
0000
1000
0000
,  // measure 26
2002
0000
0000
0000
0000
0000
0000
0000
0000
3003
0000
0000
0000
0000
0000
0001
0000
0000
0100
0000
0000
0010
0000
0000
1000
0000
0000
0100
0000
0000
0010
0000
0000
0001
0000
0000
0100
0000
0001
0000
0100
0000
0001
0000
0000
1000
0000
0000
,  // measure 27
2002
0000
0000
3003
0000
0001
0100
0010
1000
0100
0010
0001
0000
0000
0001
0000
,  // measure 28
0202
0000
0000
0303
0000
0001
0010
0100
2200
0000
0000
3300
0000
1000
0010
0100
,  // measure 29
0202
0000
0000
0303
0000
0001
0010
0100
2200
0000
0000
3300
0000
1000
0010
0100
,  // measure 30
0001
0010
0100
1000
0010
0100
0010
1000
0100
0010
0100
1000
0010
0100
0001
2000
,  // measure 31
0000
0000
0000
0000
0000
0000
0000
0000
0000
0000
0000
3000
2002
0000
0000
3003
,  // measure 32
1100
0000
0100
0010
0000
0100
0000
0002
0000
0103
0010
0001
1000
0010
0000
0000
,  // measure 33
0101
0000
0000
0100
0000
0010
0000
0100
2000
0000
3100
0000
0110
0000
0010
1000
,  // measure 34
0202
0000
0000
0303
0001
0010
0100
1000
0202
0000
0000
0303
0001
0010
0100
2000
,  // measure 35
3002
0000
0000
0003
0000
0000
0002
0000
0000
0003
0000
0000
0100
0000
0000
0001
0000
0000
0010
0000
0000
0001
0000
0000
1000
0000
0010
0000
0100
0000
0001
0000
1000
0000
0001
0000
2200
0000
0000
0000
0000
0000
0000
0000
0000
3300
0000
0000
,  // measure 36
1010
0000
0010
0100
0000
0010
0000
0002
0000
0013
1000
0001
0010
0100
0000
0000
,  // measure 37
1000
0000
0010
M000
0010
0000
0001
0000
0000
0000
1000
0000
0100
0000
0100
0000
0010
0000
0100
0000
0100
0000
0010
0000
0002
0000
0000
0000
0000
0000
0000
0000
,  // measure 38
2200
0000
0000
0003
0000
0000
3300
0000
1000
0000
0001
0000
0010
000M
0010
0000
2200
0000
0000
0000
0000
0000
3300
0000
1000
0000
0001
0000
0010
000M
0010
0000
,  // measure 39
1000
0100
0010
0001
0100
0001
1000
0010
0100
0001
0010
0001
0200
0000
0310
0000
,  // measure 40
1010
0000
1000
0001
0000
0010
0000
2000
0000
3010
0100
1000
0001
1000
0010
0100
,  // measure 41
0001
0000
1000
0010
0000
1000
0000
0100
0010
0000
0010
0001
1000
0010
0100
0001
,  // measure 42
2200
0000
0000
3300
0001
0010
0100
1000
0022
0000
0000
0033
1000
0100
0010
0002
,  // measure 43
2003
0000
0000
3000
0000
0000
2000
0000
0000
3000
0000
0000
0010
0000
0000
0100
0000
0000
0001
0000
0000
0010
0000
0000
0100
0000
1000
0000
0001
0000
1000
0000
0010
0000
0100
0000
0002
0000
0000
0000
0000
0000
0013
0000
0100
0000
1000
0000
,  // measure 44
0100
1000
0001
0100
0010
1000
0010
0100
0001
0010
0001
1000
0100
0010
0001
1000
,  // measure 45
0010
0000
0100
0001
0100
0000
0010
0000
1000
0001
1000
0000
0100
0000
0010
0001
0010
0000
0100
0000
1000
0001
1000
0000
0010
0000
1000
0000
0002
0000
0000
0000
,  // measure 46
2020
0000
0000
0003
0000
0000
3030
0000
0001
0000
1000
0000
0010
M000
0010
0000
0202
0000
0000
0000
0000
0000
0303
0000
1000
0000
0001
0000
0100
000M
0100
0000
,  // measure 47
0010
0001
1000
0100
0010
0100
1000
0010
0100
0001
1000
0100
1000
0000
0001
0000
,  // measure 48
0101
0000
0100
0020
0000
2030
0000
3001
0010
0000
0100
0000
0010
0000
0001
0000
,  // measure 49
0000
0000
1000
0020
0000
0230
0000
0301
1000
0000
0100
0000
2000
0000
0000
3000
,  // measure 50
0000
0000
0001
0020
0000
0032
0000
1003
0010
0000
1000
0000
0100
0000
0010
0000
,  // measure 51
1000
0010
0000
0001
0000
1000
0000
0002
0000
0203
0000
0320
0000
0000
0000
0030
,  // measure 52
1010
0000
1000
0002
0000
0000
0013
0100
1000
0000
0010
0000
1000
0000
0100
0000
,  // measure 53
0000
0000
1000
0002
0000
0000
0013
0100
0010
0000
0001
0000
0200
0000
0000
0000
,  // measure 54
0300
0000
0010
2000
0000
3001
0000
0010
0100
0000
0010
0000
0100
0000
1000
0000
,  // measure 55
0010
0100
0000
0001
0000
1000
0000
0001
0000
0010
0000
0200
0000
0000
0000
0000
,  // measure 56
2300
0000
3002
0000
,  // measure 57
0203
0000
0000
0000
0000
0000
0000
0000
0320
0000
0000
0000
0230
0000
0000
1300
,  // measure 58
0000
0100
0000
0001
0000
0010
0000
0100
0000
0010
0000
0002
1000
0000
0000
0103
,  // measure 59
0000
0010
0000
1000
0000
0100
0000
0010
0000
2000
0000
0000
3010
0002
0000
0000
,  // measure 60
0103
0010
1000
0100
0010
0000
0100
1000
0000
0010
0000
0001
0020
0000
0000
0000
,  // measure 61
0130
0001
0010
0100
1000
0000
0100
0001
0000
1000
0000
0010
0000
0001
0000
2000
,  // measure 62
0000
0000
3001
0100
0010
0100
0001
1000
0100
0000
0100
0010
0000
0002
0000
0000
,  // measure 63
0103
0000
0010
1000
0001
0100
0010
0100
1000
0000
0100
0001
0000
0020
0000
0000
,  // measure 64
0130
0010
0001
0100
0010
0000
1000
0001
0000
0010
0000
1000
0000
0020
0000
0000
,  // measure 65
0130
1000
0010
1000
0001
0000
0010
0001
0000
0100
0000
0010
0000
1000
0000
0001
,  // measure 66
0010
0000
0010
0100
1000
0200
0000
0000
0310
0000
0010
0001
1000
0002
0000
0000
,  // measure 67
0103
0000
0000
0000
0100
0000
0010
0000
1000
0000
0020
0000
0000
0000
0000
0000
0130
0000
0000
0000
0100
0000
0001
0000
1000
0000
0001
0000
0010
0100
0010
0000
,  // measure 68
0001
0000
0001
1000
0010
0200
0000
0000
0310
0000
0010
0100
0001
2000
0000
0000
,  // measure 69
3100
0000
0100
1000
0010
0200
0000
0000
0301
0010
0100
1000
0000
0010
0100
0001
,  // measure 70
2002
3003
0000
0000
,  // measure 71
0000
0000
M000
0000
;

//---------------dance-single - No brackets----------------
#NOTES:
     dance-single:
     No brackets:
     Edit:
     11:
     0.739601,1.014897,0.201709,0.806837,1.236403,693.000000,666.000000,27.000000,108.000000,6.000000,0.000000,0.739601,1.014897,0.201709,0.806837,1.236403,693.000000,666.000000,27.000000,108.000000,6.000000,0.000000:
0000
0000
0000
0000
,
0000
0000
0000
0000
,
0001
0000
0010
0002
0000
2003
0000
3010
0100
0000
0001
0000
1000
0000
0001
0000
,
0000
0000
0010
0200
0000
0320
0000
0031
1000
0000
0010
0000
2000
0000
0000
3000
,
0000
0000
0001
2000
0000
3200
0000
0310
0100
0000
0010
0000
0001
0000
0100
0000
,
1000
0000
0000
0000
0100
0000
0000
0000
0010
0000
0000
0000
1000
0000
0000
0000
0000
0000
0000
0000
0000
0002
0000
0000
0000
0000
0000
0023
0000
0000
0000
0000
0000
0000
0000
0000
0032
0000
0000
0000
0000
0000
0000
0000
0000
0003
0000
0000
,
0101
0000
0010
2000
0000
0000
3100
0010
0001
0000
0100
0000
0001
0000
1000
0000
,
0000
0000
0010
2000
0000
0000
3001
0010
0100
0000
0010
0000
0200
0000
0000
0300
,
0000
0000
0000
0000
0010
0000
0002
0000
0000
0000
1003
0000
0000
0000
0010
0000
0100
0000
0000
0000
0001
0000
0000
0000
1000
0000
0000
0000
0010
0000
1000
0001
,
1000
0000
0000
0000
0100
0000
1001
0000
0000
1001
0000
0001
0101
0000
0000
0000
,
0110
0000
0000
0010
1000
0000
0001
0000
1000
0000
0100
0000
0020
0000
0000
0030
,
1100
0000
0000
1000
0010
0000
1000
0000
0001
0100
0010
1000
0000
0100
1000
0010
,
0000
0100
0000
0001
0000
1000
0000
0100
0000
0010
0000
0200
1000
0000
0000
0310
,
0000
0001
0000
0100
0000
0010
0000
0100
0000
1000
0000
0000
0100
0002
0000
0000
,
0013
0100
0010
0001
0100
0000
0010
1000
0000
0100
0000
0001
0200
0000
0000
0000
,
1300
0001
0010
0001
0100
0000
0010
0001
0000
1000
0000
0100
0000
0001
0000
0020
,
0000
0000
0130
1000
0100
0010
0001
1000
0010
0000
0010
0100
0000
0002
0000
0000
,
0103
0000
0001
1000
0001
0010
0100
0010
1000
0000
0010
0100
0000
2000
0000
0000
,
3010
0100
0010
1000
0100
0000
0010
0001
0000
0100
0000
1000
0000
0100
0000
0000
,
0001
1000
0100
1000
0010
0000
1000
0001
0000
0010
0000
0100
0000
0010
0000
0100
,
1000
0000
1000
0001
0100
0002
0000
0000
0013
0000
0010
0100
1000
0200
0000
0000
,
1300
0000
0000
0000
1000
0000
0010
0000
0100
0000
0020
0000
0000
0000
0000
0000
0130
0000
0000
0000
0100
0000
0001
0000
1000
0000
0001
0000
0100
0010
0100
0000
,
0001
0000
0001
1000
0100
2000
0000
0000
3100
0000
0100
0010
0001
0020
0000
0000
,
0031
0000
0001
0100
0010
0200
0000
0000
0310
1000
0100
0010
0000
0001
1000
0010
,
2020
0000
0000
3030
0000
1000
0100
0010
0001
0100
0010
1000
0000
0000
1000
0000
,
2020
0000
0000
3030
0000
1000
0100
0010
0001
0100
0010
1000
0000
0000
1000
0000
,
2002
0000
0000
0000
0000
0000
0000
0000
0000
3003
0000
0000
0000
0000
0000
0001
0000
0000
0100
0000
0000
0010
0000
0000
1000
0000
0000
0100
0000
0000
0010
0000
0000
0001
0000
0000
0100
0000
0001
0000
0100
0000
0001
0000
0000
1000
0000
0000
,
2002
0000
0000
3003
0000
0001
0100
0010
1000
0100
0010
0001
0000
0000
0001
0000
,
0202
0000
0000
0303
0000
0001
0010
0100
2200
0000
0000
3300
0000
1000
0010
0100
,
0202
0000
0000
0303
0000
0001
0010
0100
2200
0000
0000
3300
0000
1000
0010
0100
,
0001
0010
0100
1000
0010
0100
0010
1000
0100
0010
0100
1000
0010
0100
0001
2000
,
0000
0000
0000
0000
0000
0000
0000
0000
0000
0000
0000
3000
2002
0000
0000
3003
,
1100
0000
0100
0010
0000
0100
0000
0002
0000
0103
0010
0001
1000
0010
0000
0000
,
0101
0000
0000
0100
0000
0010
0000
0100
2000
0000
3100
0000
0110
0000
0010
1000
,
2002
0000
0000
3003
0001
0010
0100
1000
2002
0000
0000
3003
0001
0010
0100
2000
,
3002
0000
0000
0003
0000
0000
0002
0000
0000
0003
0000
0000
0100
0000
0000
0001
0000
0000
0010
0000
0000
0001
0000
0000
1000
0000
0010
0000
0100
0000
0001
0000
1000
0000
0001
0000
0200
0000
0000
0000
0000
0000
0000
0000
0000
0300
0000
0000
,
1010
0000
0010
0100
0000
0010
0000
0002
0000
0013
1000
0001
1000
0100
0000
0000
,
1000
0000
0010
M000
0010
0000
0001
0000
0000
0000
1000
0000
0100
0000
0100
0000
0010
0000
0100
0000
0100
0000
0010
0000
0002
0000
0000
0000
0000
0000
0000
0000
,
0203
0000
0000
0000
0000
0000
0300
0000
0100
0000
0001
0000
0010
000M
0010
0000
0200
0000
0000
0000
0000
0000
0300
0000
0100
0000
0001
0000
0010
000M
0010
0000
,
1000
0100
0010
0001
0100
0001
1000
0010
0100
0001
0010
0001
0200
0000
0310
0000
,
1010
0000
1000
0001
0000
0010
0000
2000
0000
3010
0100
1000
0001
1000
0010
0100
,
0001
0000
1000
0010
0000
1000
0000
0100
0010
0000
0010
0001
1000
0010
0100
0001
,
0202
0000
0000
0303
0001
0010
0100
1000
2200
0000
0000
3300
1000
0100
0010
0002
,
2003
0000
0000
3000
0000
0000
2000
0000
0000
3000
0000
0000
0010
0000
0000
0100
0000
0000
0001
0000
0000
0010
0000
0000
0100
0000
1000
0000
0001
0000
1000
0000
0010
0000
0100
0000
0002
0000
0000
0000
0000
0000
0013
0000
0100
0000
1000
0000
,
0100
1000
0001
0100
0010
1000
0010
0100
0001
0010
0001
1000
0100
0010
0001
1000
,
0010
0000
0100
0001
0100
0000
0010
0000
1000
0001
1000
0000
0100
0000
0010
0001
0010
0000
0100
0000
1000
0001
1000
0000
0010
0000
1000
0000
0002
0000
0000
0000
,
0023
0000
0000
0000
0000
0000
0030
0000
0100
0000
1000
0000
0010
M000
0010
0000
0200
0000
0000
0000
0000
0000
0000
0000
1300
0000
0001
0000
0100
000M
0100
0000
,
1000
0010
1000
0100
0010
0100
1000
0010
0100
0001
1000
0100
1000
0000
0001
0000
,
0101
0000
0100
0020
0000
2030
0000
3001
0010
0000
0100
0000
0010
0000
0001
0000
,
0000
0000
1000
0020
0000
0230
0000
0301
1000
0000
0100
0000
2000
0000
0000
3000
,
0000
0000
0001
0020
0000
0032
0000
1003
0010
0000
1000
0000
0100
0000
0010
0000
,
1000
0010
0000
0001
0000
1000
0000
0002
0000
0203
0000
0320
0000
0000
0000
0030
,
1010
0000
1000
0002
0000
0000
0013
0100
1000
0000
0010
0000
1000
0000
0100
0000
,
0000
0000
1000
0002
0000
0000
0013
0100
0010
0000
0001
0000
0200
0000
0000
0000
,
0300
0000
0010
2000
0000
3001
0000
0010
0100
0000
0010
0000
0100
0000
1000
0000
,
0010
0100
0000
0001
0000
1000
0000
0001
0000
0010
0000
0200
0000
0000
0000
0000
,
2300
0000
3002
0000
,
0203
0000
0000
0000
0000
0000
0000
0000
0320
0000
0000
0000
0230
0000
0000
1300
,
0000
0100
0000
0001
0000
0010
0000
0100
0000
0010
0000
0002
1000
0000
0000
0103
,
0000
0010
0000
1000
0000
0100
0000
0010
0000
2000
0000
0000
3010
0002
0000
0000
,
0103
0010
1000
0100
0010
0000
0100
1000
0000
0010
0000
0001
0020
0000
0000
0000
,
0130
0001
0010
0100
1000
0000
0100
0001
0000
1000
0000
0010
0000
0001
0000
2000
,
0000
0000
3001
0100
0010
0100
0001
1000
0100
0000
0100
0010
0000
0002
0000
0000
,
0103
0000
0010
1000
0001
0100
0010
0100
1000
0000
0100
0001
0000
0020
0000
0000
,
0130
0010
0001
0100
0010
0000
1000
0001
0000
0010
0000
1000
0000
0010
0000
0000
,
0100
1000
0010
1000
0001
0000
0010
0001
0000
0100
0000
0010
0000
1000
0000
0001
,
0010
0000
0010
0100
1000
0200
0000
0000
0310
0000
0010
0001
1000
0002
0000
0000
,
0103
0000
0000
0000
0100
0000
0010
0000
1000
0000
0020
0000
0000
0000
0000
0000
0130
0000
0000
0000
0100
0000
0001
0000
1000
0000
0001
0000
0010
0100
0010
0000
,
0001
0000
0001
1000
0010
0200
0000
0000
0310
0000
0010
0100
0001
2000
0000
0000
,
3100
0000
0100
1000
0010
0200
0000
0000
0301
0010
0100
1000
0000
0010
0100
0001
,
2002
3003
0000
0000
,
0000
0000
M000
0000
;

//---------------dance-single - Loodee----------------
#NOTES:
     dance-single:
     Loodee:
     Hard:
     9:
     0.562438,0.551059,0.216651,0.590186,0.679835,527.000000,498.000000,29.000000,79.000000,0.000000,0.000000,0.562438,0.551059,0.216651,0.590186,0.679835,527.000000,498.000000,29.000000,79.000000,0.000000,0.000000:
0000
0000
0000
0000
,
0000
0000
0000
0000
,
1000
0000
0001
0010
0000
0002
0000
0000
1003
0000
0100
0000
1000
0000
0010
0000
,
0000
0000
0010
0100
0000
0002
0000
0000
1003
0000
0100
0000
0100
0000
0000
0000
,
0010
0000
0100
0010
0000
0002
0000
0000
1003
0000
1000
0000
0100
0000
0100
0000
,
0010
0000
0000
0000
0001
0000
0000
0000
1000
0000
0000
0000
0001
0000
0000
0000
0000
0000
0000
0000
0000
0200
0000
0000
0000
0000
0000
0320
0000
0000
0000
0000
0000
0000
0000
0000
2030
0000
0000
0000
0000
0000
0000
0000
0000
0000
0000
0000
,
3100
0000
0010
0002
0000
0000
0013
0000
0100
0000
1000
0000
0010
0000
1000
0000
,
0000
0000
0001
0200
0000
0000
0310
0000
1000
0000
0100
0000
0100
0000
0000
0000
,
1000
0000
0001
0020
0000
0230
0000
0000
1300
0000
0001
0000
0100
0000
0001
0000
,
0101
0000
0000
0000
0001
0000
1001
0000
0000
1001
0000
0000
1100
0000
0000
0000
,
0100
0000
0000
0010
0100
0000
1000
0000
0001
0000
0100
0000
0020
0000
0000
0000
,
0130
0000
0000
0001
0100
0000
0010
0000
2000
0000
0000
0000
3100
0000
0010
0001
,
0000
0100
0000
0010
0000
1000
0000
0100
0000
1000
0000
0020
0000
0000
0000
0130
,
0000
0001
0000
1000
0000
0010
0000
1000
0000
0100
0000
0000
0010
0002
0000
0000
,
1003
0010
1000
0010
1000
0000
0000
0001
0000
0010
0000
0200
0000
0000
0000
0300
,
1000
0001
1000
0001
1000
0000
0000
0010
0000
1000
0000
0001
0000
1000
0000
0200
,
0000
0000
0310
0001
0010
0000
0100
0000
1000
0000
0001
0000
0200
0000
0000
0000
,
0310
0000
1000
0001
1000
0000
0100
0000
0010
0000
0001
0000
0010
0000
0001
0000
,
0100
0010
0100
0010
0100
0000
0000
0001
0000
0010
0000
1000
0000
0010
0000
0000
,
0001
1000
0001
1000
0001
0000
0000
0010
0000
0001
0000
0100
0000
0010
0000
1000
,
0001
0000
0000
0100
0001
0000
1000
0000
0100
0000
0000
0010
0100
0000
1000
0000
,
0001
0000
0000
0100
0001
0000
1000
0000
0010
0000
0000
1000
0010
0000
0100
0000
,
0001
0000
0000
0010
0001
0000
0010
0000
0100
0000
0000
1000
0100
0000
0010
0000
,
0001
1000
0001
1000
0010
0100
0001
1000
,
2002
0000
0000
3003
0000
1000
0001
0000
0020
0000
0000
0130
0000
0000
0100
0000
,
2002
0000
0000
3003
0000
0001
1000
0000
0020
0000
0000
0130
0000
0000
0100
0000
,
2002
0000
0000
3003
0000
0001
0010
0000
0200
0000
0000
1300
0000
0000
1000
0000
,
2002
0000
0000
3003
0000
1000
0010
0000
0200
0000
0000
0301
0000
0000
0001
0000
,
2002
0000
0000
3003
0000
1000
0100
0000
2200
0000
0000
3300
0000
0001
0100
0000
,
0202
0000
0000
0303
0000
0001
1000
0000
2002
0000
0000
3003
0000
1000
0001
0000
,
0101
0100
0010
1000
1010
0010
0100
0001
,
0020
0000
0000
0000
0000
0000
0000
0000
0000
0000
0000
0030
0110
0000
0000
0000
,
1001
0000
1000
0001
0000
1000
0000
0002
0000
0013
0100
0010
0000
0002
0000
0000
,
0103
0000
0000
0010
0000
0100
0000
0000
0002
0000
2003
0000
3200
0000
0000
0300
,
2100
0000
0000
0000
3001
0100
0001
0000
0102
0000
0000
0000
1003
0100
1000
0100
,
0000
0100
0010
0001
0100
0010
2010
0000
,
3001
0000
0010
0100
0000
0010
0000
0002
0000
1003
0010
1000
0000
0001
0000
0000
,
0010
0001
0010
0001
0000
0000
0100
0000
0010
1000
0010
0000
0100
0000
0001
0000
,
2001
0000
0000
0000
3010
0100
0010
0000
1002
0000
0000
0000
0013
0100
0010
0000
,
0002
0000
0103
0010
1000
0001
0011
0000
,
0002
0000
0000
0000
0000
0000
0000
0000
0000
0000
0000
0000
0000
0000
1003
0010
,
1000
0000
0000
0100
0000
0010
0000
0000
0002
0000
0103
0000
0001
1000
0001
0000
,
2001
0000
0000
0000
3100
0010
0100
0000
1002
0000
0000
0000
0103
0010
0100
0010
,
0000
0010
1000
0001
0010
0100
2000
0000
,
3010
0000
0100
0001
0000
0100
0000
0020
0000
1030
0001
1000
0000
0020
0000
0000
,
2030
0000
0000
0001
0000
0000
0100
0000
0000
3001
0000
0000
0100
0000
0010
0000
,
1020
0000
0000
0000
0130
0001
0100
0000
0102
0000
0000
0000
1003
0100
1000
0000
,
0001
0010
0100
1000
0010
1000
1001
0000
,
0001
0000
0100
0010
0000
0200
0000
0000
0301
0000
1000
0000
0001
0000
0010
0000
,
0000
0000
0100
1000
0000
0200
0000
0000
0310
0000
0001
0000
0010
0000
0000
0000
,
0001
0000
1000
0010
0000
2000
0000
0000
3001
0000
0001
0000
0010
0000
0010
0000
,
0001
0010
0000
0100
0000
1000
0000
0100
0000
0010
0000
0002
0000
0000
0000
0000
,
0103
0000
0010
2000
0000
0000
3010
0000
0100
0000
0001
0000
1000
0000
0001
0000
,
0000
0000
0100
0020
0000
0000
0130
0000
0001
0000
1000
0000
1000
0000
0000
0000
,
0100
0000
0010
0002
0000
0023
0000
0000
0031
0000
1000
0000
0001
0000
0100
0000
,
0010
1000
0000
0001
0000
1000
0000
0001
0000
0010
0000
0100
0000
0000
0000
0000
,
2000
0000
3020
0000
,
0230
0000
0302
1003
,
1001
0000
0000
0001
0000
0010
0000
0001
0000
1000
0000
0020
0000
0000
0000
0130
,
0000
0001
0000
1000
0000
0100
0000
0010
0000
0100
0000
0000
0010
0200
0000
0000
,
1300
0001
1000
0001
0100
0000
0000
0010
0000
1000
0000
0002
0000
0000
0000
0000
,
0013
0100
0010
0100
1000
0000
0000
0010
0000
0100
0000
0001
0000
1000
0000
0200
,
0000
0000
0310
0001
0010
0000
0001
0000
0100
0000
0010
0000
2000
0000
0000
0000
,
3010
0000
0100
0001
0100
0000
0010
0000
1000
0000
0100
0000
0010
0000
0001
0000
,
1000
0001
1000
0001
0100
0000
0000
0010
0000
1000
0000
0001
0000
0010
0000
0000
,
0100
1000
0100
1000
0001
0000
0000
0100
0000
0010
0000
1000
0000
0001
0000
0010
,
0100
0000
0000
1000
0100
0000
1000
0000
0001
0000
0000
0100
0001
0000
0010
0000
,
0100
0000
0000
0010
0100
0000
1000
0000
0010
0000
0000
0100
0010
0000
0100
0000
,
0001
0000
0000
1000
0001
0000
0010
0000
0100
0000
0000
1000
0100
0000
0010
0000
,
0001
0100
0001
0100
0010
1000
0100
0010
,
0022
0033
0000
0000
;

//---------------dance-single - Loodee----------------
#NOTES:
     dance-single:
     Loodee:
     Medium:
     6:
     0.429032,0.419854,0.059766,0.433301,0.235328,402.000000,394.000000,8.000000,58.000000,0.000000,0.000000,0.429032,0.419854,0.059766,0.433301,0.235328,402.000000,394.000000,8.000000,58.000000,0.000000,0.000000:
0000
0000
0000
0000
,
0000
0000
0000
0000
,
2000
0000
0000
0000
3100
0010
0100
1000
,
0000
0000
0001
0000
0000
0100
0000
0000
0001
0000
1000
0000
0001
0000
0000
0000
,
0020
0000
0000
0000
0130
1000
0001
1000
,
0020
0000
0000
0000
0000
0000
0000
0130
0000
0001
0000
0000
0002
0000
0000
0000
,
1003
0000
0100
2000
0000
0000
0000
0000
3001
0000
0100
0000
0001
0000
0100
0000
,
0000
0000
0001
2000
0000
0000
0000
0000
3001
0000
0010
0000
0001
0000
0000
0000
,
0000
0000
0001
0200
0000
0000
0000
0000
0310
0000
1000
0000
0001
0000
0000
0000
,
1001
0000
0000
0000
1000
0000
0010
0000
0000
1010
0000
0000
1001
0000
0000
0000
,
0001
0000
0001
0100
0010
1000
0200
0000
,
0310
0000
0000
0000
0010
0000
0100
0000
1000
0000
0010
0000
1000
0000
0000
0001
,
0000
0010
0000
0001
0000
0010
0000
0100
0000
1000
0000
0100
0000
0000
0000
1000
,
0000
0001
0000
1000
0000
0001
0000
0100
0000
0010
0000
0000
0200
0000
0000
0000
,
0301
0001
1000
0100
0010
0100
0020
0000
,
0031
0001
1000
0010
1000
0100
0010
0001
,
0100
0000
0010
0010
1000
0001
2000
0000
,
3100
0000
0010
0010
0001
0100
0001
1000
,
0010
0010
0100
0001
1000
0100
0020
0000
,
0031
0001
1000
0010
0100
0001
1000
0100
,
0010
0000
0010
0001
1000
0000
1000
0001
,
0100
0000
0100
0010
1000
0000
1000
0100
,
0100
0000
0100
0010
0001
0000
0001
0100
,
0020
0000
0000
1030
0000
0001
0000
1000
0000
0001
0000
0010
0000
0100
0000
0000
,
2002
3003
0001
1000
,
2200
3300
1000
0001
,
0202
0303
0001
0010
,
0220
0330
0100
1000
,
0020
0000
0130
0001
0020
0000
0130
1000
,
0020
0000
0130
0001
0020
0000
0130
1000
,
0001
0100
0001
0010
0001
0100
0001
1000
,
0020
0000
0000
0000
0000
0030
1001
0000
,
0001
0000
0000
1000
0000
0010
0000
1000
0000
0000
0000
0000
0001
0000
0000
0000
,
0010
0000
0000
0100
0000
0010
0000
0000
0001
0000
1000
0000
0020
0000
0000
0000
,
0230
0000
0000
0000
0301
0000
0010
0000
0200
0000
0000
0000
1300
0000
0000
0100
,
0000
0100
0010
0001
1000
0100
0020
0000
,
0031
0000
0000
0100
0000
0010
0000
0100
0000
0000
0000
0000
0001
0000
0000
0000
,
1000
1000
0010
1000
0100
0010
0001
0100
,
0020
0000
1030
0100
0020
0000
0130
1000
,
0001
0100
0010
1000
0001
0100
0020
0000
,
2030
0000
0000
0000
0000
0000
0000
3001
,
0010
0000
0000
0100
0000
1000
0000
0000
0001
0000
0100
0000
0020
0000
0000
0000
,
0230
0000
0000
0000
0301
0000
0010
0000
0200
0000
0000
0000
1300
0000
0000
0100
,
0000
0100
0010
0001
0100
0010
2000
0000
,
3001
0100
0010
1000
0010
0100
0001
0010
,
0200
0000
0000
1000
0000
0000
1000
0000
0000
1000
0000
0000
0310
0000
0001
0000
,
0020
0000
0130
1000
0020
0000
0130
0001
,
1000
0100
0010
0001
1000
0100
0010
0000
,
0200
0000
0000
0000
1300
0001
1000
0010
,
0000
0000
0100
0000
0000
0001
0000
0000
1000
0000
0010
0000
1000
0000
0000
0000
,
0002
0000
0000
0000
0013
0100
0010
0001
,
0200
0000
0000
0000
0000
0000
0000
0310
0000
1000
0000
2000
0000
0000
0000
0000
,
3001
0000
1000
0002
0000
0000
0000
0000
0013
0000
0100
0000
0010
0000
0100
0000
,
0000
0000
1000
0200
0000
0000
0000
0000
0310
0000
0001
0000
0010
0000
0000
0000
,
0001
0000
1000
0020
0000
0000
0000
0000
0130
0000
0010
0000
1000
0000
0000
0000
,
0001
0000
0000
0000
0000
0000
0000
0010
0000
0100
0000
0010
0000
0000
0000
0000
,
0002
0000
2003
0000
,
3020
0000
0000
0000
0000
0000
0000
0000
0230
0000
0000
0000
0301
0000
0000
0010
,
0000
0001
0000
0010
0000
0100
0000
1000
0000
0100
0000
1000
0000
0000
0000
0010
,
0000
0100
0000
0010
0000
1000
0000
0001
0000
1000
0000
0000
0200
0000
0000
0000
,
0310
0010
0001
0100
0010
1000
0002
0000
,
0013
0010
0100
1000
0010
0100
0001
0010
,
0100
0000
0010
0010
0001
1000
0002
0000
,
0103
0000
0010
0010
1000
0010
1000
0100
,
0010
0010
0001
1000
0001
0100
0020
0000
,
1030
1000
0001
1000
0100
0010
0002
0000
,
0103
0000
0100
0010
1000
0000
1000
0001
,
0010
0000
0010
0100
1000
0000
1000
0001
,
0001
0000
0001
0010
0100
0000
0100
0010
,
0001
1000
0001
0100
0010
1000
0100
1000
,
0020
0030
0000
0000
;

//---------------dance-single - Loodee----------------
#NOTES:
     dance-single:
     Loodee:
     Easy:
     4:
     0.265744,0.314891,0.112061,0.381006,0.003735,249.000000,234.000000,15.000000,51.000000,0.000000,0.000000,0.265744,0.314891,0.112061,0.381006,0.003735,249.000000,234.000000,15.000000,51.000000,0.000000,0.000000:
0000
0000
0000
0000
,
0000
0000
0000
0000
,
0002
0000
0000
0103
,
0000
0001
0000
0000
1000
0000
1000
0000
,
0200
0000
0000
0310
,
0001
0000
0000
1000
,
0020
0000
0130
0001
,
0000
0010
0000
0000
0100
0000
0100
0000
,
1000
0000
0000
0000
,
1001
0000
0000
0101
0000
0000
1001
0000
,
1000
0000
1000
0000
1000
0100
0010
0000
,
0001
0000
0001
0000
0001
0100
0001
0100
,
0001
0000
1000
0000
0010
0100
0010
0000
,
1000
0000
0100
0000
1000
0001
1000
0000
,
0100
0100
0100
0000
0010
0000
0001
0000
,
0100
0100
0100
0000
0001
0000
1000
0000
,
0001
0000
0010
0100
0010
0000
0001
0000
,
0000
0000
1000
0010
0100
0000
0001
0000
,
1000
1000
1000
0000
0001
0000
1000
0000
,
0100
0100
0100
0000
1000
0000
0001
0000
,
0200
0000
0320
0000
,
2030
0000
3200
0000
,
0320
0000
0230
0000
,
1300
0000
0001
0000
1000
0001
1000
0001
,
2000
3000
0000
0000
,
2002
3003
0000
0000
,
0202
0303
0000
0000
,
2200
3300
0000
0000
,
0002
0003
2000
3000
,
0200
0300
2000
3000
,
0001
1000
0001
0000
0010
0100
0010
0000
,
0000
0000
0000
1001
,
1000
0000
0001
0100
0010
0000
1000
0000
,
0001
0000
1000
0100
1000
0000
0010
0000
,
2002
3003
2002
3003
,
0001
0000
0001
0100
0001
0000
1000
0000
,
0100
0000
0010
0100
1000
0000
0001
0000
,
0100
0100
0010
1000
,
0220
0330
0220
0330
,
0001
0010
0001
0010
0001
0000
1000
0000
,
0200
0000
0000
0000
,
1300
0001
0100
0100
,
0202
0303
0202
0303
,
0001
0000
0001
0010
0100
0000
1000
0000
,
0100
0000
1000
0001
1000
0000
0010
0000
,
0100
0100
0100
0100
,
2020
3030
2020
3030
,
1000
0001
1000
0001
1000
0000
0100
0000
,
2000
0000
0000
3100
,
0000
0010
0000
0000
0001
0000
0001
0000
,
0200
0000
0000
0310
,
1000
0000
0000
0001
,
0020
0000
0130
0010
,
0000
0001
0000
0000
1000
0000
1000
0000
,
0010
0000
0000
0000
,
1000
0000
0000
0000
0000
0000
0000
0001
0000
0000
0000
0000
0000
0000
0000
0000
,
2000
0000
3200
0000
,
0320
0000
0032
1003
,
1000
0000
0010
0000
0100
0010
0100
0000
,
0001
0000
1000
0000
0001
1000
0001
0000
,
0010
0010
0010
0000
0100
0000
0010
0000
,
0001
0001
0001
0000
1000
0000
0010
0000
,
0100
0000
0001
1000
0001
0000
0010
0000
,
0000
0000
0100
1000
0001
0000
1000
0000
,
0010
0010
0010
0000
1000
0000
0001
0000
,
1000
1000
1000
0000
0100
0000
0010
0000
,
2000
0000
3002
0000
,
0023
0000
0032
0000
,
0203
0000
0320
0000
,
1030
0000
0100
0000
1000
0100
1000
0100
,
0020
0030
0000
0000
;

//---------------dance-single - Loodee----------------
#NOTES:
     dance-single:
     Loodee:
     Beginner:
     2:
     0.083245,0.157445,0.029883,0.022412,0.000000,78.000000,74.000000,4.000000,3.000000,0.000000,0.000000,0.083245,0.157445,0.029883,0.022412,0.000000,78.000000,74.000000,4.000000,3.000000,0.000000,0.000000:
0000
0000
0000
0000
,
0000
0000
0000
0000
,
1000
0000
0000
0000
,
0000
0000
0000
0000
,
0001
0000
0000
0000
,
0000
0000
0000
0000
,
0010
0000
0000
0000
,
0000
0000
0000
0000
,
0001
0000
0000
0000
,
1001
0000
0000
0000
,
1000
0000
0000
0000
,
0010
0000
0000
0000
,
1000
0000
0000
0000
,
0001
0000
0000
0000
,
0010
0000
0000
0000
,
0010
0000
0000
0000
,
0100
0000
0000
0000
,
1000
0000
0000
0000
,
0001
0000
0000
0000
,
0001
0000
0000
0000
,
0100
0000
0000
0000
,
0010
0000
0000
0000
,
1000
0000
0000
0000
,
0100
0000
0100
0000
,
0010
0000
0000
0000
,
1001
0000
0000
0000
,
1001
0000
0000
0000
,
1001
0000
0000
0000
,
0001
0000
0001
0000
,
1000
0000
1000
0000
,
0002
0000
0000
0000
,
0003
0000
0000
0000
,
0001
0000
0000
0000
,
1000
0000
0000
0001
,
0001
0000
0001
0000
,
0000
0000
0000
1000
,
1000
0000
0000
0000
,
0001
0000
0000
1000
,
1000
0000
1000
0000
,
1000
0000
0000
0010
,
0010
0000
0000
0000
,
0100
0000
0000
0001
,
0001
0000
0001
0000
,
0000
0000
0000
0010
,
0010
0000
0000
0000
,
0001
0000
0000
1000
,
1000
0000
1000
0000
,
1000
0000
0000
0000
,
0010
0000
0000
0000
,
0000
0000
0000
0000
,
0100
0000
0000
0000
,
0000
0000
0000
0000
,
0001
0000
0000
0000
,
0000
0000
0000
0000
,
1000
0000
0000
0000
,
0100
0000
0000
0000
,
2000
0000
0000
0000
,
0000
0000
0000
3000
,
0001
0000
0000
0000
,
0010
0000
0000
0000
,
0001
0000
0000
0000
,
0001
0000
0000
0000
,
0100
0000
0000
0000
,
0010
0000
0000
0000
,
1000
0000
0000
0000
,
1000
0000
0000
0000
,
0100
0000
0000
0000
,
0010
0000
0000
0000
,
0100
0000
0000
0000
,
1000
0000
0001
0000
,
2000
3000
0000
0000
;
