#TITLE:The Oathkeeper;
#SUBTITLE:(feat. Pipo Fernandez);
#ARTIST:Auvic;
#TITLETRANSLIT:;
#SUBTITLETRANSLIT:;
#ARTISTTRANSLIT:;
#GENRE:EDM;
#CREDIT:;
#BANNER:The Oathkeeper-bn.png;
#BACKGROUND:The Oathkeeper-bg.png;
#LYRICSPATH:;
#CDTITLE:cd-title-Benpai.png;
#MUSIC:The Oathkeeper.ogg;
#OFFSET:0.009000;
#SAMPLESTART:52.488998;
#SAMPLELENGTH:15.000000;
#SELECTABLE:YES;
#DISPLAYBPM:128.000000;
#BPMS:0.000000=128.000000
,244.000000=192.000000
,244.750000=64.000000
,245.000000=128.000000
,250.000000=192.000000
,250.750000=64.000000
,251.000000=128.000000
,260.000000=192.000000
,260.750000=64.000000
,261.000000=128.000000
,266.000000=192.000000
,266.750000=64.000000
,267.000000=128.000000
,276.000000=192.000000
,276.750000=64.000000
,277.000000=128.000000
,283.000000=192.000000
,283.750000=64.000000
,284.000000=128.000000
,292.000000=192.000000
,292.750000=64.000000
,293.000000=128.000000
;
#STOPS:
;
#BGCHANGES:;
#KEYSOUNDS:;
#ATTACKS:;

//---------------dance-single - Benpai----------------
#NOTES:
     dance-single:
     Benpai:
     Challenge:
     11:
     0.635822,0.729903,0.088742,0.641673,0.836223,652.000000,639.000000,13.000000,94.000000,10.000000,0.000000,0.635822,0.729903,0.088742,0.641673,0.836223,652.000000,639.000000,13.000000,94.000000,10.000000,0.000000:
// measure 0
0000
0000
0000
0000
,  // measure 1
0000
0000
0000
0000
,  // measure 2
0000
0000
0000
0000
,  // measure 3
0000
0000
0000
0000
,  // measure 4
1000
0000
0100
0000
1100
0000
1000
0000
0001
0100
0000
0100
0010
0000
1000
0000
,  // measure 5
0001
0000
0010
0000
0011
0000
0001
0000
0100
0010
0000
0010
1000
0000
0001
0000
,  // measure 6
0010
0000
0100
0000
0110
0000
0010
0000
0001
1000
0000
1000
0010
0000
0100
0000
,  // measure 7
0001
0000
1000
0000
1001
0000
0001
0000
0010
0100
0000
0100
1000
0000
0001
0000
,  // measure 8
0100
0000
0010
0000
1010
0000
1000
0000
0001
1000
0000
1000
0100
0000
0010
0000
,  // measure 9
0100
0000
1000
0000
1001
0000
0001
0000
0100
0010
0000
0010
1000
0000
0100
0000
,  // measure 10
1000
0000
0001
0000
0101
0000
0100
0000
0010
1000
0000
1000
0001
0000
0010
0000
,  // measure 11
0100
0000
1000
0000
1100
0000
0100
0000
0010
0001
0000
0001
1000
0000
0010
0000
,  // measure 12
0200
0000
0000
0320
0000
2030
0000
3002
0000
0013
0100
0000
0020
0000
0032
0000
,  // measure 13
2003
0000
0000
3020
0000
0000
0032
0000
0000
0023
0000
0000
0230
0000
0000
0000
,  // measure 14
0301
1000
0000
0100
0000
0010
0000
0002
0000
0000
1003
0000
0010
0000
0100
0002
,  // measure 15
0000
0000
1000
0000
1003
0000
0000
0000
0000
0100
0000
1000
0001
0000
0100
0000
,  // measure 16
0020
0000
2030
0000
3001
0000
0010
0200
0000
0000
1300
0000
0010
0000
1000
0000
,  // measure 17
0002
0000
0000
0023
0000
0230
0000
0302
0000
0203
0000
0320
0000
0030
0001
0000
,  // measure 18
1000
0000
0001
0000
0100
0000
0010
2000
0000
3001
0000
0100
0000
0001
0000
2000
,  // measure 19
0000
0000
0000
0000
0000
0000
0000
3000
,  // measure 20
1002
0000
0000
0000
0000
0000
0000
0000
1003
0010
0000
1000
0001
0000
0010
0000
,  // measure 21
0100
0000
0100
1000
0000
0001
0000
0100
0000
0010
0000
0100
0001
0000
0010
0100
,  // measure 22
1000
0000
1000
0000
0000
0000
0000
0000
0001
0100
0000
0010
0100
0000
0001
1000
,  // measure 23
0010
0000
0010
0100
0000
0001
0000
1000
0000
0100
0000
0010
0000
1000
0000
0010
,  // measure 24
0100
0000
1000
0000
0000
0000
0000
0000
0001
0100
0000
0001
1000
0000
0100
0000
,  // measure 25
0010
0010
0001
1000
0010
0100
0100
0001
,  // measure 26
1000
0000
1000
0000
0000
0000
0000
0000
0010
1000
0000
0001
0010
0000
0100
0000
,  // measure 27
1000
0000
1000
0000
0001
0000
0100
0010
1000
0000
0001
0010
0000
0100
1000
0000
,  // measure 28
2001
0000
0000
0000
3010
0000
0100
0001
1000
0000
0100
0010
0100
0000
1000
0100
,  // measure 29
0010
0000
0000
0000
0001
1000
0001
1000
0001
0000
0200
0000
0000
0000
0310
0000
1000
0000
0000
0000
0001
0000
0000
0000
1000
0000
0000
0000
0100
0000
0010
0000
,  // measure 30
0001
0000
0001
0000
1000
0010
1000
0001
0100
0020
0000
0130
0002
0000
2003
0000
,  // measure 31
3100
0000
0010
0000
0010
0002
0000
1003
0010
0100
0000
0010
0100
0000
0001
0000
,  // measure 32
1200
0000
0000
0000
0310
0000
0001
1000
0010
0100
0001
1000
0100
0000
1000
0001
,  // measure 33
0020
0000
0000
0000
0130
0000
1000
0000
0100
0000
0000
0000
1000
0000
0010
0000
0200
0000
0000
0000
0301
0000
0000
0000
1000
0000
0001
1000
0001
0000
0010
0000
,  // measure 34
0100
0000
0100
0000
1000
0010
0100
0001
0100
0010
0000
1000
0001
0000
0010
0000
,  // measure 35
2000
0000
3010
0100
1000
0020
0000
0130
0000
0001
1000
0100
0000
0010
0000
0100
,  // measure 36
1000
0001
0002
0000
0003
0010
0020
0000
,  // measure 37
0030
0000
0001
0000
1000
0000
0010
0002
0000
0000
0000
0000
0013
0000
0100
0002
,  // measure 38
0000
0003
0001
0000
0100
0000
0010
2000
0000
0000
3000
0000
0100
0000
0010
0002
,  // measure 39
0000
0000
0103
0000
0100
0000
0010
2000
0000
0000
0000
0000
3200
0000
0000
0000
,  // measure 40
1300
0000
0001
0000
0002
0000
0000
0000
0003
0000
0010
0000
0020
0000
0130
2000
,  // measure 41
0000
0000
3001
0200
0000
0000
0301
0020
0000
0000
0000
0030
0100
0000
1000
0002
,  // measure 42
0000
0000
0103
0000
1000
0000
0100
0020
0000
0000
0000
0000
0000
0000
0000
M030
,  // measure 43
000M
0000
0M00
0000
0M00
0000
00M0
M000
0000
000M
0000
00M0
0000
0M00
M000
0000
,  // measure 44
0001
0000
0100
0000
0010
1000
0001
1000
0001
0010
0100
1000
0001
1000
0010
0200
,  // measure 45
0000
0000
0000
0301
0000
1000
0000
0100
0020
0000
1030
0010
0100
1000
0001
0100
,  // measure 46
0020
0000
0000
0000
1030
0000
0001
0000
0010
0000
0100
1000
0100
0000
1000
0000
0001
0000
0100
0000
0000
0000
0010
0000
0000
0000
0100
0000
0001
0000
0000
0000
,  // measure 47
2000
0000
3100
0000
0010
0000
0001
0100
0010
0100
0000
0001
0000
1000
0100
0000
,  // measure 48
0020
0000
0031
0000
1000
0010
0100
0010
0100
0001
1000
0100
0010
0100
1000
0002
,  // measure 49
0000
0000
0000
1003
0000
0010
0000
0100
0020
0000
0031
0010
0100
0001
1000
0100
,  // measure 50
0020
0000
0000
0000
0130
0000
1000
0000
0001
0000
1000
0100
1000
0000
0001
0000
0100
0000
0010
0000
0000
0000
0100
0000
0000
0000
0001
0000
0010
0000
0000
0000
,  // measure 51
0002
0000
1003
0000
0010
0000
0100
0001
0010
0100
0000
1000
0000
0010
1000
0000
,  // measure 52
2010
0000
3001
0000
1000
0100
0010
0100
0010
0001
1000
0010
0100
0001
0100
0010
,  // measure 53
2000
0000
0000
3100
0000
0010
0000
0100
0020
0000
1030
0010
0100
0010
0001
1000
,  // measure 54
0010
0000
0000
0000
0100
0000
0000
0000
0001
0000
1000
0001
1000
0000
0010
0000
0100
0000
0001
0000
0000
0000
0100
0000
0000
0000
0010
0000
1000
0000
0000
0000
,  // measure 55
0002
0000
1003
0100
1000
0000
0010
0100
0001
1000
0000
0100
0000
1000
0001
0000
,  // measure 56
2000
0000
3100
0000
0010
0001
1000
0001
1000
0010
0100
0001
0010
0100
1000
0001
,  // measure 57
2000
0000
3001
0010
0000
0100
0000
1000
0020
0000
0031
0010
0100
0001
1000
0100
,  // measure 58
0010
0000
0000
0000
0100
0000
0000
0000
1000
0000
0001
1000
0001
0000
0100
0000
0010
0000
1000
0000
0000
0000
0100
0000
0000
0000
0100
0000
0010
0000
0000
0000
,  // measure 59
0002
0000
2003
0000
3200
0000
0310
0100
1000
0001
0000
0100
0000
0010
1000
0000
,  // measure 60
2001
0000
0000
0000
0000
0000
0000
0000
3004
0000
0000
0000
0000
0000
0000
0000
0100
0000
0000
0000
0000
0000
1003
0000
0100
0000
0000
0000
1000
0001
1000
0001
,  // measure 61
0200
0000
0000
0000
0310
0000
1000
0100
0010
0000
0100
1000
0001
0000
0100
0010
,  // measure 62
4000
0000
0001
0000
3200
0000
0310
0010
,  // measure 63
0001
0000
1000
0010
2000
0000
3200
0000
0302
0000
0203
0000
0310
0001
0000
1000
,  // measure 64
0040
0000
0000
0000
0100
0000
0000
0000
1000
0000
0000
0130
0002
0000
0000
0000
,  // measure 65
2003
0000
0000
0000
3100
0000
0100
0010
0001
0000
1000
0000
0010
0000
1000
0001
,  // measure 66
0400
0000
0000
0000
0010
0000
0000
0000
0302
0000
0000
0000
1003
0000
0100
0020
,  // measure 67
0000
0030
0010
0001
1000
0000
0010
0100
0001
0000
2000
0000
3100
0010
0000
0001
,  // measure 68
2000
0000
0000
0000
0000
0000
0000
0000
3004
0000
0000
0000
0000
0000
0000
0000
0010
0000
0000
0000
0000
0000
1003
0000
0010
0000
0000
0000
1000
0001
1000
0001
,  // measure 69
0200
0000
0000
0000
0310
0000
1000
0100
0010
0000
0100
1000
0001
0000
0100
0010
,  // measure 70
4000
0001
3200
0320
,  // measure 71
0031
0000
1000
0100
2000
0000
3020
0000
0032
0000
0023
0000
0130
0001
0000
1000
,  // measure 72
0004
0000
0000
0000
0100
0000
0000
0000
1000
0000
0000
0013
0200
0000
0000
0000
,  // measure 73
2300
0000
0000
0000
3001
0000
0100
0010
1000
0000
0001
0000
0010
0000
0100
1000
,  // measure 74
0040
0000
0100
0000
2030
0000
3010
0100
,  // measure 75
0001
0000
1000
0100
0000
0010
0000
0001
1000
0010
0000
0100
0001
0000
1000
0100
,  // measure 76
0020
0000
0000
0030
0000
0000
0000
0000
;

//---------------dance-single - Benpai----------------
#NOTES:
     dance-single:
     Benpai:
     Hard:
     9:
     0.510023,0.547427,0.034132,0.402752,0.498321,523.000000,518.000000,5.000000,59.000000,10.000000,0.000000,0.510023,0.547427,0.034132,0.402752,0.498321,523.000000,518.000000,5.000000,59.000000,10.000000,0.000000:
// measure 0
0000
0000
0000
0000
,  // measure 1
0000
0000
0000
0000
,  // measure 2
0000
0000
0000
0000
,  // measure 3
0000
0000
0000
0000
,  // measure 4
1000
0100
1000
0001
0100
0010
1000
0001
,  // measure 5
0010
0001
1000
0010
0100
0001
0010
0100
,  // measure 6
1000
0001
0100
0010
0100
0001
1000
0100
,  // measure 7
0010
0100
1000
0001
1000
0010
0100
0001
,  // measure 8
1000
0010
0100
0010
1000
0001
0010
0001
,  // measure 9
1000
0010
0100
0001
1000
0100
0010
0100
,  // measure 10
1000
0001
0100
0001
1000
0100
1000
0010
,  // measure 11
0100
0010
1000
0001
0010
0100
1000
0010
,  // measure 12
0100
0000
0000
0100
0000
0100
0000
0002
0000
0000
1003
0000
0100
0000
0010
0000
,  // measure 13
0001
0000
0000
0001
0000
0000
0100
0000
0000
0010
0000
0000
1000
0000
0000
0000
,  // measure 14
0001
1000
0000
0100
0000
1000
0000
0001
0000
0000
0001
0000
0010
0000
0001
2000
,  // measure 15
0000
0000
0000
0000
0000
0000
0000
0000
0000
3010
0000
0000
0100
0000
0001
0000
,  // measure 16
1000
0000
0100
0000
0010
0000
0000
0001
0000
0000
1000
0000
0010
0000
1000
0000
,  // measure 17
0001
0000
0000
0010
0000
0100
0000
0010
0000
0001
0000
2000
0000
0000
0000
0000
,  // measure 18
3100
0000
0100
0000
0010
0000
0001
1000
0000
1000
0000
0010
0000
0100
0000
0002
,  // measure 19
0000
0000
0000
0000
0000
0000
0000
0003
,  // measure 20
2100
0000
0000
0000
0000
0000
0000
0000
3001
1000
0000
0000
0010
0000
0100
0000
,  // measure 21
0001
0000
1000
0000
0000
1000
0000
0100
0000
0100
0000
1000
0001
0000
0100
0000
,  // measure 22
0010
0000
0010
0000
0000
0000
0000
0000
1000
0100
0000
0000
1000
0000
0001
0000
,  // measure 23
0100
0000
0100
0000
0000
0001
0000
1000
0000
1000
0000
0100
0000
0020
0000
0000
,  // measure 24
0130
0000
0100
0000
0000
0000
0000
0000
0000
1000
0000
0000
0100
0000
1000
0000
,  // measure 25
0010
0010
0100
0001
1000
0100
0100
1000
,  // measure 26
0001
0000
0001
0000
0000
0000
0000
0000
0000
1000
0000
0000
0010
0000
0100
0000
,  // measure 27
0001
0000
0001
0000
1000
0000
0100
0000
0010
0000
0000
0001
0000
0000
1000
0000
,  // measure 28
2001
0000
0000
0000
3010
0000
0000
0000
0100
0000
0001
1000
0100
0000
1000
0020
,  // measure 29
0000
0000
0430
0000
0301
1000
0000
0001
1000
0000
0100
0000
0010
0000
0001
0000
,  // measure 30
0100
0000
0001
0000
1000
0100
0010
0000
0100
1000
0000
0001
1000
0000
1000
0000
,  // measure 31
0010
0000
0010
0000
0100
0002
0000
1003
0010
0000
0100
0000
0001
0000
1000
0000
,  // measure 32
2000
0000
0000
0000
3100
0000
0010
0000
0001
0000
1000
0010
0100
0000
0001
2000
,  // measure 33
0000
0000
3001
1000
0001
0000
0010
0100
0020
0000
0031
0000
1000
0000
0010
0000
,  // measure 34
0100
0000
0001
0000
1000
0001
1000
0000
0100
0010
0000
0100
1000
0000
0001
0000
,  // measure 35
0200
0000
0310
1000
0000
0002
0000
0013
0000
0100
0010
0200
0000
0000
0000
0000
,  // measure 36
1300
0001
0002
0000
0003
0100
0020
0000
,  // measure 37
0030
0000
0100
0000
0001
0000
1000
0002
0000
0000
0000
0000
0013
0000
0000
0010
,  // measure 38
0000
0000
0010
0000
0100
0000
1000
0002
0000
0000
0003
0000
0100
0000
0010
1000
,  // measure 39
0000
0000
0100
0000
0100
0000
1000
0002
0000
0000
0000
0000
0203
0000
0000
0000
,  // measure 40
0000
0000
0301
0000
2000
0000
0000
0000
3000
0000
0010
0000
0020
0000
1030
0002
,  // measure 41
0000
0003
1000
0002
0000
0000
0013
0200
0000
0000
0000
0300
1000
0000
0001
2000
,  // measure 42
0000
0000
3010
0000
0100
0000
0001
1000
0000
0000
0000
0000
0000
0000
0000
M000
,  // measure 43
000M
0000
0M00
0000
0M00
0000
00M0
M000
0000
000M
0000
00M0
0000
0M00
M000
0000
,  // measure 44
0001
0000
0100
0000
0010
1000
0000
1000
0001
0000
0010
0000
0100
0000
1000
0020
,  // measure 45
0000
0000
0000
0130
0000
0001
0000
1000
0002
0000
0013
0000
0100
0000
1000
0000
,  // measure 46
0020
0000
1030
0000
0010
0400
0000
0300
0001
1000
0000
0100
0000
0100
0010
0000
,  // measure 47
0002
0000
1003
0000
0010
0000
0100
0001
1000
0000
0000
0100
0000
1000
0001
0000
,  // measure 48
0200
0000
0310
0000
1000
0001
0000
0001
0010
0000
0100
0000
1000
0000
0010
0200
,  // measure 49
0000
0000
0000
0301
0000
1000
0000
0100
2000
0000
3001
0000
0100
0000
0010
0000
,  // measure 50
0200
0000
0301
0000
1000
0400
0000
0300
0010
0100
0000
1000
0000
1000
0001
0000
,  // measure 51
0200
0000
0310
0000
0100
0000
0001
1000
0100
0000
0000
0010
0000
0100
1000
0000
,  // measure 52
0020
0000
0130
0000
0001
1000
0000
1000
0100
0000
0010
0000
0001
0000
1000
0020
,  // measure 53
0000
0000
0000
0130
0000
0010
0000
1000
0002
0000
0013
0000
0100
0000
1000
0001
,  // measure 54
0010
0000
0100
0000
1000
0004
0000
0003
1000
0010
0000
0100
0000
0010
1000
0000
,  // measure 55
0200
0000
1300
0000
0001
0000
0100
0000
0010
0100
0000
0001
0000
1000
0100
0000
,  // measure 56
2000
0000
3100
0000
0010
0001
0000
0001
1000
0000
0010
0000
0100
0000
0001
2000
,  // measure 57
0000
0000
3000
0100
0000
0010
0000
0001
0020
0000
0130
0000
1000
0000
0001
0100
,  // measure 58
0001
0000
1000
0000
0010
0400
0000
0300
0001
1000
0000
0100
0000
0100
0010
0000
,  // measure 59
0002
0000
2003
0000
3020
0000
0130
0001
1000
0000
0000
0100
0000
1000
0001
0000
,  // measure 60
2001
0000
0000
0000
3040
0000
0000
0000
0430
0000
0000
0301
0000
0000
4000
0000
,  // measure 61
3200
0000
0000
0000
0310
0000
0100
0000
1000
0000
0001
1000
0001
0000
0100
0000
,  // measure 62
0040
0000
4030
0000
3200
0000
0310
0010
,  // measure 63
0001
0000
1000
0010
0100
0000
0001
0000
1000
0000
0200
0000
1300
0001
0000
1000
,  // measure 64
0040
0000
0000
0000
0430
0000
0000
0000
0304
0000
0000
1003
0000
0000
0000
0000
,  // measure 65
2100
0000
3100
1000
0001
0100
0010
1000
,  // measure 66
0400
0000
0000
0000
0340
0000
0000
0000
0032
0000
0000
0000
1003
0000
0010
0100
,  // measure 67
0000
0000
0100
0000
0001
0000
1000
0000
0100
0000
1000
0000
0000
0010
0000
1000
,  // measure 68
0001
0000
0000
0000
0040
0000
0000
0000
0430
0000
0000
1300
0000
0000
0004
0000
,  // measure 69
0203
0000
0000
0000
0310
0000
1000
0000
0001
0000
0010
0100
1000
0000
0100
0000
,  // measure 70
0040
0034
0203
0320
,  // measure 71
1030
0000
0001
1000
0001
0000
0010
0000
0001
0000
1000
0000
0010
1000
0000
0010
,  // measure 72
0400
0000
0000
0000
0304
0000
0000
0000
4003
0000
0000
3100
0000
0000
0000
0000
,  // measure 73
0120
0000
0031
1000
0010
0100
0001
1000
,  // measure 74
0400
4300
3002
0203
,  // measure 75
0310
0000
1000
0001
0000
0010
0000
0100
0000
1000
0000
0001
0100
0000
0001
0000
,  // measure 76
2000
0000
0000
3000
0000
0000
0000
0000
;

//---------------dance-single - Benpai----------------
#NOTES:
     dance-single:
     Benpai:
     Medium:
     6:
     0.380323,0.364952,0.027305,0.484668,0.153592,390.000000,386.000000,4.000000,71.000000,1.000000,0.000000,0.380323,0.364952,0.027305,0.484668,0.153592,390.000000,386.000000,4.000000,71.000000,1.000000,0.000000:
// measure 0
0000
0000
0000
0000
,  // measure 1
0000
0000
0000
0000
,  // measure 2
0000
0000
0000
0000
,  // measure 3
0000
0000
0000
0000
,  // measure 4
1000
0100
1000
0000
0001
0100
0010
0000
,  // measure 5
0100
0001
1000
0000
0100
0010
0001
0000
,  // measure 6
1000
0001
1000
0000
0100
0010
0100
0000
,  // measure 7
1000
0001
0100
0000
0010
1000
0010
0000
,  // measure 8
0100
0001
1000
0000
0100
0010
0100
0000
,  // measure 9
1000
0100
1000
0000
0001
0100
0010
0000
,  // measure 10
0100
0001
1000
0000
0001
0010
0001
0000
,  // measure 11
1000
0001
1000
0000
0010
0100
0001
0000
,  // measure 12
2000
0000
0000
0000
0000
3010
0000
0200
0000
0000
0000
0000
0301
0000
1000
0000
,  // measure 13
0200
0000
0000
0000
0000
0000
0310
0000
0000
0100
0000
0000
1000
0000
0000
0000
,  // measure 14
0002
0000
0000
0000
0000
1003
0000
0002
0000
0000
0000
0000
0013
0000
0000
0200
,  // measure 15
0000
0000
0000
0000
0000
0000
0000
0000
0000
1300
0000
0000
1000
0000
0000
0000
,  // measure 16
0001
0000
0100
0000
0010
0000
0000
0200
0000
0000
0000
0000
0310
0000
1000
0000
,  // measure 17
0002
0000
0000
0000
0000
1003
0000
0200
0000
0000
0000
1300
0000
0000
0000
0000
,  // measure 18
0001
0000
0100
0000
0002
0000
0000
2003
0000
0000
0000
0000
0000
3010
0000
0200
,  // measure 19
0000
0000
0000
0000
0000
0000
0000
0300
,  // measure 20
0102
0000
0000
0000
0000
0000
0000
0000
0000
1003
0000
0000
0100
0000
0000
0000
,  // measure 21
1000
0000
0000
0001
0000
0100
0000
0010
0000
0100
0000
0000
0001
0000
1000
0000
,  // measure 22
0100
0000
1000
0000
0000
0000
0000
0000
0000
0001
0000
0000
0010
0000
0000
0000
,  // measure 23
0001
0000
1000
0000
0000
0010
0000
0100
0000
0100
0000
0000
0001
0000
1000
0000
,  // measure 24
0100
0000
1000
0000
0000
0000
0000
0000
0000
0010
0000
0000
0100
0000
0000
0000
,  // measure 25
0001
0100
0001
1000
0001
1000
0100
0010
,  // measure 26
0001
0000
0001
0000
0000
0000
0000
0000
0000
1000
0000
0000
0001
0000
0000
0000
,  // measure 27
0100
0000
0010
0000
1000
0000
0000
0000
0001
0000
0000
0010
0000
0000
0100
0000
,  // measure 28
2000
0000
3001
0000
0100
0001
1000
0000
,  // measure 29
0100
0040
0130
0000
1000
0001
1000
0010
,  // measure 30
0100
0001
1000
0000
0100
1000
0001
0000
,  // measure 31
0100
0001
0100
0000
0010
0100
0001
1000
,  // measure 32
2000
0000
3100
0000
0010
0001
1000
0000
,  // measure 33
0010
0100
0001
0000
1000
0100
1000
0001
,  // measure 34
0100
0000
0001
1000
0100
0000
0010
0000
,  // measure 35
0001
0100
0010
0000
1000
0100
1000
0000
,  // measure 36
00M0
0001
0002
0000
0003
0100
0200
0000
,  // measure 37
0300
0000
0001
0000
1000
0000
0000
0200
0000
0000
0000
0000
0310
0000
0000
0000
,  // measure 38
0001
0000
1000
0000
0001
0000
0000
0200
0000
0000
0000
0000
0301
0000
1000
0000
,  // measure 39
0100
0000
0000
0000
1000
0000
0000
0020
0000
0000
0000
0000
0230
0000
0000
0000
,  // measure 40
0000
0000
0301
0000
0002
0000
0000
0000
0003
0000
0010
0000
0020
0000
0030
0200
,  // measure 41
0000
0300
0000
2000
0000
3000
0000
0020
0000
0030
0000
0000
0100
0000
0000
0001
,  // measure 42
0000
0000
1000
0000
0100
0000
0000
2000
0000
0000
0000
0000
0000
0000
0000
3000
,  // measure 43
0000
0000
0000
0000
,  // measure 44
0002
0103
0010
0000
1000
0100
1000
0000
,  // measure 45
0001
0000
0100
0000
0010
0000
0000
1000
0002
0000
0013
0000
0100
0000
0000
0000
,  // measure 46
2000
3001
0100
0000
0010
1000
0100
0000
,  // measure 47
2000
0000
3001
0000
0100
0000
0000
0000
0001
0000
0000
1000
0000
0000
0100
0000
,  // measure 48
2000
3001
1000
0000
0010
0100
0001
0000
,  // measure 49
1000
0000
0001
0000
0010
0000
0000
0001
2000
0000
3001
0000
0100
0000
0000
0000
,  // measure 50
0020
0000
0130
0000
0001
0000
0000
0000
1000
0000
0000
0100
0000
0000
0010
0000
,  // measure 51
0001
0000
1000
0000
0001
0000
0000
0000
0100
0000
0000
0010
0000
0000
0100
0000
,  // measure 52
0002
1003
0100
0000
0010
0100
1000
0000
,  // measure 53
0010
0000
0100
0000
0001
0000
0000
1000
0002
0000
0013
0000
0100
0000
0000
0000
,  // measure 54
1000
0000
0100
0000
1000
0000
0000
0000
0001
0000
0000
0100
0000
0000
0010
0000
,  // measure 55
0200
0000
0301
0000
1000
0000
0000
0000
0100
0000
0000
0010
0000
0000
0100
0000
,  // measure 56
2000
3001
0100
0000
0010
0100
0001
0000
,  // measure 57
1000
0000
0100
0000
0010
0000
0000
0001
2000
0000
3010
0000
0100
0000
0000
0000
,  // measure 58
0010
0000
1000
0000
0010
0000
0000
0000
0100
0000
0000
0001
0000
0000
1000
0000
,  // measure 59
0200
0000
1300
0000
0001
0000
0000
0000
1000
0000
0000
0010
0000
0000
0100
0000
,  // measure 60
0002
0000
0023
0000
0230
0000
1300
0001
,  // measure 61
0200
0000
0310
0000
0100
0001
1000
0100
,  // measure 62
2000
0000
3002
0000
0203
0000
0310
0010
,  // measure 63
0100
0000
0001
0000
1000
0100
1000
0001
,  // measure 64
0200
0320
2030
3001
,  // measure 65
2001
0000
3100
1000
0001
0000
0100
0001
,  // measure 66
0200
0320
2030
3001
,  // measure 67
0010
0100
1000
0000
0001
1000
0001
0000
,  // measure 68
0201
0000
0320
0000
2030
0000
3001
0010
,  // measure 69
0200
0000
0310
0001
1000
0000
0010
0100
,  // measure 70
0002
2003
3200
0320
,  // measure 71
0130
1000
0001
0000
0100
0010
1000
0000
,  // measure 72
0002
0023
0230
1300
,  // measure 73
1020
0000
0130
0001
1000
0000
0100
0010
,  // measure 74
0002
2003
3020
0230
,  // measure 75
0310
1000
0001
0000
0010
0100
1000
0001
,  // measure 76
2000
0000
0000
3000
0000
0000
0000
0000
;

//---------------dance-single - Benpai----------------
#NOTES:
     dance-single:
     Benpai:
     Easy:
     4:
     0.260375,0.286748,0.027305,0.539279,0.027305,267.000000,263.000000,4.000000,79.000000,20.000000,0.000000,0.260375,0.286748,0.027305,0.539279,0.027305,267.000000,263.000000,4.000000,79.000000,20.000000,0.000000:
// measure 0
0000
0000
0000
0000
,  // measure 1
0000
0000
0000
0000
,  // measure 2
0000
0000
0000
0000
,  // measure 3
0000
0000
0000
0000
,  // measure 4
1000
0100
1000
0010
,  // measure 5
1000
0001
0010
0100
,  // measure 6
1000
0001
0100
0010
,  // measure 7
1000
0100
1000
0001
,  // measure 8
0100
0001
0100
0010
,  // measure 9
1000
0100
1000
0001
,  // measure 10
1000
0010
0100
0010
,  // measure 11
1000
0100
0010
0100
,  // measure 12
2000
0000
0000
3100
,  // measure 13
0020
0000
0000
0031
,  // measure 14
2000
0000
0000
3010
,  // measure 15
0200
0000
0000
0000
,  // measure 16
0302
0000
0000
1003
,  // measure 17
0200
0000
0000
1300
,  // measure 18
0002
0000
0000
0000
,  // measure 19
2003
0000
0000
3000
,  // measure 20
1001
0000
0000
0000
0000
0000
0000
0000
00M0
0M00
0000
0M00
00M0
0000
0M00
0000
,  // measure 21
0002
0000
0000
0000
0023
0000
0000
0030
,  // measure 22
0110
0000
0000
0000
0000
0000
0000
0000
M000
000M
0000
M000
000M
0000
M000
0000
,  // measure 23
0200
0000
0000
0000
2300
0000
0000
3000
,  // measure 24
0101
0000
0000
0000
0000
0000
0000
0000
00M0
M000
0000
M000
00M0
0000
M000
0000
,  // measure 25
0001
0001
0010
0000
,  // measure 26
1100
0000
0000
0000
0000
0000
0000
0000
00M0
000M
0000
000M
00M0
0000
000M
0000
,  // measure 27
0100
1000
0001
0100
,  // measure 28
0020
0130
0001
1000
,  // measure 29
0100
0100
1000
0001
,  // measure 30
0100
0100
0010
0100
,  // measure 31
0001
0001
1000
0100
,  // measure 32
0020
0130
1000
1000
,  // measure 33
0010
0100
0001
0001
,  // measure 34
1000
0100
0010
0010
,  // measure 35
0200
0310
0001
1000
,  // measure 36
0010
2000
3000
0200
,  // measure 37
0300
1000
0002
0103
,  // measure 38
0010
0100
0001
1000
,  // measure 39
0100
1000
0020
0230
,  // measure 40
0301
2000
3000
0200
,  // measure 41
2300
3000
0002
0003
0020
0030
0002
0003
,  // measure 42
2000
0000
3000
0000
0020
0000
0030
0000
0200
0000
0000
0000
0000
0000
0000
0300
,  // measure 43
0000
0000
0000
0000
,  // measure 44
0002
0003
1000
0000
0100
0000
1000
0000
,  // measure 45
0001
0000
0100
0000
0020
0030
1000
0001
,  // measure 46
2000
3000
0100
0000
0010
0000
0001
0000
,  // measure 47
2000
3000
0001
0000
0200
0300
0010
1000
,  // measure 48
0020
0030
1000
0000
0100
0000
1000
0000
,  // measure 49
0001
0000
0100
0000
0020
0030
1000
0001
,  // measure 50
2000
3000
0100
0000
0010
0000
0100
0000
,  // measure 51
2000
3000
0001
0000
0100
0000
0010
0100
,  // measure 52
0002
0003
1000
0000
0100
0000
1000
0000
,  // measure 53
0010
0000
0100
0000
0002
0003
1000
0100
,  // measure 54
0020
0030
0100
0000
1000
0000
0001
0000
,  // measure 55
0200
0300
0010
0000
2000
3000
0001
0010
,  // measure 56
0002
0003
1000
0000
0010
0000
0100
0000
,  // measure 57
0001
0000
1000
0000
0200
0300
1000
0001
,  // measure 58
2000
3000
0010
0000
0100
0000
0001
0000
,  // measure 59
2000
3000
0100
0000
0010
0000
0100
1000
,  // measure 60
0002
0003
2000
3000
0200
0300
1000
0000
,  // measure 61
0002
0000
0103
0000
0001
0000
1000
0100
,  // measure 62
2000
3000
0002
0003
0200
0000
0310
0010
,  // measure 63
1000
0000
0001
0000
1000
0000
0100
1000
,  // measure 64
0200
0300
0020
0030
0002
0003
1000
0000
,  // measure 65
0020
0000
0130
0000
0001
0000
1000
0100
,  // measure 66
2000
3000
0020
0030
0200
0000
0301
1000
,  // measure 67
0001
0010
0100
1000
,  // measure 68
0200
0300
0020
0030
0200
0300
1000
0001
,  // measure 69
0200
0000
0310
0000
1000
0000
0001
0100
,  // measure 70
0002
0003
2000
3000
0200
0300
0020
0000
,  // measure 71
0130
0000
1000
0000
0001
0000
0100
0010
,  // measure 72
0200
0300
0002
0003
2000
3000
0002
0003
,  // measure 73
0020
0000
0130
0000
1000
0000
0001
1000
,  // measure 74
0020
0030
0200
0300
0020
0030
2000
3000
,  // measure 75
0001
1000
0001
0000
0010
0000
0100
0000
,  // measure 76
2000
0000
0000
3000
0000
0000
0000
0000
;

//---------------dance-single - Benpai----------------
#NOTES:
     dance-single:
     Benpai:
     Beginner:
     1:
     0.097519,0.155640,0.034132,0.000000,0.000000,100.000000,95.000000,5.000000,0.000000,0.000000,0.000000,0.097519,0.155640,0.034132,0.000000,0.000000,100.000000,95.000000,5.000000,0.000000,0.000000,0.000000:
// measure 0
0000
0000
0000
0000
,  // measure 1
0000
0000
0000
0000
,  // measure 2
0000
0000
0000
0000
,  // measure 3
0000
0000
0000
0000
,  // measure 4
1000
0000
0000
0000
,  // measure 5
1000
0000
0000
0000
,  // measure 6
0001
0000
0000
0000
,  // measure 7
0001
0000
0000
0000
,  // measure 8
0100
0000
0000
0000
,  // measure 9
0100
0000
0000
0000
,  // measure 10
0010
0000
0000
0000
,  // measure 11
0010
0000
0000
0000
,  // measure 12
1000
0000
0000
0000
,  // measure 13
0010
0000
0000
0000
,  // measure 14
0100
0000
0000
0000
,  // measure 15
0001
0000
0000
0000
,  // measure 16
1000
0000
0000
0000
,  // measure 17
0100
0000
0000
0000
,  // measure 18
0010
0000
0000
0000
,  // measure 19
0001
0000
0000
0000
,  // measure 20
1001
0000
0000
0000
,  // measure 21
1000
0000
0000
0000
,  // measure 22
1000
0000
0000
0000
,  // measure 23
0001
0000
0000
0000
,  // measure 24
0001
0000
0000
0000
,  // measure 25
0010
0000
0000
0000
,  // measure 26
0010
0000
0000
0000
,  // measure 27
0100
0000
0000
0000
,  // measure 28
0100
0000
0000
0000
,  // measure 29
1000
0000
0000
0000
,  // measure 30
1000
0000
0000
0000
,  // measure 31
0001
0000
0000
0000
,  // measure 32
0001
0000
0000
0000
,  // measure 33
0100
0000
0000
0000
,  // measure 34
0100
0000
0000
0000
,  // measure 35
0010
0000
0000
0000
,  // measure 36
1000
0000
0000
0000
,  // measure 37
0001
0000
0000
0000
,  // measure 38
1000
0000
0000
0000
,  // measure 39
0010
0000
0000
0000
,  // measure 40
0100
0000
0000
0000
,  // measure 41
0001
0000
0000
0000
,  // measure 42
1000
0000
0000
0000
,  // measure 43
0000
0000
0000
0000
,  // measure 44
0001
0001
0000
1000
,  // measure 45
0000
1000
0000
1000
,  // measure 46
0001
0100
0000
0100
,  // measure 47
0000
0100
0000
0001
,  // measure 48
1000
0010
0000
0010
,  // measure 49
0000
0010
0000
0010
,  // measure 50
0100
0001
0000
0001
,  // measure 51
0000
0001
0000
0001
,  // measure 52
1000
0100
0000
0100
,  // measure 53
0000
0100
0000
0100
,  // measure 54
1000
0001
0000
0001
,  // measure 55
0000
0001
0000
0010
,  // measure 56
0100
1000
0000
1000
,  // measure 57
0000
1000
0000
1000
,  // measure 58
0100
0010
0000
0010
,  // measure 59
0000
0010
0000
0000
,  // measure 60
0001
0000
0000
0000
,  // measure 61
1001
0000
0000
0000
,  // measure 62
1000
0000
0000
0000
,  // measure 63
0010
0000
0000
0000
,  // measure 64
0100
0000
0000
0000
,  // measure 65
1001
0000
0000
0000
,  // measure 66
0001
0000
0000
0000
,  // measure 67
0010
0000
0000
0000
,  // measure 68
0100
0000
0000
0000
,  // measure 69
1001
0000
0000
0000
,  // measure 70
1000
0000
0000
0000
,  // measure 71
0010
0000
0000
0000
,  // measure 72
0100
0000
0000
0000
,  // measure 73
1001
0000
0000
0000
,  // measure 74
0001
0000
0000
0000
,  // measure 75
0100
0000
0000
0000
,  // measure 76
0010
0000
0000
0000
;
