#TITLE:The Creator Of Coffee;
#SUBTITLE:;
#ARTIST:Auratic & Chugo;
#TITLETRANSLIT:;
#SUBTITLETRANSLIT:;
#ARTISTTRANSLIT:;
#GENRE:Complextro;
#CREDIT:Feraligatr;
#BANNER:The Creator of Coffee.png;
#BACKGROUND:The Creator of Coffee-bg.png;
#LYRICSPATH:;
#CDTITLE:cdtitle.png;
#MUSIC:The Creator of Coffee.ogg;
#OFFSET:0.009000;
#SAMPLESTART:44.991001;
#SAMPLELENGTH:15.000000;
#SELECTABLE:YES;
#DISPLAYBPM:128.000000;
#BPMS:0.000000=128.000000
;
#STOPS:
;
#BGCHANGES:;
#KEYSOUNDS:;
#ATTACKS:;

//---------------dance-single - Feraligatr----------------
#NOTES:
     dance-single:
     Feraligatr:
     Challenge:
     12:
     0.788321,0.942701,0.226277,0.897810,0.875912,602.000000,31.000000,123.000000,30.000000,0.000000,0.000000,0.788321,0.942701,0.226277,0.897810,0.875912,602.000000,31.000000,123.000000,30.000000,0.000000,0.000000:
0000
0000
0000
0000
,
0000
0000
0000
0000
,
0000
0000
0000
0000
,
0000
0000
0000
0000
,
0021
0000
0130
1000
1001
0001
0101
0100
,
0010
0000
2000
3000
0001
0000
2000
3000
0010
0000
2000
3000
0001
0000
0010
0000
,
0100
0000
0000
0010
0000
0000
0001
0010
0001
1000
0010
0100
0001
0000
0000
1000
0000
0000
0100
0000
0000
1000
0000
0000
,
0020
0000
0000
0000
,
0130
0001
0000
0100
0001
0000
0000
0000
0000
0000
0000
0000
0000
0000
0000
0000
,
1000
0001
0000
1000
0001
0000
0000
0000
0000
0000
0000
0000
0000
0000
0000
0000
,
1000
0010
0000
1000
0010
0000
0000
0000
0000
0000
0000
0000
0000
0000
0000
0000
,
1000
0010
0100
0001
1000
0100
0010
0100
1000
0001
0100
0010
1000
0001
0100
0001
,
0020
0000
0230
0000
,
0320
0000
0000
0000
0130
1000
0001
1000
0010
0100
0010
1000
0001
0010
0100
1000
,
0010
0100
0010
1000
0001
0010
0100
0010
0001
1000
0010
0100
0001
1000
0100
0010
,
0002
2003
3000
0010
0200
0000
0010
0301
,
1002
0000
0000
0000
1003
0000
0200
0000
0000
0000
0000
0000
0000
0300
1000
0001
,
0100
0010
0200
0000
0000
0000
0302
0000
0000
0000
1003
0000
0001
0010
0100
1000
,
0002
0000
2003
3020
0000
0000
0230
0302
,
0000
0000
0013
0100
1000
0010
0200
0000
0000
0000
0301
0000
1000
0100
0010
0100
,
2000
0000
0000
0000
3001
0000
0200
0000
0000
0000
0000
0000
0000
0300
0001
1000
,
0100
0010
0002
0000
0000
0000
1003
0000
0001
0100
0010
1000
0001
0010
0100
1000
,
0002
0000
0103
0020
0000
0000
2030
3002
,
0010
0000
0000
0000
0010
0000
0000
0003
1100
0000
0001
0000
0202
0000
0000
0303
,
2001
0000
0000
0000
0000
0000
0000
0000
3001
0010
0001
0010
0100
0000
1000
0000
0001
0000
0100
0000
0010
0000
1000
0000
0001
0000
1000
0000
0100
00M0
0100
0000
,
0002
0000
0000
0000
0203
0000
0000
0000
0310
0000
0000
0000
2000
0000
3000
0000
0001
0000
0000
0000
1000
0010
1000
0000
0001
0000
0010
0000
0000
0000
0010
0000
,
0200
0000
0000
0000
0000
0000
0000
0000
0000
0000
0000
0000
0000
0000
0000
0000
0000
0000
0000
0000
0000
0000
0000
0000
0000
0000
0000
0000
0000
0000
0000
0000
0000
0000
0000
0000
0000
0000
0000
0000
0000
0000
0000
0000
0000
0000
0000
0000
1300
0000
0000
0000
0000
0000
0000
0000
0001
0000
0000
0000
0000
0000
0000
0000
0010
0000
0000
0000
0000
0000
0000
0000
0001
0000
0000
0000
0000
0000
0000
0000
1000
0000
0000
0000
0000
0000
0000
0000
0010
0000
0000
0000
0000
0000
0000
0000
0100
0000
0000
0000
0000
0000
0001
0000
0000
0000
0000
0000
0100
0000
0000
0000
0000
0000
0001
0000
0000
0000
0000
0000
0100
0000
0000
0000
0000
0000
0000
0000
0000
0000
0000
0000
0001
0000
0000
0000
0000
0000
0000
0000
0000
0000
0000
0000
2000
0000
0000
0000
0000
0000
0000
0000
0000
0000
0000
0000
0000
0000
0000
0000
0000
0000
0000
0000
0000
0000
0000
0000
0000
0000
0000
0000
0000
0000
0000
0000
0000
0000
0000
0000
0000
0000
0000
0000
0000
0000
0000
0000
0000
0000
0000
0000
,
3200
0000
0000
0000
0310
0001
0001
0001
1000
0010
0000
0010
0200
0000
0000
0300
,
0102
0000
0000
0000
0000
0000
0000
0000
1003
0001
1000
0001
0100
0000
0010
0000
0100
0000
0001
0000
1000
0000
0100
0000
0020
0000
0000
0000
0000
0000
0000
0000
,
0032
0000
0000
0000
1003
0010
1000
0010
0100
0000
0000
0000
0002
0000
0003
0000
2000
0000
0000
0000
0002
0000
3003
0000
2000
0000
0000
0000
0002
0000
3003
0000
,
1020
0000
0000
0000
0000
0000
0000
0000
0000
0000
0000
0000
0000
0000
0000
0000
0000
0000
0000
0000
0000
0000
0000
0000
0000
0000
0000
0000
0000
0000
0000
0000
0000
0000
0000
0000
0000
0000
0000
0000
0000
0000
0000
0000
0000
0000
0000
0000
0130
0000
0000
0000
0000
0000
0000
0000
0001
0000
0000
0000
0000
0000
0000
0000
1000
0000
0000
0000
0000
0000
0000
0000
0001
0000
0000
0000
0000
0000
0000
0000
0010
0000
0000
0000
0000
0000
0000
0000
0100
0000
0000
0000
0000
0000
0000
0000
1000
0000
0000
0000
0000
0000
0001
0000
0000
0000
0000
0000
1000
0000
0000
0000
0000
0000
0001
0000
0000
0000
0000
0000
1000
0000
0000
0000
0000
0000
0000
0000
0000
0000
0000
0000
0001
0000
0000
0000
0000
0000
0000
0000
0000
0000
0000
0000
0020
0000
0000
0000
0000
0000
0000
0000
0000
0000
0000
0000
0000
0000
0000
0000
0000
0000
0000
0000
0000
0000
0000
0000
0000
0000
0000
0000
0000
0000
0000
0000
0000
0000
0000
0000
0000
0000
0000
0000
0000
0000
0000
0000
0000
0000
0000
0000
,
0032
0000
0000
0000
0000
0000
0000
0000
1000
0000
0000
0000
0000
0000
0000
0000
0000
0000
0000
0000
1003
0100
1000
0000
0001
0000
00M0
0000
0M00
0000
0000
0000
,
2100
0000
0000
0000
0000
0000
0000
0000
3001
0100
0001
0100
0010
0000
1000
0000
0001
0000
0010
0000
0100
0000
0010
0000
0001
0000
1000
0000
0100
00M0
0100
0000
,
0002
0000
0000
0000
0000
0000
0000
0000
0000
0000
0000
0000
0000
0000
0000
0000
0000
0000
0000
0000
0000
0000
0000
0000
1003
0000
0000
0000
0000
0000
0010
0000
0000
0000
0000
0000
1000
0000
0000
0000
0000
0000
0010
0000
0000
0000
0000
0000
0100
0000
0000
0000
0000
0000
0000
0000
0000
0000
0000
0000
0000
0000
0000
0000
0000
0000
0000
0000
0000
0000
0000
0000
0002
0000
0000
0000
0000
0000
0000
0000
0000
0000
0000
0000
0003
0000
0000
0000
0000
0000
0000
0000
0000
0000
0000
0000
2000
0000
0000
0000
0000
0000
0000
0000
0000
0000
0000
0000
0000
0000
0000
0000
0000
0000
0000
0000
0000
0000
0000
0000
3002
0000
0000
0000
0000
0000
0000
0000
0000
0000
0000
0000
0003
0000
0000
0000
0000
0000
0000
0000
0000
0000
0000
0000
1000
0000
0000
0000
0000
0000
0000
0000
0100
0000
0000
0000
0000
0000
0000
0000
1000
0000
0000
0000
0000
0000
0000
0000
0100
0000
0000
0000
0000
0000
0000
0000
1000
0000
0000
0000
0000
0000
0000
0000
0100
0000
0000
0000
0000
0000
0000
0000
,
0020
0000
0000
0000
0000
0000
0000
0000
0000
0000
0000
0000
0000
0000
0000
0000
0000
0000
0000
0000
0000
0000
0000
0000
0000
0000
0000
0000
0000
0000
0000
0000
0000
0000
0000
0000
0000
0000
0000
0000
0000
0000
0000
0000
0000
0000
0000
0000
0031
0000
0000
0000
0000
0000
0000
0000
1000
0000
0000
0000
0000
0000
0000
0000
0100
0000
0000
0000
0000
0000
0000
0000
0010
0000
0000
0000
0000
0000
0000
0000
0001
0000
0000
0000
0000
0000
0000
0000
1000
0000
0000
0000
0000
0000
0000
0000
0001
0000
0000
0000
0000
0000
0100
0000
0000
0000
0000
0000
0001
0000
0000
0000
0000
0000
0100
0000
0000
0000
0000
0000
0001
0000
0000
0000
0000
0000
0000
0000
0000
0000
0000
0000
0100
0000
0000
0000
0000
0000
0000
0000
0000
0000
0000
0000
0020
0000
0000
0000
0000
0000
0000
0000
0000
0000
0000
0000
0000
0000
0000
0000
0000
0000
0000
0000
0000
0000
0000
0000
0000
0000
0000
0000
0000
0000
0000
0000
0000
0000
0000
0000
0000
0000
0000
0000
0000
0000
0030
0000
0000
0000
0000
0000
,
2010
0000
0000
0000
0001
0000
0000
0000
3010
0000
0000
0000
1000
0000
0000
0000
0000
0000
0000
0000
1000
0001
1000
0001
0010
0000
0000
0000
0100
0000
0000
0000
,
1200
0000
0000
0000
0000
0000
0000
0000
1300
0001
1000
0001
0010
0000
0100
0000
1000
0000
0001
0000
0100
0000
0010
0000
2000
0000
0000
0000
0000
0000
0000
0000
,
3001
0000
0000
0000
0000
0000
0000
0000
0000
0000
0000
0000
0000
0000
0000
0000
0000
0000
0000
0000
0000
0000
0000
0000
1000
0000
0000
0000
0000
0000
0100
0000
0000
0000
0000
0000
1000
0000
0000
0000
0000
0000
0100
0000
0000
0000
0000
0000
0010
0000
0000
0000
0000
0000
0000
0000
0000
0000
0000
0000
0000
0000
0000
0000
0000
0000
0000
0000
0000
0000
0000
0000
0002
0000
0000
0000
0000
0000
0000
0000
0000
0000
0000
0000
0003
0000
0000
0000
0000
0000
0000
0000
0000
0000
0000
0000
2000
0000
0000
0000
0000
0000
0000
0000
0000
0000
0000
0000
0000
0000
0000
0000
0000
0000
0000
0000
0000
0000
0000
0000
0002
0000
0000
0000
0000
0000
0000
0000
0000
0000
0000
0000
0003
0000
0000
0000
0000
0000
0000
0000
0000
0000
0000
0000
3010
0000
0000
0000
0000
0000
0000
0000
1000
0000
0000
0000
0000
0000
0000
0000
0010
0000
0000
0000
0000
0000
0000
0000
1000
0000
0000
0000
0000
0000
0000
0000
0010
0000
0000
0000
0000
0000
0000
0000
1000
0000
0000
0000
0000
0000
0000
0000
,
0002
0000
0000
0000
0000
0000
0000
0000
0000
0000
0000
0000
0000
0000
0000
0000
0000
0000
0000
0000
0000
0000
0000
0000
0000
0000
0000
0000
0000
0000
0000
0000
0000
0000
0000
0000
0000
0000
0000
0000
0000
0000
0000
0000
0000
0000
0000
0000
1003
0000
0000
0000
0000
0000
0000
0000
0100
0000
0000
0000
0000
0000
0000
0000
1000
0000
0000
0000
0000
0000
0000
0000
0001
0000
0000
0000
0000
0000
0000
0000
0100
0000
0000
0000
0000
0000
0000
0000
0010
0000
0000
0000
0000
0000
0000
0000
1000
0000
0000
0000
0000
0000
0001
0000
0000
0000
0000
0000
1000
0000
0000
0000
0000
0000
0001
0000
0000
0000
0000
0000
1000
0000
0000
0000
0000
0000
0000
0000
0000
0000
0000
0000
0001
0000
0000
0000
0000
0000
0000
0000
0000
0000
0000
0000
1000
0000
0000
0000
0000
0000
0000
0000
0010
0000
0000
0000
0000
0000
0000
0000
1000
0000
0000
0000
0000
0000
0000
0000
0010
0000
0000
0000
0000
0000
0000
0000
1000
0000
0000
0000
0000
0000
0000
0000
0010
0000
0000
0000
0000
0000
0000
0000
,
0100
0000
0001
0000
1001
0000
1000
0000
1100
0000
0100
0000
0220
0000
0000
0330
,
2001
0000
0000
0000
0000
0000
0000
0000
3001
0000
0010
0000
0000
0000
0010
0000
0100
0000
0000
0000
1000
0100
1000
0000
0002
0000
0000
0000
0000
0000
0003
0000
,
0021
0000
0000
0000
0130
M000
0100
0000
0002
0000
0000
0000
0000
0000
0000
0000
0103
0000
0000
0000
0001
0000
0000
0000
2000
0000
0000
0000
0000
0000
3001
0000
,
0201
0000
0000
0000
0000
0000
0000
0000
0000
0000
0000
0000
0000
0000
0000
0000
0000
0000
0000
0000
0000
0000
0000
0000
0000
0000
0000
0000
0000
0000
0000
0000
0000
0000
0000
0000
0000
0000
0000
0000
0000
0000
0000
0000
0000
0000
0000
0000
0310
0000
0000
0000
0000
0000
0000
0000
1000
0000
0000
0000
0000
0000
0000
0000
0001
0000
0000
0000
0000
0000
0000
0000
0100
0000
0000
0000
0000
0000
00M0
0000
0000
0000
0000
0000
0100
0000
0000
0000
0000
0000
0000
0000
0000
0000
0000
0000
1000
0000
0000
0000
0000
0000
0000
0000
0000
0000
0000
0000
0001
0000
0000
0000
0000
0000
0000
0000
0000
0000
0000
0000
0000
0000
0000
0000
0000
0000
0000
0000
0000
0000
0000
0000
0001
0000
0000
0000
0000
0000
0000
0000
0000
0000
0000
0000
0020
0000
0000
0000
0000
0000
0000
0000
0000
0000
0000
0000
0000
0000
0000
0000
0000
0000
0000
0000
0000
0000
0000
0000
0000
0000
0000
0000
0000
0000
0000
0000
0000
0000
0000
0000
0130
0000
0000
0000
0000
0000
0000
0000
0000
0000
0000
0000
,
1000
0000
0010
0000
0100
0000
0002
0003
0100
0000
0001
1000
0001
0000
0010
0000
,
0120
0000
0000
0000
0000
0000
0000
0000
0031
0000
1000
0000
0100
00M0
0100
0000
0002
0000
0000
0000
0013
0M00
0010
0000
2000
0000
0000
0000
3100
00M0
0100
0000
,
0001
0000
1000
0000
0000
0000
1000
0000
0001
0000
0000
0000
0100
M000
0100
0000
2000
0000
0000
0000
3002
0000
0000
0000
0023
0000
0000
0000
0030
0000
0100
0000
,
2100
0000
0000
0000
0001
0000
0000
0000
0000
0000
0000
0000
3001
00M0
0M00
1000
,
2010
0000
0000
0000
0000
0000
0000
0000
0000
0000
0000
0000
0000
0000
0000
0000
0000
0000
0000
0000
3100
00M0
0100
0000
0002
0000
0000
0000
0000
0000
0003
0000
,
2001
0000
0000
0000
3020
0000
0000
0030
2001
0000
0000
0000
3020
0000
0000
0000
,
2030
0000
0000
0000
3001
0010
0001
0010
0100
0000
0000
0000
2000
0000
3000
0000
0001
0000
0000
0000
2000
0000
3000
0000
0200
0000
0000
0000
0000
0000
1300
0000
,
2001
0000
0000
0000
0000
0000
0000
0000
3001
0000
0100
0000
0000
0000
0100
0000
0010
0000
1000
0000
0001
0010
0001
0010
0100
0000
0000
0000
1000
0000
0000
0000
,
2001
0000
0000
0000
3000
0000
0102
0000
0000
0000
0003
0000
0021
0000
0000
0030
,
0110
0000
0000
0010
0001
0000
1000
0001
0200
0000
0000
0000
0302
0000
0000
0000
,
1003
0000
0000
0000
1000
0000
0000
0000
1000
0000
0000
0000
0001
0000
0000
0010
0000
0000
0000
0000
0000
0010
0000
0000
0100
0000
0000
0000
0000
0000
1000
0000
0000
0000
0000
0000
0002
0000
0000
0000
0000
0000
0000
0000
0000
0103
0000
0000
,
0101
0000
0000
0000
0001
0000
0000
0000
1000
0000
0000
0000
0100
00M0
0100
0000
0001
0000
1000
0000
0001
0000
0100
0000
0010
0000
0000
0000
1000
0000
0000
0000
,
0200
0000
0000
0000
0310
0001
1000
0010
1000
0001
0010
0100
1000
0001
0100
0001
,
0020
0000
0000
0130
0010
0000
0001
1000
0200
0000
0000
0000
2300
0000
0000
0000
,
3020
0000
0000
0000
0100
0000
0000
0000
0100
0030
0000
0000
0010
0000
0000
1000
0000
0000
0001
0000
0000
0010
0000
0000
0100
0000
0000
0010
0000
0000
0001
0000
0000
1000
0000
0000
0010
0000
0000
0100
0000
0000
0010
0000
0000
1000
0000
0000
,
0100
0010
0001
1000
0010
1000
0001
1000
0100
0010
0100
1000
0001
0100
0010
1000
,
0002
0000
0000
0023
0000
0000
0030
0000
0000
0100
0000
0000
2000
0000
0000
0000
0000
0000
3001
0100
0001
0100
0001
0100
,
0020
0000
0000
0000
1030
0000
0002
0000
0010
0000
0000
0000
1003
0000
0001
1000
,
0010
0100
0002
0000
0100
0000
2003
0000
0001
0000
3010
0000
1000
0100
0010
0001
,
2000
0000
3020
0230
0001
0000
0320
2030
,
0001
0000
3100
0010
0001
0100
0020
0000
1000
0000
0130
0000
0001
0010
0100
1000
,
1002
0000
0000
0000
0103
0000
0020
0000
0100
0000
0000
0000
1000
0000
0130
0001
,
1000
0100
0020
0000
0001
0000
0130
0000
1000
0010
0100
0001
1000
0100
0010
0001
,
2000
0000
3010
0200
0000
0000
0320
2030
,
3200
0000
0000
0000
0000
0000
0000
0000
0010
0000
0000
0000
0000
0000
0000
0000
0000
0000
0000
0000
0000
1300
0001
1000
0001
0000
0000
0000
0100
0000
0000
0000
,
101M
000M
000M
000M
,
000M
000M
000M
000M
,
000M
000M
000M
000M
,
000M
000M
000M
000M
;

//---------------dance-single - 32nds----------------
#NOTES:
     dance-single:
     32nds:
     Edit:
     12:
     0.799791,0.942701,0.226277,0.897810,0.916058,613.000000,31.000000,123.000000,30.000000,0.000000,0.000000,0.799791,0.942701,0.226277,0.897810,0.916058,613.000000,31.000000,123.000000,30.000000,0.000000,0.000000:
// measure 0
0000
0000
0000
0000
,  // measure 1
0000
0000
0000
0000
,  // measure 2
0000
0000
0000
0000
,  // measure 3
0000
0000
0000
0000
,  // measure 4
0021
0000
0130
1000
1001
0001
0101
0100
,  // measure 5
0010
0000
2000
3000
0001
0000
2000
3000
0010
0000
2000
3000
0001
0000
0010
0000
,  // measure 6
0100
0000
0000
0000
0010
0000
0000
0000
0001
0100
0001
1000
0001
0010
0100
1000
0001
0000
0000
0000
1000
0000
0000
0000
0100
0000
0000
0000
1000
0000
0000
0000
,  // measure 7
0020
0000
0000
0000
,  // measure 8
0130
0001
0000
0100
0001
0000
0000
0000
0000
0000
0000
0000
0000
0000
0000
0000
,  // measure 9
1000
0001
0000
1000
0001
0000
0000
0000
0000
0000
0000
0000
0000
0000
0000
0000
,  // measure 10
1000
0010
0000
1000
0010
0000
0000
0000
0000
0000
0000
0000
0000
0000
0000
0000
,  // measure 11
1000
0010
0100
0001
1000
0100
0010
0100
1000
0001
0100
0010
1000
0001
0100
0001
,  // measure 12
0020
0000
0230
0000
,  // measure 13
0320
0000
0000
0000
0130
1000
0001
1000
0010
0100
0010
1000
0001
0010
0100
1000
,  // measure 14
0010
0100
0010
1000
0001
0010
0100
0010
0001
1000
0010
0100
0001
1000
0100
0010
,  // measure 15
0002
2003
3000
0010
0200
0000
0010
0301
,  // measure 16
1002
0000
0000
0000
1003
0000
0200
0000
0000
0000
0000
0000
0000
0300
1000
0001
,  // measure 17
0100
0010
0200
0000
0000
0000
0302
0000
0000
0000
1003
0000
0001
0010
0100
1000
,  // measure 18
0002
0000
2003
3020
0000
0000
0230
0302
,  // measure 19
0000
0000
0013
0100
1000
0010
0200
0000
0000
0000
0301
0000
1000
0100
0010
0100
,  // measure 20
2000
0000
0000
0000
3001
0000
0200
0000
0000
0000
0000
0000
0000
0300
0001
1000
,  // measure 21
0100
0010
0002
0000
0000
0000
1003
0000
0001
0100
0010
1000
0001
0010
0100
1000
,  // measure 22
0002
0000
0103
0020
0000
0000
2030
3002
,  // measure 23
0010
0000
0000
0000
0010
0000
0000
0003
1100
0000
0001
0000
0202
0000
0000
0303
,  // measure 24
2001
0000
0000
0000
0000
0000
0000
0000
3001
0010
0001
0010
0100
0000
1000
0000
0001
0000
0100
0000
0010
0000
1000
0000
0001
0000
1000
0000
0100
00M0
0100
0000
,  // measure 25
0002
0000
0000
0000
0203
0000
0000
0000
0310
0000
0000
0000
2000
0000
3000
0000
0001
0000
0000
0000
1000
0010
1000
0000
0001
0000
0010
0000
0000
0000
0010
0000
,  // measure 26
0200
0000
0000
0000
0000
0000
0000
0000
1300
0001
0010
0100
1000
0001
1000
0010
0100
0001
0100
0001
0100
0000
0001
0000
2000
0000
0000
0000
0000
0000
0000
0000
,  // measure 27
3200
0000
0000
0000
0310
0001
0001
0001
1000
0010
0000
0010
0200
0000
0000
0300
,  // measure 28
0102
0000
0000
0000
0000
0000
0000
0000
1003
0001
1000
0001
0100
0000
0010
0000
0100
0000
0001
0000
1000
0000
0100
0000
0020
0000
0000
0000
0000
0000
0000
0000
,  // measure 29
0032
0000
0000
0000
1003
0010
1000
0010
0100
0000
0000
0000
0002
0000
0003
0000
2000
0000
0000
0000
0002
0000
3003
0000
2000
0000
0000
0000
0002
0000
3003
0000
,  // measure 30
1020
0000
0000
0000
0000
0000
0000
0000
1030
0001
0100
0001
1000
0010
0100
0010
1000
0001
1000
0001
1000
0000
0001
0000
0020
0000
0000
0000
0000
0000
0000
0000
,  // measure 31
0032
0000
0000
0000
0000
0000
0000
0000
1000
0000
0000
0000
0000
0000
0000
0000
0000
0000
0000
0000
1003
0100
1000
0000
0001
0000
00M0
0000
0M00
0000
0000
0000
,  // measure 32
2100
0000
0000
0000
0000
0000
0000
0000
3001
0100
0001
0100
0010
0000
1000
0000
0001
0000
0010
0000
0100
0000
0010
0000
0001
0000
1000
0000
0100
00M0
0100
0000
,  // measure 33
0002
0000
0000
0000
0000
0000
0000
0000
0000
0000
0000
0000
0000
0000
0000
0000
0000
0000
0000
0000
0000
0000
0000
0000
1003
0000
0000
0000
0000
0000
0010
0000
0000
0000
0000
0000
1000
0000
0000
0000
0000
0000
0010
0000
0000
0000
0000
0000
0100
0000
0000
0000
0000
0000
0000
0000
0000
0000
0000
0000
0000
0000
0000
0000
0000
0000
0000
0000
0000
0000
0000
0000
0002
0000
0000
0000
0000
0000
0000
0000
0000
0000
0000
0000
0003
0000
0000
0000
0000
0000
0000
0000
0000
0000
0000
0000
2000
0000
0000
0000
0000
0000
0000
0000
0000
0000
0000
0000
0000
0000
0000
0000
0000
0000
0000
0000
0000
0000
0000
0000
3002
0000
0000
0000
0000
0000
0000
0000
0000
0000
0000
0000
0003
0000
0000
0000
0000
0000
0000
0000
0000
0000
0000
0000
1000
0000
0000
0000
0000
0000
0000
0000
0100
0000
0000
0000
0000
0000
0000
0000
1000
0000
0000
0000
0000
0000
0000
0000
0100
0000
0000
0000
0000
0000
0000
0000
1000
0000
0000
0000
0000
0000
0000
0000
0100
0000
0000
0000
0000
0000
0000
0000
,  // measure 34
0020
0000
0000
0000
0000
0000
0000
0000
0031
1000
0100
1000
0001
0100
0010
1000
0001
0100
0001
0100
0001
0000
0100
0000
0020
0000
0000
0000
0000
0000
0000
0030
,  // measure 35
2010
0000
0000
0000
0001
0000
0000
0000
3010
0000
0000
0000
1000
0000
0000
0000
0000
0000
0000
0000
1000
0001
1000
0001
0010
0000
0000
0000
0100
0000
0000
0000
,  // measure 36
1200
0000
0000
0000
0000
0000
0000
0000
1300
0001
1000
0001
0010
0000
0100
0000
1000
0000
0001
0000
0100
0000
0010
0000
2000
0000
0000
0000
0000
0000
0000
0000
,  // measure 37
3001
0000
0000
0000
0000
0000
0000
0000
0000
0000
0000
0000
0000
0000
0000
0000
0000
0000
0000
0000
0000
0000
0000
0000
1000
0000
0000
0000
0000
0000
0100
0000
0000
0000
0000
0000
1000
0000
0000
0000
0000
0000
0100
0000
0000
0000
0000
0000
0010
0000
0000
0000
0000
0000
0000
0000
0000
0000
0000
0000
0000
0000
0000
0000
0000
0000
0000
0000
0000
0000
0000
0000
0002
0000
0000
0000
0000
0000
0000
0000
0000
0000
0000
0000
0003
0000
0000
0000
0000
0000
0000
0000
0000
0000
0000
0000
2000
0000
0000
0000
0000
0000
0000
0000
0000
0000
0000
0000
0000
0000
0000
0000
0000
0000
0000
0000
0000
0000
0000
0000
0002
0000
0000
0000
0000
0000
0000
0000
0000
0000
0000
0000
0003
0000
0000
0000
0000
0000
0000
0000
0000
0000
0000
0000
3010
0000
0000
0000
0000
0000
0000
0000
1000
0000
0000
0000
0000
0000
0000
0000
0010
0000
0000
0000
0000
0000
0000
0000
1000
0000
0000
0000
0000
0000
0000
0000
0010
0000
0000
0000
0000
0000
0000
0000
1000
0000
0000
0000
0000
0000
0000
0000
,  // measure 38
0002
0000
0000
0000
0000
0000
0000
0000
0000
0000
0000
0000
0000
0000
0000
0000
0000
0000
0000
0000
0000
0000
0000
0000
0000
0000
0000
0000
0000
0000
0000
0000
0000
0000
0000
0000
0000
0000
0000
0000
0000
0000
0000
0000
0000
0000
0000
0000
1003
0000
0000
0000
0000
0000
0100
0000
0000
0000
0000
0000
0010
0000
0000
0000
0000
0000
0001
0000
0000
0000
0000
0000
1000
0000
0000
0000
0000
0000
0001
0000
0000
0000
0000
0000
0100
0000
0000
0000
0000
0000
0010
0000
0000
0000
0000
0000
1000
0000
0000
0000
0000
0000
0001
0000
0000
0000
0000
0000
1000
0000
0000
0000
0000
0000
0001
0000
0000
0000
0000
0000
1000
0000
0000
0000
0000
0000
0000
0000
0000
0000
0000
0000
0001
0000
0000
0000
0000
0000
0000
0000
0000
0000
0000
0000
1000
0000
0000
0000
0000
0000
0000
0000
0010
0000
0000
0000
0000
0000
0000
0000
1000
0000
0000
0000
0000
0000
0000
0000
0010
0000
0000
0000
0000
0000
0000
0000
1000
0000
0000
0000
0000
0000
0000
0000
0010
0000
0000
0000
0000
0000
0000
0000
,  // measure 39
0100
0000
0001
0000
1001
0000
1000
0000
1100
0000
0100
0000
0220
0000
0000
0330
,  // measure 40
2001
0000
0000
0000
0000
0000
0000
0000
3001
0000
0010
0000
0000
0000
0010
0000
0100
0000
0000
0000
1000
0100
1000
0000
0002
0000
0000
0000
0000
0000
0003
0000
,  // measure 41
0021
0000
0000
0000
0130
M000
0100
0000
0002
0000
0000
0000
0000
0000
0000
0000
0103
0000
0000
0000
0001
0000
0000
0000
2000
0000
0000
0000
0000
0000
3001
0000
,  // measure 42
0201
0000
0000
0000
0000
0000
0000
0000
0310
1000
0001
1000
0010
0M00
0010
0000
0001
0000
1000
0000
0000
0000
1000
0000
0200
0000
0000
0000
0000
0000
0310
0000
,  // measure 43
0001
0000
0100
0000
0010
0000
2000
3000
0010
0000
1000
0001
1000
0000
0100
0000
,  // measure 44
0120
0000
0000
0000
0000
0000
0000
0000
0031
0000
1000
0000
0100
00M0
0100
0000
0002
0000
0000
0000
0013
0M00
0010
0000
2000
0000
0000
0000
3100
00M0
0100
0000
,  // measure 45
0001
0000
1000
0000
0000
0000
1000
0000
0001
0000
0000
0000
0100
M000
0100
0000
2000
0000
0000
0000
3002
0000
0000
0000
0023
0000
0000
0000
0030
0000
0100
0000
,  // measure 46
2100
0000
0000
0000
0001
0000
0000
0000
0000
0000
0000
0000
3001
00M0
0M00
1000
,  // measure 47
2010
0000
0000
0000
0000
0000
0000
0000
0000
0000
0000
0000
0000
0000
0000
0000
0000
0000
0000
0000
3100
00M0
0100
0000
0002
0000
0000
0000
0000
0000
0003
0000
,  // measure 48
2001
0000
0000
0000
3020
0000
0000
0030
2001
0000
0000
0000
3020
0000
0000
0000
,  // measure 49
2030
0000
0000
0000
3001
0010
0001
0010
0100
0000
0000
0000
2000
0000
3000
0000
0001
0000
0000
0000
2000
0000
3000
0000
0200
0000
0000
0000
0000
0000
1300
0000
,  // measure 50
2001
0000
0000
0000
0000
0000
0000
0000
3001
0000
0100
0000
0000
0000
0100
0000
0010
0000
1000
0000
0001
0010
0001
0010
0100
0000
0000
0000
1000
0000
0000
0000
,  // measure 51
2001
0000
0000
0000
3000
0000
0102
0000
0000
0000
0003
0000
0021
0000
0000
0030
,  // measure 52
0110
0000
0000
0010
0001
0000
1000
0001
0200
0000
0000
0000
0302
0000
0000
0000
,  // measure 53
1003
0000
0000
0000
1000
0000
0000
0000
1000
0000
0000
0000
0001
0000
0000
0010
0000
0000
0000
0000
0000
0010
0000
0000
0100
0000
0000
0000
0000
0000
1000
0000
0000
0000
0000
0000
0002
0000
0000
0000
0000
0000
0000
0000
0000
0103
0000
0000
,  // measure 54
0101
0000
0000
0000
0001
0000
0000
0000
1000
0000
0000
0000
0100
00M0
0100
0000
0001
0000
1000
0000
0001
0000
0100
0000
0010
0000
0000
0000
1000
0000
0000
0000
,  // measure 55
0200
0000
0000
0000
0310
0001
1000
0010
1000
0001
0010
0100
1000
0001
0100
0001
,  // measure 56
0020
0000
0000
0130
0010
0000
0001
1000
0200
0000
0000
0000
2300
0000
0000
0000
,  // measure 57
3020
0000
0000
0000
0100
0000
0000
0000
0100
0030
0000
0000
0010
0000
0000
1000
0000
0000
0001
0000
0000
0010
0000
0000
0100
0000
0000
0010
0000
0000
0001
0000
0000
1000
0000
0000
0010
0000
0000
0100
0000
0000
0010
0000
0000
1000
0000
0000
,  // measure 58
0100
0010
0001
1000
0010
1000
0001
1000
0100
0010
0100
1000
0001
0100
0010
1000
,  // measure 59
0002
0000
0000
0023
0000
0000
0030
0000
0000
0100
0000
0000
2000
0000
0000
0000
0000
0000
3001
0100
0001
0100
0001
0100
,  // measure 60
0020
0000
0000
0000
1030
0000
0002
0000
0010
0000
0000
0000
1003
0000
0001
1000
,  // measure 61
0010
0100
0002
0000
0100
0000
2003
0000
0001
0000
3010
0000
1000
0100
0010
0001
,  // measure 62
2000
0000
3020
0230
0001
0000
0320
2030
,  // measure 63
0001
0000
3100
0010
0001
0100
0020
0000
1000
0000
0130
0000
0001
0010
0100
1000
,  // measure 64
1002
0000
0000
0000
0103
0000
0020
0000
0100
0000
0000
0000
1000
0000
0130
0001
,  // measure 65
1000
0100
0020
0000
0001
0000
0130
0000
1000
0010
0100
0001
1000
0100
0010
0001
,  // measure 66
2000
0000
3010
0200
0000
0000
0320
2030
,  // measure 67
3200
0000
0000
0000
0000
0000
0000
0000
0010
0000
0000
0000
0000
0000
0000
0000
0000
0000
0000
0000
0000
1300
0001
1000
0001
0000
0000
0000
0100
0000
0000
0000
,  // measure 68
101M
000M
000M
000M
,  // measure 69
000M
000M
000M
000M
,  // measure 70
000M
000M
000M
000M
,  // measure 71
000M
000M
000M
000M
;
