#TITLE:Syrup;
#SUBTITLE:;
#ARTIST:Inktome;
#TITLETRANSLIT:;
#SUBTITLETRANSLIT:;
#ARTISTTRANSLIT:;
#GENRE:EDM;
#CREDIT:;
#BANNER:Syrup-bn.png;
#BACKGROUND:Syrup-bg.png;
#LYRICSPATH:;
#CDTITLE:cd-title-Benpai.png;
#MUSIC:Syrup.ogg;
#OFFSET:0.009000;
#SAMPLESTART:58.276699;
#SAMPLELENGTH:13.714286;
#SELECTABLE:YES;
#DISPLAYBPM:140.000000;
#BPMS:0.000000=140.000000
,126.000000=210.000000
,127.000000=105.000000
,128.000000=140.000000
,158.000000=210.000000
,159.000000=105.000000
,160.000000=140.000000
,263.000000=210.000000
,264.000000=140.000000
;
#STOPS:263.000000=0.143000
;
#BGCHANGES:;
#KEYSOUNDS:;
#ATTACKS:;

//---------------dance-single - Benpai----------------
#NOTES:
     dance-single:
     Benpai:
     Challenge:
     9:
     0.467307,0.714045,0.243079,0.576445,0.187518,471.000000,436.000000,35.000000,83.000000,8.000000,0.000000,0.467307,0.714045,0.243079,0.576445,0.187518,471.000000,436.000000,35.000000,83.000000,8.000000,0.000000:
// measure 0
0000
0000
0000
0000
,  // measure 1
0000
0000
0000
0000
,  // measure 2
0001
1000
0010
0100
0000
0001
0000
1000
,  // measure 3
0000
0000
0100
0020
0030
0001
0000
0000
,  // measure 4
0010
0100
1000
0001
0000
0200
0300
0010
,  // measure 5
2000
0000
0001
0000
3200
1000
0000
0000
,  // measure 6
0310
0001
1000
0010
0000
0100
0000
0001
,  // measure 7
0000
0000
1000
0002
0003
0010
0000
0000
,  // measure 8
0210
0000
0000
2300
0000
0000
0000
3001
,  // measure 9
0020
0000
0130
2000
0000
3020
0000
0030
,  // measure 10
0101
0001
1000
0100
1000
0020
0030
0200
,  // measure 11
0300
0000
0001
0020
0031
1000
0000
0000
,  // measure 12
0010
0100
0001
1000
0100
0020
0030
0100
,  // measure 13
2000
0000
0001
0000
3020
0100
0000
0000
,  // measure 14
1030
0100
1000
0001
0100
0020
0030
0200
,  // measure 15
0300
0000
0001
2000
3100
0010
0000
0000
,  // measure 16
0021
0000
0000
0230
0000
0000
0000
1300
,  // measure 17
0020
0000
0000
0000
0000
0000
0230
0000
0000
0000
0302
0000
0000
0000
0000
0003
,  // measure 18
1000
0001
1000
0010
0000
0100
0010
1000
0000
0001
1000
0001
0000
0100
0001
0100
,  // measure 19
0000
0001
1000
0100
0000
0010
0001
0010
0000
0100
1000
0001
0000
1000
0001
1000
,  // measure 20
0000
0001
0100
0010
0000
0100
0001
1000
0000
0001
0100
0010
0000
1000
0001
0010
,  // measure 21
0200
0000
0000
0320
0000
0000
0032
0000
,  // measure 22
4003
0004
0000
0000
0000
0000
0000
0000
0000
0000
0000
0000
0000
0000
0000
0000
,  // measure 23
0000
0000
0000
0000
,  // measure 24
0000
0000
0000
0000
0000
0000
0000
3003
,  // measure 25
MMMM
0000
0000
0010
,  // measure 26
1400
0000
0000
1300
0001
0100
0010
0040
,  // measure 27
4030
0000
0000
0000
3004
0000
0000
0000
0013
0000
0000
0000
0100
0000
0000
0000
1000
0000
0100
1000
0100
0000
0020
0000
0000
0000
0031
1000
0001
0000
0100
0000
,  // measure 28
0020
0000
0000
0000
1030
0000
0001
0000
0010
0000
0410
0000
0000
0000
0000
0300
,  // measure 29
2100
0000
0000
0000
0000
0000
0000
3000
1002
0000
0000
0000
0103
0000
0010
0000
,  // measure 30
0001
0010
0100
0001
1000
1001
0000
0101
,  // measure 31
0000
0000
0100
0000
0010
0000
1000
0000
0400
0000
0000
0000
0000
0000
0000
0300
,  // measure 32
1100
1000
0001
0100
0010
0010
1000
1000
,  // measure 33
0001
0001
0010
0100
1100
1000
0000
0000
,  // measure 34
4001
0000
3010
0100
0001
0010
0100
0400
,  // measure 35
4300
0000
0000
0000
3004
0000
0000
0000
0103
0000
0000
0000
0010
0000
0000
0000
1000
0000
0010
1000
0010
0000
0200
0000
0000
0000
0301
1000
0001
0000
0010
0000
,  // measure 36
0400
0000
0000
0000
1300
0000
0001
0000
0100
0000
0401
0000
0000
0000
0000
0300
,  // measure 37
1002
0000
0000
0000
0000
0000
0000
0003
2100
0000
0000
0000
3100
0000
0010
0000
,  // measure 38
1000
0010
0100
4000
3000
1001
0000
0101
,  // measure 39
0000
0000
0001
0000
0010
0000
0100
0000
0040
0000
0000
0000
0000
000M
0000
0030
,  // measure 40
0011
0001
1000
0010
0100
0100
0001
0001
,  // measure 41
2000
0000
0000
3200
0000
0320
0000
0000
,  // measure 42
0M31
1000
0010
0100
0000
0010
0000
1000
,  // measure 43
0000
0000
0001
1000
0000
0000
0000
0000
,  // measure 44
0100
0010
0100
1000
0000
0001
0000
0000
,  // measure 45
0010
0000
0000
0010
0000
0000
0100
0000
0000
0100
0000
0000
2000
0000
0000
0000
,  // measure 46
3010
0100
0001
1000
0000
0001
0000
0010
,  // measure 47
0000
0000
0100
1000
0000
0000
0000
0000
,  // measure 48
0002
0000
0000
2003
0000
0000
0000
0000
,  // measure 49
3010
0000
0000
0010
0000
0000
0100
0000
0000
0001
1000
0000
0000
0001
1000
0000
,  // measure 50
0100
0010
0100
1000
0000
0010
0000
0100
,  // measure 51
0001
0001
0001
1000
0010
0010
0010
0000
,  // measure 52
1010
1000
0001
0010
0000
0200
0300
0010
,  // measure 53
0002
0000
1000
0000
0203
0001
0000
0000
,  // measure 54
0310
1000
0001
0010
0000
0100
0000
1000
,  // measure 55
0001
0000
0100
0020
1030
0001
0020
0030
,  // measure 56
0120
0000
0000
0032
0000
0000
0000
1003
,  // measure 57
0020
0000
0130
0002
0000
0023
0000
0000
,  // measure 58
0130
0100
1000
0010
0010
0200
0301
2000
,  // measure 59
3001
0001
1000
0200
0310
0010
0001
0001
,  // measure 60
0010
0100
1000
1000
0001
0200
0310
0010
,  // measure 61
2000
0000
3200
0000
,  // measure 62
0310
0001
1000
0010
0010
2000
3001
0200
,  // measure 63
0310
0010
0100
0002
1003
1000
0100
0100
,  // measure 64
0020
0000
0000
0000
0000
0000
0032
0000
0000
0000
0000
0000
0000
0000
0000
0003
,  // measure 65
2001
0000
0000
3M1M
,  // measure 66
2100
0000
0000
0000
3004
0000
0103
0100
,  // measure 67
0102
0000
0000
0000
0000
0000
0000
0000
0000
0000
0000
0000
0000
0000
0000
0000
0000
0000
0000
0000
0000
0000
0000
0000
0000
0000
0000
0000
0000
0000
0000
0000
0000
0000
0000
0000
0000
0000
0000
0000
0000
0000
0000
0000
0000
0000
0000
0000
1000
0000
0000
0000
0000
0000
0000
0000
0000
0000
0000
0000
0000
0000
0000
0000
0000
0000
0000
0000
0000
0000
0000
0000
0000
0000
0000
0000
0000
0000
0000
0000
0000
0000
0000
0000
0000
0000
0000
0000
0000
0000
0000
0000
0000
0000
0000
0000
0043
0000
0000
0000
0000
0000
0000
0000
0000
0000
0000
0000
0000
0000
0000
0000
0000
0000
0000
0000
0000
0000
0000
0000
0000
0000
0000
0000
0000
0000
0000
0000
0000
0000
0000
0000
0000
0000
0000
0000
0000
0000
0000
0000
0000
0000
0000
0000
0130
0000
0000
0000
0000
0000
0000
0000
0000
0000
0000
0000
0000
0000
0000
0000
1000
0000
0000
0000
0000
0000
0000
0000
0000
0000
0000
0000
0000
0000
0001
0000
0000
0000
0000
0000
0000
0000
0000
0000
0000
0000
0000
0000
0000
0000
0000
0000
,  // measure 68
1002
0000
0000
0000
0000
0000
0000
0000
0103
0000
0100
0000
0200
0000
0000
0300
,  // measure 69
1002
0000
0000
1003
0020
0000
0000
0030
0210
0000
0000
0000
0301
0000
1000
0000
,  // measure 70
2100
0000
0000
0000
3001
0400
0000
0310
,  // measure 71
2000
0000
0001
0000
3100
0010
0001
0001
,  // measure 72
1020
0000
0000
0100
4030
0000
0000
3001
,  // measure 73
0010
0000
0000
0100
1000
0000
1000
0000
0010
0000
0100
0000
0002
0000
0000
0003
,  // measure 74
1001
1000
0100
0020
0031
4000
0000
3001
,  // measure 75
0100
0000
0000
0000
0100
0000
0000
0000
0010
0000
0000
0000
1000
0000
0000
0000
0001
0000
1000
0001
1000
0000
0200
0000
0000
0000
0310
0001
0010
0000
0001
0000
,  // measure 76
1000
0010
0100
0001
0040
0130
0400
0300
,  // measure 77
1100
0000
0000
1000
0020
0000
0000
0030
0210
0000
0000
0000
0301
0000
0001
0000
,  // measure 78
0101
0000
0100
0000
0010
0000
1000
0000
0004
0003
0011
0000
0000
0000
1100
0000
,  // measure 79
0200
0000
0000
0000
1300
0000
0010
0000
0100
0000
0400
0000
0301
0000
0004
0003
,  // measure 80
0021
0000
0000
0230
0000
0000
0300
0000
,  // measure 81
0020
0000
0000
0032
0000
2003
0000
0000
,  // measure 82
0000
3000
0000
0000
;

//---------------dance-single - that one burst----------------
#NOTES:
     dance-single:
     that one burst:
     Edit:
     10:
     0.475245,0.714045,0.243079,0.548665,0.218771,479.000000,444.000000,35.000000,79.000000,8.000000,0.000000,0.475245,0.714045,0.243079,0.548665,0.218771,479.000000,444.000000,35.000000,79.000000,8.000000,0.000000:
0000
0000
0000
0000
,
0000
0000
0000
0000
,
0001
1000
0010
0100
0000
0001
0000
1000
,
0000
0000
0100
0020
0030
0001
0000
0000
,
0010
0100
1000
0001
0000
0200
0300
0010
,
2000
0000
0001
0000
3200
1000
0000
0000
,
0310
0001
1000
0010
0000
0100
0000
0001
,
0000
0000
1000
0002
0003
0010
0000
0000
,
0210
0000
0000
2300
0000
0000
0000
3001
,
0020
0000
0130
2000
0000
3020
0000
0030
,
0101
0001
1000
0100
1000
0020
0030
0200
,
0300
0000
0001
0020
0031
1000
0000
0000
,
0010
0100
0001
1000
0100
0020
0030
0100
,
2000
0000
0001
0000
3020
0100
0000
0000
,
1030
0100
1000
0001
0100
0020
0030
0200
,
0300
0000
0001
2000
3100
0010
0000
0000
,
0021
0000
0000
0230
0000
0000
0000
1300
,
0020
0000
0000
0000
0000
0000
0230
0000
0000
0000
0302
0000
0000
0000
0000
0003
,
1000
0001
1000
0010
0000
0100
0010
1000
0000
0001
1000
0001
0000
0100
0001
0100
,
0000
0001
1000
0100
0000
0010
0001
0010
0000
0100
1000
0001
0000
1000
0001
1000
,
0000
0001
0100
0010
0000
0100
0001
1000
0000
0001
0100
0010
0000
1000
0001
0010
,
0200
0000
0000
0320
0000
0000
0032
0000
,
4003
0004
0000
0000
0000
0000
0000
0000
0000
0000
0000
0000
0000
0000
0000
0000
,
0000
0000
0000
0000
,
0000
0000
0000
0000
0000
0000
0000
3003
,
MMMM
0000
0000
0010
,
1400
0000
0000
1300
0001
0100
0010
0040
,
4030
0000
0000
0000
3004
0000
0000
0000
0013
0000
0000
0000
0100
0000
0000
0000
1000
0000
0100
1000
0100
0000
0020
0000
0000
0000
0031
1000
0001
0000
0100
0000
,
0020
0000
0000
0000
1030
0000
0001
0000
0010
0000
0410
0000
0000
0000
0000
0300
,
4100
0000
0000
0000
0000
0000
0000
3000
1004
0000
0000
0000
0103
0000
0010
0000
,
0001
0010
0100
0001
1000
1001
0000
0101
,
0000
0000
0100
0000
0010
0000
1000
0000
0400
0000
0000
0000
0000
0000
0000
0300
,
1100
1000
0001
0100
0010
0010
1000
1000
,
0001
0001
0010
0100
1100
1000
0000
0000
,
4001
0000
3010
0100
0001
0010
0100
0400
,
4300
0000
0000
0000
3004
0000
0000
0000
0103
0000
0000
0000
0010
0000
0000
0000
1000
0000
0010
1000
0010
0000
0200
0000
0000
0000
0301
1000
0001
0000
0010
0000
,
0400
0000
0000
0000
1300
0000
0001
0000
0100
0000
0401
0000
0000
0000
0000
0300
,
1004
0000
0000
0000
0000
0000
0000
0003
4100
0000
0000
0000
3100
0000
0010
0000
,
1000
0010
0100
4000
3000
1001
0000
0101
,
0000
0000
0001
0000
0010
0000
0100
0000
0040
0000
0000
0000
0000
000M
0000
0030
,
0011
0001
1000
0010
0100
0100
0001
0001
,
2000
0000
0000
3200
0000
0320
0000
0000
,
0M31
1000
0010
0100
0000
0010
0000
1000
,
0000
0000
0001
1000
0000
0000
0000
0000
,
0100
0010
0100
1000
0000
0001
0000
0000
,
0010
0000
0000
0010
0000
0000
0100
0000
0000
0100
0000
0000
2000
0000
0000
0000
,
3010
0100
0001
1000
0000
0001
0000
0010
,
0000
0000
0100
1000
0000
0000
0000
0000
,
0002
0000
0000
2003
0000
0000
0000
0000
,
3010
0000
0000
0010
0000
0000
0100
0000
0000
0001
1000
0000
0000
0001
1000
0000
,
0100
0010
0100
1000
0000
0010
0000
0100
,
0001
0001
0001
1000
0010
0010
0010
0000
,
1010
1000
0001
0010
0000
0200
0300
0010
,
0002
0000
1000
0000
0203
0001
0000
0000
,
0310
1000
0001
0010
0000
0100
0000
1000
,
0001
0000
0100
0020
1030
0001
0020
0030
,
0120
0000
0000
0032
0000
0000
0000
1003
,
0020
0000
0130
0002
0000
0023
0000
0000
,
0130
0100
1000
0010
0010
0200
0301
0020
,
0031
0001
1000
0002
0103
0100
0001
0001
,
0010
0100
1000
1000
0001
0200
0301
0001
,
2000
0000
3200
0000
,
0310
0001
0100
0010
0010
2000
3001
0200
,
0310
0010
0100
0002
1003
1000
0100
0100
,
0020
0000
0000
0000
0000
0000
0032
0000
0000
0000
0000
0000
0000
0000
0000
0003
,
2001
0000
0000
3M1M
,
2100
0000
0000
0000
3004
0000
0103
0100
,
0102
0000
0000
0000
0000
0000
0000
0000
0000
0000
0000
0000
0000
0000
0000
0000
0000
0000
0000
0000
0000
0000
0000
0000
0000
0000
0000
0000
0000
0000
0000
0000
0000
0000
0000
0000
0000
0000
0000
0000
0000
0000
0000
0000
0000
0000
0000
0000
1000
0000
0000
0000
0000
0000
0000
0000
0000
0000
0000
0000
0000
0000
0000
0000
0000
0000
0000
0000
0000
0000
0000
0000
0000
0000
0000
0000
0000
0000
0000
0000
0000
0000
0000
0000
0000
0000
0000
0000
0000
0000
0000
0000
0000
0000
0000
0000
1003
0000
0000
0000
0000
0000
0100
0000
0000
0000
0000
0010
0000
0000
0000
0001
0000
0000
0000
0000
0000
0000
0000
1000
0000
0000
0000
0100
0000
0000
0000
0000
1000
0000
0000
0000
0000
0000
0001
0000
0000
0000
0000
0000
0000
1000
0000
0000
0000
0000
0000
0000
0000
0010
0000
0000
0000
0000
0000
0000
0000
0000
0000
0000
0100
0000
0000
0000
0000
0000
0000
0000
0000
0000
0000
0000
0000
0000
0001
0000
0000
0000
0000
0000
0000
0000
0000
0000
0000
0000
0000
0000
0000
0000
0000
0000
,
1002
0000
0000
0000
0000
0000
0000
0000
0013
0000
0010
0000
0200
0000
0000
0300
,
0012
0000
0000
1003
0020
0000
0000
0030
0210
0000
0000
0000
0301
0000
1000
0000
,
2100
0000
0000
0000
3001
0400
0000
0310
,
2000
0000
0001
0000
3100
0010
0001
0001
,
1020
0000
0000
0100
4030
0000
0000
3001
,
0010
0000
0000
0100
1000
0000
1000
0000
0010
0000
0100
0000
0002
0000
0000
0003
,
1001
1000
0100
0020
0031
4000
0000
3001
,
0100
0000
0000
0000
0100
0000
0000
0000
0010
0000
0000
0000
1000
0000
0000
0000
0001
0000
1000
0001
1000
0000
0200
0000
0000
0000
0310
0100
1000
0000
0001
0000
,
1000
0010
0100
0001
0040
0130
0400
0300
,
1100
0000
0000
1000
0020
0000
0000
0030
0210
0000
0000
0000
0301
0000
0001
0000
,
0101
0000
0100
0000
0010
0000
1000
0000
0004
0003
1001
0000
0000
0000
1100
0000
,
2000
0000
0000
0000
3010
0000
0100
0000
0001
0000
0004
0000
1003
0000
4000
3000
,
1020
0000
0000
0230
0000
0000
0300
0000
,
0020
0000
0000
2030
0000
3002
0000
0000
,
0000
0003
0000
0000
;

//---------------dance-single - Benpai----------------
#NOTES:
     dance-single:
     Benpai:
     Beginner:
     1:
     0.053577,0.083341,0.006945,0.069451,0.055561,54.000000,53.000000,1.000000,10.000000,36.000000,0.000000,0.053577,0.083341,0.006945,0.069451,0.055561,54.000000,53.000000,1.000000,10.000000,36.000000,0.000000:
0000
0000
0000
0000
,
0000
0000
0000
0000
,
1000
0000
0000
0000
,
0000
0000
0000
0000
,
1000
0000
0000
0000
,
0000
0000
0000
0000
,
0001
0000
0000
0000
,
0000
0000
0000
0000
,
0001
0000
0000
0000
,
0000
0000
0000
0000
,
0010
0000
0000
0000
,
0000
0000
0000
0000
,
0010
0000
0000
0000
,
0000
0000
0000
0000
,
0100
0000
0000
0000
,
0000
0000
0000
0000
,
0100
0000
0000
0000
,
0000
0000
0000
0000
,
2000
0000
0000
3000
,
0002
0000
0000
0003
,
0200
0000
0000
0300
,
0020
0000
0000
0030
,
100M
0000
0000
0000
000M
0000
0000
0000
000M
0000
0000
000M
0000
0000
000M
0000
,
000M
0000
000M
0000
000M
0000
000M
0000
000M
0000
000M
0000
000M
0000
000M
000M
,
000M
0000
0000
000M
0000
0000
000M
0000
0000
000M
0000
0000
000M
0000
000M
0000
000M
0000
000M
0000
000M
0000
000M
0000
000M
0000
000M
0000
000M
0000
000M
0000
000M
0000
000M
0000
000M
0000
000M
0000
000M
0000
000M
0000
000M
0000
000M
0000
,
0100
0000
0000
0000
,
1001
0000
0000
0000
,
0000
0000
2000
0000
,
3000
0000
0000
0000
,
0020
0000
0000
0030
0200
0000
0000
0300
,
0001
0000
0000
0000
,
0000
0000
1000
0000
,
1000
0000
0000
0000
,
0010
0000
0000
0000
,
0100
0000
0000
0000
,
0000
0000
0002
0000
,
0003
0000
0000
0000
,
0020
0000
0000
0030
0200
0000
0000
0300
,
1000
0000
0000
0000
,
0000
0000
0001
0000
,
0001
0000
0000
0000
,
1000
0000
0000
0000
,
0010
0000
0000
0000
,
0000
0000
0000
0000
,
0000
0000
0000
0000
,
1000
0000
0000
0000
,
0001
0000
0000
0000
,
0000
0000
0000
0000
,
0010
0000
0000
0000
,
0100
0000
0000
0000
,
1000
0000
0000
0000
,
1000
0000
0000
0000
,
0001
0000
0000
0000
,
0000
0000
0000
0000
,
0100
0000
0000
0000
,
0000
0000
0000
0000
,
0010
0000
0000
0000
,
0000
0000
0000
0000
,
1000
0000
0000
0000
,
0000
0000
0000
0000
,
0001
0000
0000
0000
,
0000
0000
0000
0000
,
0100
0000
0000
0000
,
0000
0000
0000
0000
,
0001
0000
0000
0000
,
0001
0000
0000
0000
,
1000
0000
0000
0000
,
0000
0000
0000
0000
,
1000
0000
0000
0000
,
0000
0000
0000
0000
,
0010
0000
0000
0000
,
0000
0000
0000
0000
,
0010
0000
0000
0000
,
0000
0000
0000
0000
,
0100
0000
0000
0000
,
0000
0000
0000
0000
,
0100
0000
0000
0000
,
0000
0000
0000
0000
,
0001
0000
0000
0000
,
0000
0000
0000
0000
,
0001
0000
0000
0000
;

//---------------dance-single - Benpai----------------
#NOTES:
     dance-single:
     Benpai:
     Easy:
     3:
     0.129973,0.198413,0.000000,0.250024,0.055561,131.000000,131.000000,0.000000,36.000000,38.000000,0.000000,0.129973,0.198413,0.000000,0.250024,0.055561,131.000000,131.000000,0.000000,36.000000,38.000000,0.000000:
// measure 0
0000
0000
0000
0000
,  // measure 1
0000
0000
0000
0000
,  // measure 2
1000
0000
0000
0000
0000
0000
0000
1000
,  // measure 3
0000
0000
0000
0000
0000
0001
0000
0000
,  // measure 4
1000
0000
0000
0000
,  // measure 5
0100
0000
0010
0000
,  // measure 6
0001
0000
0000
0000
0000
0000
0000
0001
,  // measure 7
0000
0000
0000
0000
0000
1000
0000
0000
,  // measure 8
0010
0000
0000
0100
0000
0000
0000
0000
,  // measure 9
0010
0000
0000
0100
0000
0000
0000
0000
,  // measure 10
0001
0000
0000
0000
0000
0000
0000
0001
,  // measure 11
0000
0000
0000
0000
0000
1000
0000
0000
,  // measure 12
0001
0000
0000
0000
,  // measure 13
0010
0000
0100
0000
,  // measure 14
1000
0000
0000
0000
0000
0000
0000
1000
,  // measure 15
0000
0000
0000
0000
0000
0001
0000
0000
,  // measure 16
1000
0000
0000
0000
,  // measure 17
0100
0000
0000
0000
,  // measure 18
0020
0000
0000
0000
,  // measure 19
0032
0000
0000
0000
,  // measure 20
0203
0000
0000
0000
,  // measure 21
0320
0000
0000
0000
,  // measure 22
103M
0000
0000
0000
000M
0000
0000
0000
000M
0000
0000
000M
0000
0000
000M
0000
,  // measure 23
000M
0000
000M
0000
000M
0000
000M
0000
000M
0000
000M
0000
000M
0000
000M
000M
,  // measure 24
000M
0000
0000
000M
0000
0000
000M
0000
0000
000M
0000
0000
000M
0000
000M
0000
000M
0000
000M
0000
000M
0000
000M
0000
000M
0000
000M
0000
000M
0000
000M
0000
000M
0000
000M
0000
000M
0000
000M
0000
000M
0000
000M
0000
000M
0000
000M
0000
,  // measure 25
0100
0000
0000
1000
,  // measure 26
0002
0003
1000
0000
,  // measure 27
0100
0000
2000
0000
,  // measure 28
3001
0000
0100
0000
,  // measure 29
0020
0000
0230
0000
,  // measure 30
0301
0000
0000
0000
0000
0010
0000
0010
,  // measure 31
0000
0000
0200
0000
,  // measure 32
1300
0000
0001
0000
,  // measure 33
0100
0000
0010
0000
,  // measure 34
2000
3000
0001
0000
,  // measure 35
0010
0000
0200
0000
,  // measure 36
1300
0000
0010
0000
,  // measure 37
0200
0000
0302
0000
,  // measure 38
1003
0000
0000
0000
0000
0100
0000
0100
,  // measure 39
0000
0000
0020
0000
,  // measure 40
0031
0000
1000
0000
,  // measure 41
0020
0000
0000
0000
,  // measure 42
0130
0000
0000
0000
,  // measure 43
0000
0000
0000
0000
,  // measure 44
0000
0000
0000
0000
,  // measure 45
0001
0000
0000
0100
0000
0000
0001
0000
,  // measure 46
0000
0000
0000
0000
,  // measure 47
0000
0000
0000
0000
,  // measure 48
0010
0000
0000
0100
0000
0000
0000
0000
,  // measure 49
1000
0000
0000
0200
0000
0000
0000
0000
,  // measure 50
0310
0000
0000
0000
0000
0001
0000
4000
,  // measure 51
0000
3000
0040
0030
,  // measure 52
0100
0000
0000
0001
0000
0010
0000
0000
,  // measure 53
0200
0000
2300
0000
,  // measure 54
3001
0000
0000
1000
0000
0001
0000
1000
,  // measure 55
0000
0100
0100
0000
,  // measure 56
0010
0000
0000
0100
0000
0000
0000
0000
,  // measure 57
0010
0000
0000
0001
0000
1000
0000
0000
,  // measure 58
0020
0000
0000
0000
,  // measure 59
0230
0000
0000
0000
,  // measure 60
0302
0000
0000
0000
,  // measure 61
2003
0000
3200
0000
,  // measure 62
2300
0000
0000
0000
,  // measure 63
3020
0000
0000
0000
,  // measure 64
0230
0000
0000
0000
,  // measure 65
0301
0000
0000
10M0
,  // measure 66
1000
0000
0100
0000
,  // measure 67
0020
0000
0032
0000
,  // measure 68
1003
0000
0020
0000
,  // measure 69
1030
0000
0001
0000
,  // measure 70
0020
0000
0130
0000
,  // measure 71
0020
0000
0031
0000
,  // measure 72
2000
0000
3001
0000
,  // measure 73
0100
0000
0001
0001
,  // measure 74
0001
0000
1000
0000
,  // measure 75
0020
0000
0130
0000
,  // measure 76
0001
0000
2000
0000
,  // measure 77
3100
0000
0010
0000
,  // measure 78
0100
0000
0000
0000
0000
1000
0000
0002
,  // measure 79
0000
0103
0200
0000
,  // measure 80
0310
0000
0000
0000
,  // measure 81
0000
0000
0000
0000
0000
000M
0000
0000
;

//---------------dance-single - Benpai----------------
#NOTES:
     dance-single:
     Benpai:
     Hard:
     8:
     0.355193,0.542674,0.083341,0.611171,0.048616,358.000000,346.000000,12.000000,88.000000,6.000000,0.000000,0.355193,0.542674,0.083341,0.611171,0.048616,358.000000,346.000000,12.000000,88.000000,6.000000,0.000000:
// measure 0
0000
0000
0000
0000
,  // measure 1
0000
0000
0000
0000
,  // measure 2
0001
0010
0100
1000
0000
0001
0000
1000
,  // measure 3
0000
0000
0010
0200
0300
0001
0000
0000
,  // measure 4
0010
0100
1000
0001
0000
0200
0300
0010
,  // measure 5
2000
0000
3200
0000
,  // measure 6
0310
0001
1000
0010
0000
0100
0000
0001
,  // measure 7
0000
0000
1000
0200
0300
0010
0000
0000
,  // measure 8
0200
0000
0000
2300
0000
0000
0000
0000
,  // measure 9
3020
0000
0000
0230
0000
0320
0000
0030
,  // measure 10
1000
0100
0010
0001
0000
2000
3000
0020
,  // measure 11
0030
0000
0100
0002
0003
1000
0000
0000
,  // measure 12
0100
0010
0001
2000
3000
0020
0030
0000
,  // measure 13
0200
0000
0302
0000
,  // measure 14
1003
0100
1000
0001
0000
0020
0030
0200
,  // measure 15
0300
0000
1000
0002
0003
0100
0000
0000
,  // measure 16
0020
0000
0000
0230
0000
0000
0000
0000
,  // measure 17
0302
0000
0000
2003
0000
3200
0000
0000
,  // measure 18
1300
0010
0000
0100
0000
0001
0000
1000
,  // measure 19
0100
0010
0000
0100
0000
1000
0000
0001
,  // measure 20
0100
0001
0000
1000
0000
0100
0000
0010
,  // measure 21
0200
0000
0000
2300
0000
0000
3002
0000
,  // measure 22
4003
0004
0000
0000
0000
0000
0000
0000
0000
0000
0000
0000
0000
0000
0000
0000
,  // measure 23
0000
0000
0000
0000
,  // measure 24
0000
0000
0000
0000
0000
0000
0000
3003
,  // measure 25
MMMM
0000
0000
0000
,  // measure 26
1002
0000
0000
0013
0000
0100
1000
0004
,  // measure 27
4003
0000
3004
0000
0103
0000
0010
0000
1000
0001
1000
0001
0000
0010
0100
1000
,  // measure 28
0002
0000
1003
0010
0000
0400
0000
0300
,  // measure 29
0102
0000
0000
0000
2003
0000
3100
0010
,  // measure 30
0100
1000
0001
0100
0000
0101
0000
1100
,  // measure 31
0000
0001
0100
0010
2000
0000
0000
0000
,  // measure 32
3100
1000
0100
1000
0001
0100
0001
0100
,  // measure 33
0010
1000
0010
0200
0300
0002
0003
0000
,  // measure 34
2001
0000
3010
0100
0000
0001
4000
3004
,  // measure 35
4003
0000
3004
0000
0013
0000
0100
0000
1000
0001
1000
0001
0000
0100
0010
1000
,  // measure 36
0002
0000
1003
0100
0000
0040
0000
0030
,  // measure 37
0012
0000
0000
0000
2003
0000
3010
0100
,  // measure 38
0001
0010
0100
4000
3000
1100
0000
0101
,  // measure 39
0000
0001
0010
0100
0020
0000
0000
0000
,  // measure 40
0031
0010
0001
1000
0010
1000
0010
0100
,  // measure 41
0002
0000
0000
0203
0000
0320
0000
0000
,  // measure 42
1030
0100
0010
0001
0000
0010
0000
0100
,  // measure 43
0000
0000
1000
0001
0000
0000
0000
0000
,  // measure 44
0100
0010
0100
0001
0000
0010
0000
0000
,  // measure 45
0010
0100
1000
0010
,  // measure 46
0100
0001
1000
0100
0000
0010
0000
0100
,  // measure 47
0000
0000
1000
0001
0000
0000
0000
0000
,  // measure 48
0020
0000
0000
0230
0000
0000
0000
0000
,  // measure 49
1300
0000
0000
1000
0000
0000
0001
0000
0000
0000
0200
0000
0000
0000
0000
0000
,  // measure 50
0310
1000
0100
0010
0000
0100
0000
1000
,  // measure 51
0001
0001
0001
1000
0010
0010
0010
0000
,  // measure 52
0100
0001
1000
0100
0000
0020
0030
0100
,  // measure 53
2000
0000
3200
0000
,  // measure 54
0310
0001
1000
0010
0000
0100
0000
0010
,  // measure 55
1000
0000
0001
2000
3000
0100
0020
0000
,  // measure 56
0032
0000
0000
2003
0000
0000
0000
0000
,  // measure 57
3020
0000
0000
0230
0000
0302
0000
0000
,  // measure 58
1003
0100
1000
0010
0000
0200
0300
0002
,  // measure 59
0003
0000
1000
0200
0300
0000
0000
0000
,  // measure 60
0010
0100
1000
0001
0000
0200
0300
0000
,  // measure 61
0200
0000
0302
0000
,  // measure 62
0013
0100
1000
0001
0000
0200
0300
0020
,  // measure 63
0030
0000
1000
0002
0003
0000
0000
0000
,  // measure 64
0020
0000
0000
0230
0000
0000
0000
0000
,  // measure 65
2300
0000
0000
3M1M
,  // measure 66
2010
0000
0000
0000
3002
0000
0013
0100
,  // measure 67
0020
0000
0034
0000
,  // measure 68
1003
0000
0000
0000
0010
0100
0020
0000
,  // measure 69
2030
0000
3002
0000
0023
0000
0130
1000
,  // measure 70
0200
0000
0000
0000
0310
0001
0000
1000
,  // measure 71
0020
0000
0000
0000
0130
0001
1000
0001
,  // measure 72
0020
0000
0430
0000
,  // measure 73
1300
0000
0010
0100
0001
1000
0020
0030
,  // measure 74
1001
1000
0100
0010
0000
0400
0000
1300
,  // measure 75
0000
0000
0000
0000
0001
0000
0100
0000
0010
1000
0010
1000
0000
0001
0100
0001
,  // measure 76
1000
0100
0010
0100
4000
3004
4003
3000
,  // measure 77
0020
0000
0230
0000
0320
0000
1030
0001
,  // measure 78
0010
0100
1000
0001
0000
1001
0000
1100
,  // measure 79
2000
0000
3001
0100
0040
0430
0340
0430
,  // measure 80
0302
0000
0000
2003
0000
0000
3000
0000
,  // measure 81
0020
0000
0000
0230
0000
0302
0000
0000
,  // measure 82
0000
0003
0000
0000
;

//---------------dance-single - Benpai----------------
#NOTES:
     dance-single:
     Benpai:
     Medium:
     5:
     0.235142,0.311792,0.020835,0.500049,0.055561,237.000000,234.000000,3.000000,72.000000,37.000000,0.000000,0.235142,0.311792,0.020835,0.500049,0.055561,237.000000,234.000000,3.000000,72.000000,37.000000,0.000000:
// measure 0
0000
0000
0000
0000
,  // measure 1
0000
0000
0000
0000
,  // measure 2
1000
0000
0000
0100
0000
0010
0000
0100
,  // measure 3
0000
0000
1000
0001
0000
0001
0000
0000
,  // measure 4
0100
0000
0000
0010
0000
1000
0000
0001
,  // measure 5
0020
0000
0230
0000
,  // measure 6
1300
0000
0000
0001
0000
0100
0000
0001
,  // measure 7
0000
0000
0010
0100
0000
0100
0000
0000
,  // measure 8
2000
0000
0000
3002
0000
0000
0000
0000
,  // measure 9
0203
0000
0000
0320
0000
2030
0000
0000
,  // measure 10
3001
0000
0000
1000
0000
0100
0000
1000
,  // measure 11
0000
0000
0001
0100
0000
0100
0000
0000
,  // measure 12
0010
0000
0000
0100
0000
0001
0000
1000
,  // measure 13
0200
0000
0320
0000
,  // measure 14
0031
0000
0000
1000
0000
0010
0000
1000
,  // measure 15
0000
0000
0001
0010
0000
0010
0000
0000
,  // measure 16
0200
0000
0000
2300
0000
0000
0000
0000
,  // measure 17
3020
0000
0000
0230
0000
0302
0000
0000
,  // measure 18
2003
0000
0000
0000
,  // measure 19
3020
0000
0000
0000
,  // measure 20
2030
0000
0000
0000
,  // measure 21
3200
0000
0000
0000
,  // measure 22
032M
0000
0000
0000
000M
0000
0000
0000
000M
0000
0000
000M
0000
0000
000M
0000
,  // measure 23
000M
0000
000M
0000
000M
0000
000M
0000
000M
0000
000M
0000
000M
0000
000M
000M
,  // measure 24
000M
0000
0000
000M
0000
0000
000M
0000
0000
000M
0000
0000
000M
0000
000M
0000
000M
0000
000M
0000
000M
0000
000M
0000
000M
0000
000M
0000
000M
0000
000M
0000
000M
0000
000M
0000
000M
0000
000M
0000
000M
0000
000M
0000
000M
0000
000M
0000
,  // measure 25
0130
0000
0000
1000
,  // measure 26
0002
0000
0003
1000
0000
0010
0000
0100
,  // measure 27
0002
0000
0013
0100
2000
0000
0000
0000
,  // measure 28
3001
0000
0000
0010
0000
0200
0000
0000
,  // measure 29
2300
0000
3002
0000
,  // measure 30
0103
0000
0000
0010
1000
0001
0000
0001
,  // measure 31
0000
0010
0001
0100
0020
0000
0000
0000
,  // measure 32
2030
0000
0000
3200
0000
0000
0000
0000
,  // measure 33
0320
0000
0000
0032
0000
2003
0000
0000
,  // measure 34
3002
0000
0003
0100
0000
0010
0000
1000
,  // measure 35
0002
0000
1003
0100
2000
0000
0000
0000
,  // measure 36
3001
0000
0000
0100
0000
0020
0000
0000
,  // measure 37
2030
0000
3200
0000
,  // measure 38
0310
0000
0000
0001
0000
0100
0000
0100
,  // measure 39
0000
0010
1000
0001
0020
0000
0000
0000
,  // measure 40
0230
0000
0000
2300
0000
0000
0000
0000
,  // measure 41
3020
0000
0000
0230
0000
0302
0000
0000
,  // measure 42
1003
0000
0000
0100
0000
1000
0000
0001
,  // measure 43
0000
0000
0100
0001
0000
0000
0000
0000
,  // measure 44
0010
0000
0000
0100
0000
1000
0000
0000
,  // measure 45
0001
0000
0000
0100
0000
0000
0001
0000
,  // measure 46
0010
0000
0000
0100
0000
1000
0000
0001
,  // measure 47
0000
0000
0100
0010
0000
0000
0000
0000
,  // measure 48
2000
0000
0000
3002
0000
0000
0000
0000
,  // measure 49
0023
0000
0000
0230
0000
0000
0300
0000
,  // measure 50
1001
0000
0000
0001
0000
0100
0000
0010
,  // measure 51
4000
0000
3000
0100
0040
0000
0030
0000
,  // measure 52
1001
0000
0000
0001
0000
0010
0000
0100
,  // measure 53
2000
0000
3200
0000
,  // measure 54
0310
0000
0000
0001
0000
0100
0000
0010
,  // measure 55
0100
0000
0001
1000
0000
0000
0200
0000
,  // measure 56
0320
0000
0000
0032
0000
0000
0000
0000
,  // measure 57
2003
0000
0000
3020
0000
0230
0000
0000
,  // measure 58
0301
0000
0000
1000
0000
0010
0000
0100
,  // measure 59
0000
0000
0001
1000
0000
0000
0000
0000
,  // measure 60
0001
0000
0000
1000
0000
0100
0000
0000
,  // measure 61
0200
0000
2300
0000
,  // measure 62
3001
0000
0000
0100
0000
0010
0000
1000
,  // measure 63
0000
0000
0001
1000
0000
0000
0000
0000
,  // measure 64
0100
0000
0000
0010
0000
0000
0000
0000
,  // measure 65
0001
0000
0000
1M00
,  // measure 66
2001
3000
0001
0100
,  // measure 67
0020
0000
2030
0000
,  // measure 68
3001
0000
0020
0000
,  // measure 69
0130
0000
1000
0000
0010
0000
0100
0001
,  // measure 70
2000
0000
0000
0000
3100
1000
0000
1000
,  // measure 71
0002
0000
0103
0000
,  // measure 72
0002
0000
1003
0100
,  // measure 73
0010
0100
1000
1000
,  // measure 74
0010
0000
0100
0000
0001
1000
0000
0100
,  // measure 75
0020
0000
0031
1000
0002
0000
0000
0000
,  // measure 76
0013
0000
0100
0000
1000
0001
1000
0000
,  // measure 77
0010
0000
0100
0001
,  // measure 78
1000
0000
0000
0100
1000
0001
0000
0002
,  // measure 79
0000
0000
0103
0010
2000
0000
0000
0000
,  // measure 80
3020
0000
0000
0230
0000
0000
0300
0000
,  // measure 81
0002
0000
0000
2003
0000
3100
0000
0000
;
