#TITLE:Street Food;
#SUBTITLE:;
#ARTIST:Rhodz;
#TITLETRANSLIT:;
#SUBTITLETRANSLIT:;
#ARTISTTRANSLIT:;
#GENRE:Electro House;
#CREDIT:Feraligatr;
#BANNER:Street Food.png;
#BACKGROUND:Street Food-bg.png;
#LYRICSPATH:;
#CDTITLE:cdtitle.png;
#MUSIC:Street Food.ogg;
#OFFSET:0.009000;
#SAMPLESTART:14.991000;
#SAMPLELENGTH:15.000000;
#SELECTABLE:YES;
#DISPLAYBPM:64.000000:128.000000;
#BPMS:0.000000=128.000000
,92.000000=192.000000
,94.000000=128.000000
,124.000000=192.000000
,126.000000=128.000000
,228.000000=64.000000
;
#STOPS:92.000000=0.078000,
92.500000=0.078000,
93.000000=0.078000,
93.500000=0.078000,
124.000000=0.078000,
124.500000=0.079000,
125.000000=0.078000,
125.500000=0.078000
;
#BGCHANGES:;
#KEYSOUNDS:;
#ATTACKS:;

//---------------dance-single - Feraligatr----------------
#NOTES:
     dance-single:
     Feraligatr:
     Challenge:
     11:
     0.785185,0.829225,0.222222,0.644444,0.974074,625.000000,30.000000,87.000000,28.000000,0.000000,6.000000,0.785185,0.829225,0.222222,0.644444,0.974074,625.000000,30.000000,87.000000,28.000000,0.000000,6.000000:
0000
0000
0000
0000
,
0000
0000
0000
0000
,
0000
0000
0000
0000
,
0000
0000
0000
0000
,
0001
0000
0000
0000
0101
0000
0000
0000
1000
0001
0100
0010
1000
0100
1000
0001
,
0100
0000
0010
0000
0100
0000
0010
0000
1000
0001
0000
0010
0000
0100
0010
0001
,
1000
0000
0000
0000
1010
0000
0000
0000
1000
0001
0010
0100
1000
0010
1000
0001
,
0100
0000
0010
0000
0100
0000
0010
0000
2000
0000
0000
0000
3001
0010
0100
1000
,
0002
0000
0000
0000
1003
0001
1000
0100
0000
0100
0000
0100
1000
0100
0010
0000
,
0002
0000
0203
0000
0320
0000
2030
0000
3200
0010
0000
0310
0002
0000
1003
0000
,
0001
0000
1000
0000
0010
0000
0100
0001
0000
0001
1000
0001
0010
0000
0100
0000
,
0002
0000
0000
0000
0000
0000
0000
0000
0203
0000
0000
0000
0310
0000
0001
1000
0010
0000
0100
0000
0010
0000
1000
0000
0001
0000
0010
0000
0100
0000
1000
0000
,
0002
0000
0000
0000
0103
0010
1000
0001
0000
0010
0000
0010
0001
0010
0100
0000
,
0002
0000
0203
0000
0320
0000
0032
0000
2003
0010
0000
3010
0200
0000
0301
1000
,
0100
0000
0000
0000
0000
0000
0000
0000
0000
0000
0000
0000
0010
0000
0000
0000
0000
0000
0000
0000
0000
0000
0000
0000
0000
0000
0000
0000
0000
0000
0000
0000
0000
0000
0000
0000
0001
0000
0000
1000
0000
0000
0000
0000
0000
0000
0000
0000
0000
0000
0000
0000
0000
0000
0000
0000
0000
0000
0000
0000
0010
0000
0000
0000
0000
0000
0000
0000
0000
0000
0000
0000
0100
0000
0000
0000
0000
0000
0000
0000
0000
0000
0000
0000
0000
0000
0000
0000
0000
0000
0000
0000
0000
0000
0000
0000
0001
0000
0000
0000
0000
0000
0000
0000
0000
0000
0000
0000
1000
0000
0000
0000
0000
0000
0000
0000
0000
0000
0000
0000
0000
0000
0000
0000
0000
0000
0000
0000
0000
0000
0000
0000
0100
0000
0000
0000
0000
0000
0000
0000
0000
0000
0000
0000
0000
0000
0000
0000
0000
0000
0000
0000
0000
0000
0000
0000
0000
0000
0000
0000
0000
0000
0000
0000
0000
0000
0010
0000
0001
0000
0000
0000
0000
0000
0000
0000
0000
0000
0000
0000
0000
0000
0000
0000
0000
0000
0000
0000
0000
0000
0000
0000
,
0200
0000
0000
0000
0000
0000
0000
0000
0320
0000
0000
0000
1030
0000
0001
1000
0100
0000
0010
0000
0100
0000
1000
0000
0001
0000
0100
0000
0010
0000
1000
0000
,
0002
0000
0000
0000
0000
0000
0003
0000
1002
0000
0000
0000
0000
0000
0000
0000
0013
0000
0100
0000
0010
0000
0001
0000
0000
0000
1000
0000
0100
00M0
0100
0000
,
0001
0000
0000
0000
1000
0000
0000
0000
0001
0000
0000
0000
1000
0000
0000
0000
0010
0000
0100
0000
40MM
3000
0100
0000
0010
0000
1000
0000
0001
0000
0010
0000
,
0200
0000
1300
0000
0210
0000
1300
0100
1000
0001
0100
0010
0000
0010
1000
0001
,
0040
0000
0000
0000
0100
0000
0000
0000
0032
0000
1003
0001
0100
0000
0010
0000
,
2000
0000
0000
0000
0000
0000
3000
0000
2010
0000
0000
0000
0000
0000
0000
0000
3001
0000
1000
0000
0100
0000
0010
0000
0000
0000
0001
0000
0100
00M0
0100
0000
,
1000
0000
0000
0000
0001
0000
0000
0000
1000
0000
0000
0000
0001
0000
0000
0000
0100
0000
0010
0000
MM04
0003
0010
0000
0100
0000
0001
0000
1000
0000
0100
0000
,
0020
0000
0130
0000
0021
0000
0130
1000
0001
0100
0010
1000
0000
1000
0001
0010
,
0100
0100
1100
0100
0010
0010
0011
0010
,
2001
0000
0000
0000
0000
0000
3000
0000
2010
0000
0000
0000
0000
0000
0000
0000
3001
0000
1000
0000
0001
0000
0010
0000
0000
0000
0001
0000
0100
00M0
0100
0000
,
1000
0000
0000
0000
0001
0000
0000
0000
1000
0000
0000
0000
0001
0000
0000
0000
0010
0000
0100
0000
M0M4
0003
0100
0000
0010
0000
0001
0000
1000
0000
0010
0000
,
0200
0000
0310
0000
0201
0000
0310
1000
0001
1000
0100
0010
0000
0010
0001
1000
,
0040
0000
0000
0000
0100
0000
0000
0000
2030
0000
3001
1000
0100
0000
0010
0000
,
0012
0000
0000
0000
0000
0000
0003
0000
1002
0000
0000
0000
0000
0000
0000
0000
1003
0000
0100
0000
1000
0000
0001
0000
0000
0000
1000
0000
0100
00M0
0100
0000
,
0001
0000
0000
0000
1000
0000
0000
0000
0001
0000
0000
0000
1000
0000
0000
0000
0100
0000
0010
0000
4M0M
3000
0010
0000
0100
0000
1000
0000
0001
0000
0100
0000
,
0020
0000
1030
0000
0120
0000
1030
0001
0100
0001
1000
0100
0000
0100
1000
0001
,
0100
0000
0100
0000
0101
0000
0100
0000
0010
0000
0010
0000
1000
0100
0010
0001
,
1000
0M00
0M00
0M00
,
0001
0000
1000
0000
0010
0000
0100
0001
0000
0001
1000
0000
0100
0000
0010
0000
,
0001
0000
1000
0000
0010
0000
0100
0001
0000
0001
1000
0000
1100
0000
0100
0000
,
0010
0000
0001
0000
1000
0000
0010
0100
0000
0100
0001
0000
1000
0000
0100
0000
,
0010
0000
0100
0000
1000
0000
0001
0100
0000
0100
0010
0000
1010
0000
1000
0000
,
0001
0000
1000
0000
0100
0000
0010
0001
0000
0001
1000
0000
0010
0000
0100
0000
,
0001
0000
1000
0000
0100
0000
0010
0100
0000
0100
1000
0000
1001
0000
0001
0000
,
0100
0000
0010
0000
1000
0000
0001
1000
0000
1000
0100
0000
0010
0000
0100
0000
,
1000
0000
0001
0000
0100
0000
0010
1000
0000
1000
0001
0000
1000
0010
0100
0001
,
2000
0000
0000
0000
3100
0010
0100
1000
0000
1000
0000
1000
0100
1000
0001
0000
,
0200
0000
0320
0000
2030
0000
3002
0000
0023
0100
0000
0130
2000
0000
3001
0000
,
1000
0000
0010
0000
0100
0000
0001
1000
0000
1000
0001
1000
0010
0000
0100
0000
,
2000
0000
0000
0000
0000
0000
0000
0000
3200
0000
0000
0000
0310
0000
1000
0001
0010
0000
0100
0000
1000
0000
0001
0000
0100
0000
0010
0000
0100
0000
0001
0000
,
2000
0000
0000
0000
3100
1000
0001
0100
0000
0010
0000
0010
1000
0010
0100
0000
,
2000
0000
3200
0000
0320
0000
2030
0000
3002
0010
0000
0013
0200
0000
1300
0001
,
0010
0000
0000
0000
0000
0000
0000
0000
0000
0000
0000
0000
0001
0000
0000
0000
0000
0000
0000
0000
0000
0000
0000
0000
0000
0000
0000
0000
0000
0000
0000
0000
0000
0000
0000
0000
1000
0000
0000
0100
0000
0000
0000
0000
0000
0000
0000
0000
0000
0000
0000
0000
0000
0000
0000
0000
0000
0000
0000
0000
0010
0000
0000
0000
0000
0000
0000
0000
0000
0000
0000
0000
0001
0000
0000
0000
0000
0000
0000
0000
0000
0000
0000
0000
0000
0000
0000
0000
0000
0000
0000
0000
0000
0000
0000
0000
1000
0000
0000
0000
0000
0000
0000
0000
0000
0000
0000
0000
0001
0000
0000
0000
0000
0000
0000
0000
0000
0000
0000
0000
0000
0000
0000
0000
0000
0000
0000
0000
0000
0000
0000
0000
0100
0000
0000
0000
0000
0000
0000
0000
0000
0000
0000
0000
0000
0000
0000
0000
0000
0000
0000
0000
0000
0000
0000
0000
0000
0000
0000
0000
0000
0000
0000
0000
0000
0000
0010
0000
1000
0000
0000
0000
0000
0000
0000
0000
0000
0000
0000
0000
0000
0000
0000
0000
0000
0000
0000
0000
0000
0000
0000
0000
,
0200
0000
0000
0000
0000
0000
0000
0000
0320
0000
0000
0000
0031
0000
0010
0001
1000
0000
0010
0000
0100
0000
0001
0000
M000
0000
M000
0000
M000
0000
M000
0000
,
2001
0000
0000
0000
0000
0000
3000
0000
2010
0000
0000
0000
0000
0000
0000
0000
3001
0000
1000
0000
0100
0000
0010
0000
0000
0000
0001
0000
0100
00M0
0100
0000
,
1000
0001
1000
0100
0010
0100
1000
0001
0100
0020
M00M
0130
0001
1000
0001
0010
,
0200
0000
1300
0000
0210
0000
1300
0001
0100
0010
1000
0001
0000
0001
0010
0100
,
0002
0000
0000
0000
0000
0000
0000
0000
0203
0000
0000
0000
0310
0000
0001
1000
0010
0000
0100
0000
0001
0000
1000
0000
0010
0000
0100
0000
0001
0000
1000
0000
,
0200
0000
0000
0000
0000
0000
0300
0000
1200
0000
0000
0000
0000
0000
0000
0000
1300
0000
0001
0000
0100
0000
0010
0000
0000
0000
1000
0000
0010
0M00
0010
0000
,
0001
1000
0100
0010
0100
1000
0001
0100
0010
2000
0M0M
3010
1000
0001
0010
0100
,
1000
0000
0000
0000
0001
0000
0000
0000
0000
0000
0000
1000
0100
0000
0000
0000
0010
0000
0000
0000
0000
0000
0000
0000
0001
0000
0000
0000
1000
0000
0000
0000
0010
0000
0000
0000
0100
0000
0000
0000
0001
0000
0000
0000
1000
0000
0000
0000
0000
0000
0000
0000
1000
0000
0000
0000
0001
0000
0000
0000
0010
0000
0000
0000
,
0100
0000
1000
0000
0001
0000
0100
0000
0001
0000
1000
0000
0100
0000
0010
0000
0001
0000
1000
0000
0001
0000
0100
0000
0010
0000
1000
0000
0001
0000
1000
0000
0100
0000
0010
0000
0001
0000
0000
0100
0000
0000
0010
0000
0000
1000
0000
0000
,
010M
0000
0000
0000
0000
0000
0000
0000
0000
0000
0000
0000
0000
0000
0000
0000
0000
0000
0000
0000
0000
0000
0000
0000
00M0
0000
0000
0000
0000
0000
0000
0000
0000
0000
0000
0000
0000
0000
0000
0000
0000
0000
0000
0000
0000
0000
0000
0000
0M01
0000
0000
0000
0000
0000
0000
0000
0000
0000
0000
0000
0100
0000
0000
0000
0000
0000
0000
0000
0000
0000
0000
0000
0010
0000
0000
0000
0000
0000
0000
0000
0000
0000
0000
0000
1000
0000
0000
0000
0000
0000
0000
0000
0000
0000
0000
0000
0001
0000
0020
0000
0000
0000
0000
0000
0000
0000
0000
0000
0000
0000
0000
0000
0000
0000
0000
0000
0000
0000
0000
0000
0000
0000
0000
0000
0000
0000
0000
0000
0000
0000
0000
0000
0230
0000
0000
0000
0000
0000
0000
0000
0000
0000
0000
0000
0000
0000
0000
0000
0000
0000
0000
0000
0000
0000
0000
0000
1300
0000
0000
0000
0000
0000
0000
0000
0000
0000
0000
0000
0001
0000
0000
0000
0000
0000
0000
0000
0000
0000
0000
0000
0100
0000
0000
0000
0000
0000
0000
0000
0000
0000
0000
0000
,
1020
0000
0000
0000
0000
0000
0000
0000
0000
0000
0000
0000
0000
0000
0000
0000
0000
0000
0000
0000
0000
0000
0000
0000
0000
0000
0000
0000
0000
0000
0000
0000
0000
0000
0000
0000
0000
0000
0000
0000
0000
0000
0000
0000
0000
0000
0000
0000
0000
0000
0000
0000
0000
0000
0000
0000
0000
0000
0000
0000
0130
0000
0000
0000
0000
0000
0000
0000
0000
0000
0000
0000
0001
0000
0000
0000
0000
0000
0000
0000
0000
0000
0000
0000
1000
0000
0000
0000
0000
0000
0000
0000
0000
0000
0000
0000
0001
0000
0020
0000
0000
0000
0000
0000
0000
0000
0000
0000
0000
0000
0000
0000
0000
0000
0000
0000
0000
0000
0000
0000
0000
0000
0000
0000
0000
0000
0000
0000
0000
0000
0000
0000
0230
0000
0000
0000
0000
0000
0000
0000
0000
0000
0000
0000
0310
0000
0000
0000
0000
0000
0000
0000
0000
0000
0000
0000
0001
0000
0000
0000
0000
0000
0000
0000
0000
0000
0000
0000
1000
0000
0000
0001
0000
0000
0000
0000
0000
0000
0000
0000
0100
0000
0000
0000
0000
0000
0000
0000
0000
0000
0000
0000
,
0010
0000
2000
0000
0000
0000
0000
0000
0000
0000
0000
0000
0000
0000
0000
0000
0000
0000
0000
0000
0000
0000
0000
0000
0000
0000
0000
0000
0000
0000
0000
0000
0000
0000
0000
0000
0000
0000
0000
0000
0000
0000
3000
0000
0000
0000
0000
0000
1002
0000
0000
0000
0000
0000
0000
0000
0000
0000
0000
0000
0000
0000
0000
0000
0000
0000
0000
0000
0000
0000
0000
0000
0013
0000
0000
0000
0000
0000
0000
0000
0000
0000
0000
0000
0100
0000
0000
0000
0000
0000
0000
0000
0000
0000
0000
0000
1000
0000
0002
0000
0000
0000
0000
0000
0000
0000
0000
0000
0000
0000
0000
0000
0000
0000
0000
0000
0000
0000
0000
0000
0000
0000
0000
0000
0000
0000
0000
0000
0000
0000
0000
0000
0023
0000
0000
0000
0000
0000
0000
0000
0000
0000
0000
0000
0000
0000
0000
0000
0000
0000
0000
0000
0000
0000
0000
0000
0130
0000
0000
0000
0000
0000
0000
0000
0000
0000
0000
0000
1000
0000
0000
0000
0000
0000
0000
0000
0000
0000
0000
0000
0001
0000
0000
0000
0000
0000
0000
0000
0000
0000
0000
0000
,
0201
0000
0000
0000
0000
0000
0000
0000
0000
0000
0000
0000
0000
0000
0000
0000
0000
0000
0000
0000
0000
0000
0000
0000
0000
0000
0000
0000
0000
0000
0000
0000
0000
0000
0000
0000
0000
0000
0000
0000
0000
0000
0000
0000
0000
0000
0000
0000
0301
0000
0000
0000
0000
0000
0000
0000
0000
0000
0000
0000
1000
0000
0000
0000
0000
0000
0000
0000
0000
0000
0000
0000
0100
0000
0000
0000
0000
0000
0000
0000
0000
0000
0000
0000
0010
0000
0000
0000
0000
0000
0000
0000
0000
0000
0000
0000
0001
0000
2000
0000
0000
0000
0000
0000
0000
0000
0000
0000
0000
0000
0000
0000
0000
0000
0000
0000
0000
0000
0000
0000
0000
0000
0000
0000
0000
0000
0000
0000
0000
0000
0000
0000
3020
0000
0000
0000
0000
0000
0000
0000
0000
0000
0000
0000
0000
0000
0000
0000
0000
0000
0000
0000
0000
0000
0000
0000
0000
0000
0000
0000
0000
0000
0000
0000
0000
0000
0000
0000
0130
0000
0000
0000
0000
0000
0000
0000
0000
0000
0000
0000
0001
0000
0000
0000
0000
0000
0000
0000
0000
0000
0000
0000
,
1002
0000
0000
0000
0000
0000
0000
0000
0000
0000
0000
0000
0000
0000
0000
0000
0000
0000
0003
0000
0000
0000
0000
0000
0021
0000
0000
0000
0000
0000
0000
0000
0000
0000
0000
0000
0000
0000
0000
0000
0000
0000
0030
0000
0000
0000
0000
0000
1002
0000
0000
0000
0000
0000
0000
0000
0000
0000
0000
0000
0000
0000
0000
0000
0000
0000
0003
0000
0000
0000
0000
0000
0201
0000
0000
0000
0000
0000
0000
0000
0000
0000
0000
0000
0000
0000
0000
0000
0000
0000
0000
0000
0000
0000
0000
0000
0310
0000
0000
1000
0000
0000
0002
0000
0000
0000
0000
0000
0000
0000
0000
0000
0000
0000
0000
0000
0000
0000
0000
0000
0000
0000
0000
0000
0000
0000
0000
0000
0000
0000
0000
0000
0000
0000
0000
0000
0000
0000
0000
0000
0000
0000
0000
0000
0000
0000
0000
0000
0000
0000
0000
0000
0000
0000
0000
0000
0000
0000
0000
0000
0000
0000
0000
0000
0000
0000
0000
0000
0013
0000
0200
0000
0000
0000
0000
0000
0000
0000
0000
0000
0000
0000
0000
0000
0000
0000
0000
0000
0000
0000
0000
0000
,
1300
0000
0000
0001
0000
0000
0200
0000
0000
0000
0000
0000
0000
0000
0000
0000
0000
0000
0000
0000
0000
0000
0000
0000
0000
0000
0000
0000
0000
0000
0000
0000
0000
0000
0000
0000
0000
0000
0000
0000
0000
0000
0000
0000
0000
0000
0000
0000
0310
0000
0000
0000
0000
0000
0000
0000
0000
0000
0000
0000
1000
0000
0000
0000
0000
0000
0000
0000
0000
0000
0000
0000
0001
0000
0000
0000
0000
0000
0000
0000
0000
0000
0000
0000
0010
0000
0000
0000
0000
0000
0000
0000
0000
0000
0000
0000
0100
0000
2000
0000
0000
0000
0000
0000
0000
0000
0000
0000
0000
0000
0000
0000
0000
0000
0000
0000
0000
0000
0000
0000
0000
0000
0000
0000
0000
0000
0000
0000
0000
0000
0000
0000
3001
0000
0000
0000
0000
0000
0000
0000
0000
0000
0000
0000
1000
0000
0000
0000
0000
0000
0000
0000
0000
0000
0000
0000
1020
0000
0000
0000
0000
0000
0000
0000
0000
0000
0000
0000
0000
0000
0000
0000
0000
0000
0000
0000
0000
0000
0000
0000
0000
0000
0000
0000
0000
0000
0000
0000
0000
0000
0000
0000
,
1030
0001
0010
0000
0100
0000
2000
0000
0000
0000
0000
0000
0000
0000
0000
0000
0000
0000
0000
0000
0000
0000
0000
0000
0000
0000
0000
0000
0000
0000
0000
0000
0000
0000
0000
0000
0000
0000
0000
0000
0000
0000
0000
0000
0000
0000
0000
0000
0000
0000
0000
0000
0000
0000
0000
0000
0000
0000
0000
0000
0000
0000
3000
0000
;

//---------------dance-single - ----------------
#NOTES:
     dance-single:
     :
     Hard:
     9:
     0.573545,0.615995,0.162963,0.644444,0.296296,433.000000,22.000000,87.000000,0.000000,0.000000,0.000000,0.573545,0.615995,0.162963,0.644444,0.296296,433.000000,22.000000,87.000000,0.000000,0.000000,0.000000:
0000
0000
0000
0000
,
0000
0000
0000
0000
,
0000
0000
0000
0000
,
0000
0000
0000
0000
,
0001
0000
0101
0000
1000
0100
0010
0001
,
0100
0000
0010
0000
1000
0000
0010
0000
0100
0001
0000
1000
0000
0000
0100
0000
,
0010
0000
0011
0000
1000
0010
0100
0001
,
0010
0000
0001
0000
1000
0000
0010
0000
0200
0000
0000
0000
0301
1000
0001
1000
,
0200
0000
0000
0000
0310
0000
0001
1000
0000
1000
0000
1000
0001
0000
0100
0000
,
2000
3200
0302
2003
3020
0000
0230
0300
,
0001
0000
1000
0000
0100
0000
0010
0001
0000
0001
1000
0001
1000
0000
0010
0000
,
0002
0000
0023
0130
0001
1000
0100
0010
,
0002
0000
0000
0000
0103
0000
0010
1000
0000
1000
0000
1000
0010
0000
0100
0000
,
2000
3200
0302
2003
3200
0000
0320
0030
,
0001
1000
0000
0010
0000
0100
0001
0000
1000
0001
0000
0010
0000
0000
0100
0000
,
0002
0000
0203
0310
0001
0100
0010
1000
,
0002
0000
0000
0003
1002
0000
0000
0000
0013
0100
0000
1000
0000
0000
0010
0000
,
0100
0001
0100
0001
0010
1000
0010
0001
,
0200
0000
0300
0000
0210
0000
0300
0000
1000
0001
0000
0010
0000
0000
0100
0000
,
1000
1000
1000
1000
0002
0103
0010
1000
,
0002
0000
0000
0003
1002
0000
0000
0000
1003
0100
0000
0010
0000
0000
0100
0000
,
1000
0001
1000
0001
0100
1000
0100
0010
,
2000
0000
3000
0000
2010
0000
3000
0000
0001
1000
0000
0100
0000
0000
0010
0000
,
0001
0001
0001
0001
0010
0010
0010
0010
,
2001
0000
0000
3000
2010
0000
0000
0000
3001
1000
0000
0100
0000
0000
0010
0000
,
0001
1000
0001
1000
0010
0001
0010
0100
,
0002
0000
0003
0000
0201
0000
0300
0000
0001
1000
0000
0100
0000
0000
0010
0000
,
0001
0001
0001
0001
0200
0310
1000
0001
,
0012
0000
0000
0003
1002
0000
0000
0000
1003
0010
0000
0100
0000
0000
0001
0000
,
1000
0001
1000
0001
0010
1000
0010
0001
,
2000
0000
3000
0000
2001
0000
3000
0000
0001
0100
0000
0010
0000
0000
1000
0000
,
0100
0000
0100
0000
0100
0000
0100
0000
0010
0000
0010
0000
0001
1000
0001
1000
,
0010
0000
0000
0000
,
1000
0001
0010
0100
1000
0001
0100
0010
,
1000
0001
0010
0100
1000
0001
1001
0000
,
1000
0010
1000
0100
0010
0001
1000
0010
,
0100
0010
1000
0001
0010
0100
0110
0000
,
1000
0001
0100
0010
1000
0001
0010
0100
,
1000
0001
0100
0010
1000
0001
1001
0000
,
1000
0100
0010
0001
1000
0010
0100
0010
,
1000
0000
0001
0000
0010
0000
0100
0000
1000
0000
0001
0000
0200
0000
0000
0300
,
2001
0000
0000
0000
3100
0000
1000
0001
0000
0001
0000
0001
1000
0000
0010
0000
,
0002
0023
2030
3002
0203
0000
0320
0030
,
1000
0000
0001
0000
0010
0000
0100
1000
0000
1000
0001
1000
0001
0000
0100
0000
,
2000
0000
3200
0310
1000
0001
0010
0100
,
2000
0000
0000
0000
3010
0000
0100
0001
0000
0001
0000
0001
0100
0000
0010
0000
,
0002
0023
2030
3002
0023
0000
0230
0300
,
1000
0001
0000
0100
0000
0010
1000
0000
0001
1000
0000
0100
0000
0000
0010
0000
,
2000
0000
3020
0130
1000
0001
0010
0000
,
2100
0000
0000
3000
2001
0000
0000
0000
3010
0100
0000
0001
0000
0000
1000
0000
,
0100
0010
0100
0010
0100
0001
0100
1000
,
0020
0000
0030
0000
0120
0000
0030
0000
0001
1000
0000
0100
0000
0000
0010
0000
,
0001
0001
0001
0001
2000
3010
0100
0001
,
2000
0000
0000
3000
2001
0000
0000
0000
3001
0010
0000
0100
0000
0000
0010
0000
,
0001
1000
0001
1000
0010
0001
0010
0100
,
0002
0000
0003
0000
0102
0000
0003
0000
1000
0001
0000
0010
0000
0000
0100
0000
,
1000
0000
1000
0000
1000
0000
1000
0000
0100
0000
0100
0000
0010
0001
0010
0001
,
1000
0000
0000
0000
0000
0000
0000
0000
2001
0000
0000
3020
0000
0130
0001
1000
,
0200
0000
0000
0000
0000
0310
0001
1000
0020
0000
0000
0230
0301
1000
0100
0010
,
0002
0000
0000
0000
0203
0000
1300
0100
0002
0000
0000
2003
0000
3100
0010
0100
,
2000
0000
0000
0000
3001
0100
0010
1000
0002
0000
0000
0023
0000
0000
0130
1000
,
0002
0203
0302
0023
0230
0000
0000
0302
,
0203
0000
0000
0000
0310
0001
1000
0010
0200
0000
0000
0301
1000
0200
0000
0000
,
0302
0000
0000
0000
0000
0000
0000
0000
0000
0000
0000
0000
0000
0000
0000
0000
0000
0000
0000
0000
0000
0000
0000
0000
0000
0000
0000
0000
0000
0000
0000
0003
;

//---------------dance-single - Feraligatr----------------
#NOTES:
     dance-single:
     :
     Medium:
     7:
     0.397884,0.521227,0.007407,0.259259,0.059259,340.000000,1.000000,35.000000,0.000000,0.000000,0.000000,0.397884,0.521227,0.007407,0.259259,0.059259,340.000000,1.000000,35.000000,0.000000,0.000000,0.000000:
0000
0000
0000
0000
,
0000
0000
0000
0000
,
0000
0000
0000
0000
,
0000
0000
0000
0000
,
1000
0000
0100
0000
1000
0001
1000
0000
,
0010
0100
0010
0100
0001
0000
1000
0000
,
0100
0000
0010
0000
0001
1000
0001
0000
,
0100
0010
0100
0010
2000
0000
3001
0000
,
1000
0000
0100
0000
0010
0001
0010
0000
,
0001
1000
0001
0100
0020
0000
2030
0000
,
3001
0000
1000
0000
0100
1000
0001
0000
,
0200
0000
0310
1000
0001
0000
0010
0100
,
1000
0000
0001
0000
0100
0010
0100
0000
,
0001
1000
0001
0010
0200
0000
2300
0000
,
3001
0000
0100
0000
0010
1000
0001
0000
,
0020
0000
0130
1000
0002
0000
0103
0001
,
1000
0000
1000
0000
0100
0010
0001
0000
,
1000
0001
1000
0001
0100
0010
1000
0100
,
0010
0000
0010
0000
0001
1000
0001
0000
,
1000
0010
1000
0010
0100
0000
0001
0000
,
1000
0000
1000
0000
0100
0010
0001
0000
,
1000
0001
1000
0001
0100
0010
0100
0001
,
1000
0000
1000
0000
0100
0010
0001
0000
,
1000
0010
1000
0010
0100
0000
0001
0000
,
0010
0000
0010
0000
0100
1000
0001
0000
,
0100
0001
0100
0001
1000
0100
0010
0001
,
1000
0000
1000
0000
0001
0100
0001
0000
,
1000
0001
1000
0001
0010
0000
0100
0000
,
1000
0000
1000
0000
0010
0100
0001
0000
,
1000
0100
1000
0100
0010
0100
0010
0001
,
1000
0000
1000
0000
0010
0100
0001
0000
,
1000
0100
1000
0100
0010
0000
0001
0000
,
1001
0000
0000
0000
,
1000
0000
0010
0000
0100
0001
1000
0000
,
0001
0000
0010
0000
0100
1000
0001
0000
,
0100
0000
0010
0000
0100
0001
1000
0000
,
0100
0000
0010
0000
0100
1000
0001
0000
,
0100
0000
0010
0000
1000
0001
0010
0000
,
0100
0000
0010
0000
0001
1000
0010
0000
,
0100
0000
0001
0000
1000
0001
0010
0000
,
0100
0000
1000
0000
0001
0100
0010
0000
,
1000
0000
0001
0000
0100
0010
0100
0000
,
0001
1000
0001
0010
0200
0000
2300
0000
,
3001
0000
0100
0000
0010
0100
0001
0000
,
2000
0000
3010
1000
0001
0000
1000
0100
,
0010
0000
0100
0000
1000
0001
1000
0000
,
0010
0100
0010
1000
0002
0000
2003
0000
,
3100
0000
0010
0000
0100
1000
0001
0000
,
0200
0000
0310
1000
0002
0000
0013
0000
,
0001
0000
0001
0000
0010
0100
1000
0000
,
0001
1000
0001
1000
0010
0100
0001
0010
,
0100
0000
0100
0000
1000
0001
1000
0000
,
0001
0100
0001
0100
0010
0000
1000
0000
,
0001
0000
0001
0000
0010
0100
1000
0000
,
0001
1000
0001
1000
0010
0100
0010
1000
,
0001
0000
0001
0000
0010
0100
1000
0000
,
0001
0100
0001
0100
0020
0000
2030
0000
,
3001
0000
0000
0000
1000
0100
0010
0001
2000
0000
0000
0000
0000
3001
0100
0010
,
2000
0000
0000
0000
0000
3001
0010
0001
2000
0000
0000
0000
3010
0100
0010
1000
,
0002
0000
0000
0000
0023
0000
0130
1000
0002
0000
0000
0000
0000
0103
0010
1000
,
0002
0000
0000
0000
0013
0100
1000
0001
0200
0000
0000
0000
0000
0000
0000
0000
,
0320
2030
3020
0230
0302
0000
0000
0023
,
0230
0000
0000
0000
1300
0001
0100
0010
2000
0000
0000
0000
0000
3002
0000
0000
,
0023
0000
0000
0000
0000
0000
0000
0000
0000
0000
0000
0000
0000
0000
0000
0000
0000
0000
0000
0000
0000
0000
0000
0000
0000
0000
0000
0000
0000
0000
0000
0030
;

//---------------dance-single - Feraligatr----------------
#NOTES:
     dance-single:
     :
     Easy:
     4:
     0.256085,0.379074,0.007407,0.170370,0.000000,218.000000,1.000000,23.000000,0.000000,0.000000,0.000000,0.256085,0.379074,0.007407,0.170370,0.000000,218.000000,1.000000,23.000000,0.000000,0.000000,0.000000:
// measure 0
0000
0000
0000
0000
,  // measure 1
0000
0000
0000
0000
,  // measure 2
0000
0000
0000
0000
,  // measure 3
0000
0000
0000
0000
,  // measure 4
1000
1000
0001
0100
,  // measure 5
0010
0100
0001
1000
,  // measure 6
0100
0010
0100
1000
,  // measure 7
0001
0100
0020
0230
,  // measure 8
0301
1000
0100
0010
,  // measure 9
0001
0001
0001
0001
,  // measure 10
1000
0010
0100
0001
,  // measure 11
1000
1000
1000
1000
,  // measure 12
0100
0010
0100
1000
,  // measure 13
0001
0001
0001
0001
,  // measure 14
0100
0010
0100
0001
,  // measure 15
0010
0010
0010
0010
,  // measure 16
0100
0100
1000
0001
,  // measure 17
0100
0100
0010
0100
,  // measure 18
0001
0001
1000
0100
,  // measure 19
0010
0010
0001
1000
,  // measure 20
0010
0010
0100
0001
,  // measure 21
1000
1000
0001
1000
,  // measure 22
0100
0100
0010
0100
,  // measure 23
2000
0000
3001
0001
,  // measure 24
0010
0010
0001
1000
,  // measure 25
0010
0010
0100
0010
,  // measure 26
1000
1000
0001
0010
,  // measure 27
0100
0100
1000
0001
,  // measure 28
0100
0100
0010
1000
,  // measure 29
0001
0001
1000
0001
,  // measure 30
0010
0010
0100
0010
,  // measure 31
0002
0000
1003
0100
,  // measure 32
0110
0000
0000
0000
,  // measure 33
1000
0010
0100
0000
,  // measure 34
0001
0100
0010
1000
,  // measure 35
0001
0010
0100
0000
,  // measure 36
0010
0001
1000
0010
,  // measure 37
0100
0001
1000
0000
,  // measure 38
0100
0010
0100
1000
,  // measure 39
0001
0100
0010
0000
,  // measure 40
1000
0001
0010
0100
,  // measure 41
1000
0001
0010
0100
,  // measure 42
1000
1000
1000
1000
,  // measure 43
0001
0100
0010
1000
,  // measure 44
0001
0001
0001
0001
,  // measure 45
0010
0100
0010
0001
,  // measure 46
1000
1000
1000
1000
,  // measure 47
0010
0100
0010
1000
,  // measure 48
0100
0100
0100
0020
,  // measure 49
0031
0001
1000
1000
,  // measure 50
0010
0010
0100
0010
,  // measure 51
1000
1000
0001
0010
,  // measure 52
0100
0100
1000
0001
,  // measure 53
0100
0100
0010
1000
,  // measure 54
0001
0001
1000
0001
,  // measure 55
0010
0010
0100
0010
,  // measure 56
0002
0000
2003
0000
,  // measure 57
3100
0000
0020
0000
,  // measure 58
0032
0000
2003
0000
,  // measure 59
3020
0000
0230
0000
,  // measure 60
0302
0000
2003
0000
,  // measure 61
3200
0320
0230
2300
3002
0000
0000
0203
,  // measure 62
0320
0000
2030
0000
,  // measure 63
3002
0000
0000
0000
0000
0000
0000
0000
0000
0000
0000
0000
0000
0000
0000
0000
0000
0000
0000
0000
0000
0000
0000
0000
0000
0000
0000
0000
0000
0000
0000
0003
;

//---------------dance-single - Feraligatr----------------
#NOTES:
     dance-single:
     :
     Beginner:
     2:
     0.112169,0.142153,0.037037,0.029630,0.000000,97.000000,5.000000,4.000000,0.000000,0.000000,0.000000,0.112169,0.142153,0.037037,0.029630,0.000000,97.000000,5.000000,4.000000,0.000000,0.000000,0.000000:
// measure 0
0000
0000
0000
0000
,  // measure 1
0000
0000
0000
0000
,  // measure 2
0000
0000
0000
0000
,  // measure 3
0000
0000
0000
0000
,  // measure 4
1000
0000
0000
0000
,  // measure 5
0100
0000
0000
0000
,  // measure 6
0010
0000
0000
0000
,  // measure 7
0100
0000
0000
0000
,  // measure 8
1000
0000
0000
0000
,  // measure 9
0001
0000
0001
0000
,  // measure 10
0100
0000
0000
0000
,  // measure 11
0010
0000
0010
0000
,  // measure 12
0100
0000
0000
0000
,  // measure 13
0001
0000
0001
0000
,  // measure 14
1000
0000
0000
0000
,  // measure 15
0100
0000
0100
0000
,  // measure 16
0010
0000
0010
0000
,  // measure 17
0001
0000
0001
0000
,  // measure 18
1000
0000
1000
0000
,  // measure 19
0010
0000
0010
0000
,  // measure 20
0100
0000
0100
0000
,  // measure 21
0001
0000
0001
0000
,  // measure 22
1000
0000
1000
0000
,  // measure 23
0100
0000
0100
0000
,  // measure 24
0010
0000
0010
0000
,  // measure 25
0001
0000
0001
0000
,  // measure 26
1000
0000
1000
0000
,  // measure 27
0010
0000
0010
0000
,  // measure 28
0100
0000
0100
0000
,  // measure 29
0001
0000
0001
0000
,  // measure 30
1000
0000
1000
0000
,  // measure 31
0100
0000
0100
0000
,  // measure 32
0110
0000
0000
0000
,  // measure 33
0001
0000
0000
0000
,  // measure 34
0000
0000
0000
1001
,  // measure 35
0100
0000
0000
0000
,  // measure 36
0000
0000
0000
0110
,  // measure 37
0001
0000
0000
0000
,  // measure 38
0000
0000
0000
1001
,  // measure 39
0100
0000
0000
0000
,  // measure 40
0000
0000
0000
0110
,  // measure 41
0001
0000
0000
0000
,  // measure 42
1000
0000
1000
0000
,  // measure 43
0010
0000
0000
0000
,  // measure 44
0100
0000
0100
0000
,  // measure 45
0010
0000
0000
0000
,  // measure 46
1000
0000
1000
0000
,  // measure 47
0001
0000
0000
0000
,  // measure 48
0010
0000
0010
0200
,  // measure 49
1300
0000
0001
0000
,  // measure 50
1000
0000
1000
0000
,  // measure 51
0001
0000
0001
0000
,  // measure 52
0100
0000
0100
0000
,  // measure 53
0010
0000
0010
0000
,  // measure 54
1000
0000
1000
0000
,  // measure 55
0001
0000
0001
0000
,  // measure 56
0020
0000
0230
0000
,  // measure 57
0300
0000
0000
0000
,  // measure 58
1000
0000
0010
0000
,  // measure 59
0100
0000
0001
0000
,  // measure 60
1000
0000
0100
0000
,  // measure 61
0010
0000
0001
0000
,  // measure 62
1000
0000
0010
0000
,  // measure 63
0200
0000
0000
0000
0000
0000
0000
0000
0000
0000
0000
0000
0000
0000
0000
0000
0000
0000
0000
0000
0000
0000
0000
0000
0000
0000
0000
0000
0000
0000
0000
0300
;
