#TITLE:Sever;
#SUBTITLE:;
#ARTIST:Vulpey;
#TITLETRANSLIT:;
#SUBTITLETRANSLIT:;
#ARTISTTRANSLIT:;
#GENRE:Glitch Hop;
#CREDIT:Feraligatr;
#BANNER:sever-bn.png;
#BACKGROUND:sever-bg.png;
#LYRICSPATH:;
#CDTITLE:FeraligatrV3-cd.png;
#MUSIC:Vulpey - Sever.ogg;
#OFFSET:0.011000;
#SAMPLESTART:86.389000;
#SAMPLELENGTH:19.200001;
#SELECTABLE:YES;
#DISPLAYBPM:100.000000;
#BPMS:0.000000=100.000000
,19.000000=150.000000
,19.500000=100.000000
,26.000000=150.000000
,26.500000=100.000000
,67.000000=150.000000
,67.500000=100.000000
,72.000000=200.000000
,72.500000=100.000000
,72.750000=50.000000
,73.000000=150.000000
,73.500000=100.000000
,83.000000=150.000000
,83.500000=100.000000
,88.000000=200.000000
,88.500000=100.000000
,88.750000=50.000000
,89.000000=150.000000
,89.500000=100.000000
,111.250000=150.000000
,112.000000=100.000000
,115.000000=150.000000
,115.500000=100.000000
,131.000000=150.000000
,131.500000=100.000000
,141.500000=150.000000
,141.875000=50.000000
,142.000000=150.000000
,142.500000=75.000000
,142.750000=150.000000
,143.000000=100.000000
,144.000000=200.000000
,144.500000=100.000000
,144.750000=50.000000
,145.000000=100.000000
,145.500000=200.000000
,146.000000=100.000000
,146.250000=50.000000
,146.500000=150.000000
,147.000000=100.000000
,147.250000=150.000000
,148.000000=200.000000
,148.500000=100.000000
,148.750000=50.000000
,149.000000=100.000000
,152.000000=200.000000
,152.500000=100.000000
,152.750000=50.000000
,153.000000=100.000000
,153.500000=200.000000
,154.000000=100.000000
,154.250000=50.000000
,154.500000=150.000000
,155.000000=100.000000
,155.250000=150.000000
,155.437500=50.000000
,155.500000=150.000000
,155.687500=50.000000
,155.750000=150.000000
,155.937500=50.000000
,156.000000=200.000000
,156.500000=100.000000
,156.750000=50.000000
,157.000000=100.000000
,160.000000=200.000000
,160.500000=100.000000
,160.750000=50.000000
,161.000000=100.000000
,161.500000=200.000000
,162.000000=100.000000
,162.250000=50.000000
,162.500000=150.000000
,163.000000=100.000000
,163.250000=150.000000
,164.000000=200.000000
,164.500000=100.000000
,164.750000=50.000000
,165.000000=100.000000
,168.000000=200.000000
,168.500000=100.000000
,168.750000=50.000000
,169.000000=100.000000
,169.500000=200.000000
,170.000000=100.000000
,170.250000=50.000000
,170.500000=150.000000
,171.000000=100.000000
,171.250000=150.000000
,171.437500=50.000000
,171.500000=150.000000
,171.687500=50.000000
,171.750000=150.000000
,171.937500=50.000000
,172.000000=200.000000
,172.500000=100.000000
,172.750000=50.000000
,173.000000=100.000000
,176.000000=150.000000
,177.000000=100.000000
,184.000000=150.000000
,185.000000=100.000000
,185.500000=150.000000
,187.000000=100.000000
,188.750000=150.000000
,189.000000=100.000000
,189.250000=150.000000
,189.500000=100.000000
,190.500000=150.000000
,191.000000=100.000000
,191.250000=150.000000
,191.750000=100.000000
,192.000000=150.000000
,192.750000=100.000000
,193.500000=150.000000
,194.500000=100.000000
,196.000000=150.000000
,198.500000=100.000000
,202.500000=150.000000
,203.000000=100.000000
,204.500000=150.000000
,205.000000=100.000000
,205.250000=150.000000
,205.500000=100.000000
,208.000000=150.000000
,209.000000=100.000000
;
#STOPS:19.000000=0.025000,
19.125000=0.025000,
19.250000=0.025000,
19.375000=0.025000,
26.000000=0.025000,
26.125000=0.025000,
26.250000=0.025000,
26.375000=0.025000,
67.000000=0.025000,
67.125000=0.025000,
67.250000=0.025000,
67.375000=0.025000,
73.000000=0.025000,
73.125000=0.025000,
73.250000=0.025000,
73.375000=0.025000,
83.000000=0.025000,
83.125000=0.025000,
83.250000=0.025000,
83.375000=0.025000,
89.000000=0.025000,
89.125000=0.025000,
89.250000=0.025000,
89.375000=0.025000,
111.250000=0.050000,
111.500000=0.050000,
111.750000=0.050000,
115.000000=0.025000,
115.125000=0.025000,
115.250000=0.025000,
115.375000=0.025000,
131.000000=0.025000,
131.125000=0.025000,
131.250000=0.025000,
131.375000=0.025000,
142.000000=0.025000,
142.125000=0.025000,
142.250000=0.025000,
142.375000=0.025000,
146.500000=0.100000,
147.250000=0.050000,
147.500000=0.050000,
147.750000=0.050000,
154.500000=0.100000,
162.500000=0.100000,
163.250000=0.050000,
163.500000=0.050000,
163.750000=0.050000,
170.500000=0.100000,
176.000000=0.025000,
176.125000=0.025000,
176.250000=0.025000,
176.375000=0.025000,
176.500000=0.025000,
176.625000=0.025000,
176.750000=0.025000,
176.875000=0.025000,
184.000000=0.025000,
184.125000=0.025000,
184.250000=0.025000,
184.375000=0.025000,
184.500000=0.025000,
184.625000=0.025000,
184.750000=0.025000,
184.875000=0.025000,
185.500000=0.025000,
185.625000=0.025000,
185.750000=0.025000,
185.875000=0.025000,
186.000000=0.025000,
186.125000=0.025000,
186.250000=0.025000,
186.375000=0.025000,
186.500000=0.100000,
188.750000=0.025000,
188.875000=0.025000,
189.250000=0.025000,
189.375000=0.025000,
190.500000=0.050000,
190.750000=0.050000,
191.250000=0.050000,
191.500000=0.050000,
192.000000=0.025000,
192.125000=0.025000,
192.250000=0.025000,
192.375000=0.025000,
192.500000=0.025000,
192.625000=0.025000,
193.500000=0.025000,
193.625000=0.025000,
193.750000=0.025000,
193.875000=0.025000,
194.000000=0.025000,
194.125000=0.025000,
194.250000=0.025000,
194.375000=0.025000,
196.000000=0.025000,
196.125000=0.025000,
196.250000=0.025000,
196.375000=0.025000,
196.500000=0.025000,
196.625000=0.025000,
196.750000=0.025000,
196.875000=0.025000,
197.000000=0.025000,
197.125000=0.025000,
197.250000=0.025000,
197.375000=0.025000,
197.500000=0.025000,
197.625000=0.025000,
197.750000=0.025000,
197.875000=0.025000,
198.000000=0.025000,
198.125000=0.025000,
198.250000=0.025000,
198.375000=0.025000,
202.500000=0.100000,
204.500000=0.050000,
204.750000=0.050000,
205.250000=0.050000,
208.000000=0.025000,
208.125000=0.025000,
208.250000=0.025000,
208.375000=0.025000,
208.500000=0.025000,
208.625000=0.025000,
208.750000=0.025000,
208.875000=0.025000
;
#BGCHANGES:;
#KEYSOUNDS:;
#ATTACKS:;

//---------------dance-single - Feraligatr----------------
#NOTES:
     dance-single:
     Feraligatr:
     Challenge:
     10:
     0.626455,0.642963,0.251852,0.629630,0.748148,473.000000,34.000000,85.000000,33.000000,0.000000,31.000000,0.626455,0.642963,0.251852,0.629630,0.748148,473.000000,34.000000,85.000000,33.000000,0.000000,31.000000:
// measure 0
0000
0000
0000
0000
,  // measure 1
0000
0000
0000
0000
,  // measure 2
0000
0000
0000
0000
,  // measure 3
0000
0000
0000
0000
,  // measure 4
0002
0000
0000
0000
0000
0000
1003
0000
0000
0000
0001
0000
0200
0000
0000
0000
0000
0000
0300
0000
0010
0000
0000
0000
0040
0000
1000
0030
0001
0000
1000
0000
,  // measure 5
0200
0000
0310
0001
0100
0010
2000
0000
0000
0000
3001
0000
0001
0100
0010
1000
,  // measure 6
0200
0000
0000
0000
0010
0000
0000
0000
0300
0000
0100
0000
2000
0000
0000
0000
3040
0000
0000
0030
0000
0000
0000
0000
0000
0000
1000
0000
0000
0000
0001
0000
,  // measure 7
0020
0000
0031
0100
0010
0100
0002
0000
0000
0000
1003
0000
0000
0001
1000
0100
,  // measure 8
0120
0000
0000
0031
0000
1000
0020
0000
0100
0030
0001
0000
0002
0000
1003
0100
,  // measure 9
0020
0000
0031
0010
0001
0100
0020
0000
0000
0000
1030
0001
1000
0100
00M0
0100
,  // measure 10
0002
0000
2003
0001
3000
0001
0020
0000
0230
0000
0010
0000
2300
0000
3001
1000
,  // measure 11
0020
0000
0000
0000
0130
0000
0100
0000
0100
000M
0100
0000
2000
0000
0000
0000
3001
0000
1000
0000
0001
0000
0100
0000
0010
0000
1000
0000
0001
0000
0010
0000
,  // measure 12
0210
0000
0000
1300
0000
0001
0020
0000
0100
0030
1000
0000
2000
0000
3010
0100
,  // measure 13
0002
0000
1003
0100
1000
0010
0200
0000
0000
0000
0301
1000
0001
0010
0M00
0010
,  // measure 14
2000
0000
3002
0000
0103
0001
2000
0000
3200
0000
0010
0000
2300
0000
3001
0100
,  // measure 15
0020
0000
0000
0000
0130
0000
0100
0000
0100
000M
0100
0000
2000
0000
0000
0000
3001
0000
1000
0000
0001
0000
0010
0000
0001
0000
1000
0000
0010
0000
0100
0000
,  // measure 16
0201
0000
0000
0000
0000
0000
0301
0000
0000
0000
1000
0000
0020
0000
0000
0000
0000
0000
0030
0000
0100
0000
0000
0000
0400
0000
0000
0300
0001
0000
1000
0000
,  // measure 17
0200
0000
0310
1000
0010
0001
2000
0000
0000
0000
3000
0001
1000
0010
0010
0010
,  // measure 18
0201
0000
0000
0000
0000
0000
0300
0000
0004
0000
0000
0003
0020
0000
0000
0000
0000
0000
0030
0000
0200
0000
0000
0000
1300
0000
0001
0000
0100
0000
0010
0000
,  // measure 19
2000
0000
3010
0001
0010
0100
0002
0000
0000
0000
1003
0100
0010
0001
0001
0001
,  // measure 20
1002
0000
0000
0000
0000
0000
0103
0000
0000
0000
0001
0000
2000
0000
0000
0000
0000
0000
3000
0000
0010
0000
0000
0000
0040
0000
0000
0030
1000
0000
0001
0000
,  // measure 21
0020
0000
0130
0001
0100
0010
0002
0000
0000
0000
0003
1000
0001
0100
0100
0100
,  // measure 22
1020
0000
0000
0000
0000
0000
0030
0000
4000
0000
0000
3000
0200
0000
0000
0000
0000
0000
0300
0000
0020
0000
0000
0000
0130
0000
1000
0000
0001
0000
1000
0000
,  // measure 23
0020
0000
0130
1000
0100
0010
2000
0000
0000
0000
3100
1000
0010
0100
0100
0100
,  // measure 24
0201
0000
0000
0310
0000
1000
0002
0000
0000
0000
0013
0001
1000
0001
0010
0010
,  // measure 25
0100
0000
0010
0000
0001
0000
1000
0000
0100
1000
0001
0100
0010
0000
0100
0001
,  // measure 26
1000
0000
0001
0000
0010
0000
0100
0000
0000
0000
0000
0010
0001
0100
0010
0010
,  // measure 27
1000
0000
0001
0000
0010
0000
0100
0000
0010
0000
0001
0100
0010
M00M
1000
0001
,  // measure 28
0012
0000
0000
0000
0000
0000
1003
0000
0000
0000
0001
0000
0200
0000
0000
0000
0000
0000
0300
0000
0020
0000
0000
0000
4030
0000
0000
3000
0001
0000
0000
0000
,  // measure 29
1000
0000
0000
0000
0100
0000
0010
0000
0000
0000
0100
0000
0002
0000
0000
0000
0203
0000
0000
0300
0100
0000
0010
0000
0001
0000
2000
0000
0000
0000
3010
0000
,  // measure 30
0200
0000
0000
0000
0310
1000
0200
0000
0320
0000
0031
1000
0001
0010
0M00
0010
,  // measure 31
1000
0000
0001
0100
0010
0001
0020
0000
0000
0000
0130
0100
0001
1000
0001
0010
,  // measure 32
0200
0000
0000
0000
0300
0000
0010
0000
0000
0000
0001
0000
2000
0000
0000
0000
0000
0000
3000
0000
0020
0000
0000
0000
0430
0000
0000
0300
0001
0000
0000
0000
,  // measure 33
1000
0000
0000
0000
0100
0000
0010
0000
0000
0000
0100
0000
0002
0000
0000
0000
0203
0000
0000
0300
0100
0000
1000
0000
0001
0000
0200
0000
0000
0000
0310
0000
,  // measure 34
2000
0000
0000
0000
3100
0010
0002
0000
2003
0000
3100
1000
0001
0100
0010
1000
,  // measure 35
0001
0000
0010
0000
0001
0000
1000
0000
0010
0000
0100
0000
M02M
0000
0000
0030
4010
0000
0000
3000
0002
0000
0000
0000
0003
0000
1000
0000
0001
0000
0010
0000
,  // measure 36
41MM
0000
0000
0000
3001
0100
4010
0000
0000
0000
3001
0000
1000
0100
0100
0100
,  // measure 37
0014
0000
0000
0000
0000
0000
0000
0000
1003
0000
0010
0000
0000
00M0
0000
0000
0010
0000
0000
00M0
0000
0000
0010
0000
0000
00M0
0000
0000
0010
0000
1000
0000
,  // measure 38
0104
0000
0000
0000
1003
0100
0014
0000
0000
0000
1003
0000
0001
1000
0010
0100
,  // measure 39
0104
0000
0000
0000
0000
0000
0000
0000
1003
0000
0100
0010
0001
0000
0001
0000
0001
0000
0000
000M
0000
0000
0001
0000
0000
000M
0000
0000
0001
0000
0100
0000
,  // measure 40
4010
0000
0000
0000
3001
0010
1400
0000
0000
0000
0310
0000
0001
0100
0100
0100
,  // measure 41
4010
0000
0000
0000
0000
0000
0000
0000
3001
0000
0010
0000
0000
00M0
0000
0000
0010
0000
0000
00M0
0000
0000
0010
0000
0000
00M0
0000
0000
0010
0000
0001
0000
,  // measure 42
4100
0000
0000
0000
3001
0100
1040
0000
0000
0000
0130
0000
0001
1000
0100
0010
,  // measure 43
0014
0000
0000
0000
0000
0000
0000
0000
1003
0000
0010
0100
0001
0000
0001
0000
0001
0000
0000
000M
0000
0000
0001
0000
0000
000M
0000
0000
0001
0000
0000
000M
,  // measure 44
4010
0000
0000
0000
0000
0000
0000
0000
0000
0000
0000
0000
0000
0000
0000
0000
0000
0000
0000
0000
0000
0000
0000
0000
0000
0000
0000
0000
0000
0000
0000
0000
0000
0000
0000
0000
0000
0000
0000
0000
0000
0000
3000
0000
0000
0000
0000
0000
0001
0000
0000
0000
0000
0000
0000
0000
0000
0000
0000
0000
0010
0000
0000
0000
0000
0000
0000
0000
0000
0000
0000
0000
0200
0000
0000
0000
0000
0000
0000
0000
0000
0000
0000
0000
0000
0000
0000
0000
0000
0000
0000
0000
0000
0000
0000
0000
0000
0000
0000
0000
0000
0000
0000
0000
0000
0000
0000
0000
0000
0000
0000
0000
0000
0000
0000
0000
0000
0000
0000
0000
1300
0000
0000
0000
0000
0000
0000
0000
0000
0000
0000
0000
0000
0000
0000
0000
0000
0000
0000
0000
0000
0000
0000
0000
0001
0000
0000
0000
0000
0000
0000
0000
1000
0000
0000
0000
0000
0000
0000
0000
0001
0000
0000
0000
0000
0000
0000
0000
1000
0000
0000
0000
0000
0000
0000
0000
0000
0000
0000
0000
0001
0000
0000
0000
0000
0000
0000
0000
0000
0000
0000
0000
,  // measure 45
0100
0000
0000
0000
0000
0000
0000
0000
0000
0000
0000
0000
0100
0000
0000
0000
0000
0000
0000
0000
0000
0000
0000
0000
0100
0000
0000
0000
0000
0000
0000
0000
0000
0000
0000
0000
0100
0000
0000
0000
0000
0000
0000
0000
0000
0000
0000
0000
0100
0000
0000
0000
0000
0000
00M0
0000
0000
0000
0000
0000
0100
0000
0000
0000
0000
0000
0000
0000
0000
0000
0000
0000
2000
0000
0000
0000
0000
0000
0000
0000
0000
0000
0000
0000
0000
0000
0000
0000
0000
0000
0000
0000
0000
0000
0000
0000
3010
0000
0000
0000
0000
0000
0000
0000
1000
0000
0000
0000
0000
0000
0000
0000
0010
0000
0000
0000
0000
0000
0000
0000
0100
0000
0000
0000
0000
0000
0000
0000
0000
0000
0000
0000
0100
0000
0000
0000
0000
0000
0000
0000
0000
0000
0000
0000
0100
0000
0000
0000
0000
0000
M000
0000
0000
0000
0000
0000
0100
0000
0000
0000
0000
0000
0000
0000
0000
0000
0000
0000
2000
0000
0000
0000
0000
0000
0000
0000
0000
0000
0000
0000
0000
0000
0000
0000
0000
0000
3000
0000
0000
0000
0000
0000
,  // measure 46
1004
0000
0000
0000
0000
0000
0000
0003
1000
0000
0010
0000
0410
0000
0000
0000
0000
0000
0000
0300
0001
0000
0000
0000
1000
0000
0100
0000
0100
0000
0100
0000
,  // measure 47
0012
0000
0000
0000
0000
0000
0043
0030
0M00
0000
0040
0030
2010
0000
0000
0000
0000
0000
0000
0000
3001
0000
1000
0000
0000
0000
0010
0000
0100
0000
0000
0000
,  // measure 48
0401
0000
0000
0000
0000
0000
0000
0000
0000
0000
0000
0000
0000
0000
0000
0000
0000
0000
0000
0000
0000
0000
0000
0000
0000
0000
0000
0000
0000
0000
0300
0000
0000
0000
0000
0000
0000
0000
0000
0000
0000
0000
0000
0000
0000
0000
0000
0000
0010
0000
0000
0000
0000
0000
0000
0000
0000
0000
0000
0000
0000
0000
0000
0000
0000
0000
0000
0000
0000
0000
0000
0000
4010
0000
0000
0000
0000
0000
0000
0000
0000
0000
0000
0000
0000
0000
0000
0000
0000
0000
0000
0000
0000
0000
0000
0000
0000
0000
0000
0000
0000
0000
0000
0000
0000
0000
0000
0000
0000
0000
0000
0000
0000
0000
3000
0000
0000
0000
0000
0000
0001
0000
0000
0000
0000
0000
0000
0000
0000
0000
0000
0000
0000
0000
0000
0000
0000
0000
0000
0000
0000
0000
0000
0000
1000
0000
0000
0000
0000
0000
0000
0000
0100
0000
0000
0000
0000
0000
0000
0000
1000
0000
0000
0000
0000
0000
0000
0000
0100
0000
0000
0000
0000
0000
0000
0000
0000
0000
0000
0000
1000
0000
0000
0000
0000
0000
0000
0000
0000
0000
0000
0000
,  // measure 49
4001
0000
0000
3000
0100
0000
0100
0000
0100
00M0
0100
0000
0004
0000
0000
0000
0000
0000
0000
0003
0020
0000
0000
0000
0031
0000
0100
0000
0000
0000
0010
0000
,  // measure 50
2010
0000
0000
0000
0000
0000
0000
0000
3001
0000
0010
0000
0210
0000
0000
0000
0000
0000
0000
0000
1300
0000
0000
0000
0100
0000
0100
00M0
0100
0000
0001
0000
,  // measure 51
1002
0000
1003
0010
0000
1000
1200
0000
0000
0000
0300
0000
1000
0001
0000
0100
,  // measure 52
2040
0000
0000
0000
0000
0000
0000
0030
0000
0000
0000
0000
0000
0000
0000
0000
0000
0000
0000
0000
0000
0000
0000
0000
0000
0000
0000
0000
000M
0000
0000
0000
,  // measure 53
0M00
0000
0000
0000
,  // measure 54
0002
0000
0000
0000
,  // measure 55
0000
0000
00M0
00M0
00M0
0M00
0000
0000
0000
0000
0000
0000
0000
0000
0000
0000
,  // measure 56
3003
0000
0000
0000
;
