#TITLE:Quick Attack;
#SUBTITLE:Xmod if your brave;
#ARTIST:Synthion;
#TITLETRANSLIT:;
#SUBTITLETRANSLIT:;
#ARTISTTRANSLIT:;
#GENRE:EDM;
#CREDIT:;
#BANNER:Quick Attack!-bn.png;
#BACKGROUND:Quick Attack!-bg.png;
#LYRICSPATH:;
#CDTITLE:cd-title-Benpai.png;
#MUSIC:Quick Attack.ogg;
#OFFSET:0.009000;
#SAMPLESTART:29.990999;
#SAMPLELENGTH:14.991000;
#SELECTABLE:YES;
#DISPLAYBPM:128.000000:150.000000;
#BPMS:0.000000=128.000000
,60.000000=192.000000
,63.000000=128.000000
,200.000000=126.999992
,201.000000=128.000000
,202.000000=129.399994
,203.000000=130.100006
,204.000000=130.899994
,205.000000=131.399994
,206.000000=131.899994
,207.000000=136.000000
,208.000000=203.000000
,208.500000=95.764999
,209.000000=134.550003
,210.000000=134.600006
,211.000000=135.750000
,212.000000=136.350006
,213.000000=137.000000
,214.000000=137.899994
,215.000000=142.199997
,216.000000=139.600006
,216.500000=139.500000
,217.000000=140.550003
,218.000000=141.500000
,220.000000=142.869995
,221.000000=143.500000
,222.000000=144.600006
,223.000000=145.669998
,224.000000=147.000000
,226.000000=148.940002
,228.000000=136.600006
,229.000000=159.649994
,232.000000=150.000000
,247.000000=225.000000
,248.000000=150.000000
,279.000000=225.000000
,280.000000=150.000000
,328.000000=147.500000
,331.250000=140.000000
,332.395844=135.000000
,335.125000=130.000000
,336.750000=128.000000
;
#STOPS:60.000000=0.156000,
61.000000=0.157000,
62.000000=0.156000,
230.000000=0.003000,
230.250000=0.003000,
230.500000=0.003000,
231.000000=0.015000,
231.500000=0.012000,
247.000000=0.033000,
247.250000=0.033000,
247.500000=0.033000,
247.750000=0.033000,
279.000000=0.067000,
279.500000=0.066000
;
#BGCHANGES:;
#KEYSOUNDS:;
#ATTACKS:;

//---------------dance-single - Benpai----------------
#NOTES:
     dance-single:
     Benpai:
     Challenge:
     12:
     0.784607,0.932071,0.208566,0.695221,1.134475,869.000000,836.000000,33.000000,110.000000,37.000000,0.000000,0.784607,0.932071,0.208566,0.695221,1.134475,869.000000,836.000000,33.000000,110.000000,37.000000,0.000000:
// measure 0
0000
0000
0000
0000
,  // measure 1
0000
0000
0000
0000
,  // measure 2
0000
0000
0000
0000
,  // measure 3
0000
0000
0000
0000
,  // measure 4
2001
0000
0000
3001
,  // measure 5
0200
0000
0000
0301
,  // measure 6
0020
0000
0000
0130
,  // measure 7
2000
0000
3001
0100
,  // measure 8
1001
0000
0000
0000
1000
0000
0000
0100
1000
0001
1000
0001
0100
0010
0100
0001
,  // measure 9
1000
0100
0010
0100
1000
0000
0001
1000
0010
0100
0001
1000
0200
0300
0000
0000
,  // measure 10
4400
0000
3300
0000
1000
0000
0000
0001
0100
0010
0100
0001
1000
0100
0010
0001
,  // measure 11
0100
0010
1000
0001
0000
0000
1000
0100
0010
0001
0100
0001
4000
3000
0000
0000
,  // measure 12
0100
0000
0010
0000
0001
0000
1000
0000
0010
0000
1000
0000
0001
0000
0010
0000
0100
0000
0010
0000
0001
0000
1000
0000
0010
0000
0100
0000
0010
0000
1000
0001
,  // measure 13
2000
3200
0320
0031
1000
0010
1000
0001
0020
0230
2300
3001
0010
0001
1000
0010
,  // measure 14
0200
0320
2030
3000
0002
0023
0230
0300
2000
3002
0203
0300
0020
0230
0302
0003
,  // measure 15
2000
3000
0000
0000
0020
0030
0000
0000
0200
0300
0000
0000
0001
1000
0100
0000
,  // measure 16
0120
0000
0000
0031
1000
0000
0001
0100
0010
1000
0001
0100
0001
1000
0100
0000
,  // measure 17
0200
0000
0000
0000
0000
0000
1300
0001
2000
0000
0000
0000
3020
0000
0000
0000
0230
0000
0000
0000
0301
0000
0010
0000
0100
0000
0000
0000
1000
0000
0000
0000
,  // measure 18
1200
0000
0000
0000
0000
0000
0310
0000
0001
0000
0000
0000
0100
0000
0010
0000
1000
0000
0001
0000
1000
0000
0010
1000
0010
0000
0100
0000
0001
0000
1000
0000
,  // measure 19
0001
0000
0000
0010
0000
0000
0100
0000
0000
0000
0000
0000
1000
0000
0000
0000
0000
0000
0100
0000
1000
0000
0001
0000
1000
0000
0000
0010
0000
0000
0100
0000
0000
0001
0000
0000
0010
0000
0000
0000
0000
0000
0100
0000
0000
0000
0000
0000
,  // measure 20
0120
0000
0000
0031
1000
0000
0001
0100
0010
1000
0001
1000
0100
0010
0001
0000
,  // measure 21
0002
0000
0000
0000
0000
0000
1003
0010
2000
0000
0000
0000
3200
0000
0000
0000
0320
0000
0000
0000
0031
0000
1000
0000
0010
0000
0000
0000
0100
0000
0000
0000
,  // measure 22
0102
0000
0000
0000
0000
0000
1003
0000
0M20
0000
0000
0000
0000
0000
1030
0000
0001
0000
1000
0000
0100
0000
0010
0100
0010
0000
0001
0000
1000
0000
0001
0000
,  // measure 23
0100
0010
1000
0001
0020
0000
0130
1000
0010
0100
0001
0000
0M00
00M0
0M00
00M0
,  // measure 24
2001
3010
0100
0010
,  // measure 25
1000
0001
0010
0100
,  // measure 26
1000
0000
0001
0000
1000
0000
0010
0000
0100
0000
0001
0000
1000
0000
0100
0000
0010
0000
0001
0000
1000
0000
0010
0000
1000
0000
0001
0000
0100
0000
0010
1000
,  // measure 27
0002
0023
0230
1300
0001
0100
0010
1000
0002
2003
3200
0310
0001
1000
0100
1000
,  // measure 28
0002
0203
0320
0030
2000
3002
0203
0300
0002
0023
0230
0300
2000
3200
0320
0030
,  // measure 29
0001
0000
0001
0000
1001
0000
1000
0100
1000
0001
1000
0010
0100
000M
M000
0000
,  // measure 30
1002
0000
0000
0000
0000
0000
0013
0000
0100
0000
0000
0000
0040
0000
0130
0000
1000
0000
0100
0000
1000
0000
0001
0000
0100
0000
0001
0000
0010
0M00
0010
0000
,  // measure 31
1000
0000
0010
0000
1000
0000
0001
0000
0010
0000
0100
00M0
0100
0000
0001
0000
0100
0000
0001
0000
1000
0000
0100
0000
0010
0000
0000
0000
0100
0000
0000
0000
,  // measure 32
1200
0000
0000
0000
0000
0000
0310
0000
0001
0000
0000
0000
0400
0000
0310
0000
1000
0000
0010
0000
0100
0000
0001
1000
0001
0000
0010
0000
0100
00M0
0100
0000
,  // measure 33
0001
0000
0000
0100
0000
0000
0010
0000
0000
1000
0000
0000
0100
0000
0000
1000
0000
0001
0000
1000
0000
0010
0000
0000
0100
0000
0000
0001
0000
0000
0010
0000
0000
0100
0000
0000
10M0
0000
0000
0000
0000
0000
0000
0000
0000
0000
0000
0000
,  // measure 34
1002
0000
0000
0000
0000
0000
1003
0000
0010
0000
0000
0000
0400
0000
0301
0000
1000
0000
0001
0000
0100
0000
0010
0000
1000
0000
0100
00M0
0100
0000
0001
0000
,  // measure 35
1000
0000
0001
0000
0010
0000
0100
0000
1000
0000
0010
0M00
0010
0000
0001
0000
0100
0000
0001
0000
1000
0000
0100
0000
0010
0000
0000
0000
0004
0000
0003
0000
,  // measure 36
2001
0000
0000
0000
0000
0000
3010
0000
020M
0000
0000
0000
0000
0000
0310
0000
1000
0000
0010
0000
0100
0000
0001
1000
0001
0000
0010
0000
0100
00M0
0100
0000
,  // measure 37
0001
0000
0000
0100
0000
0000
0010
0000
0000
1000
0000
0000
0001
0000
0000
1000
0000
0100
0000
1000
0000
0001
0000
0000
0100
0000
0000
0010
0000
0000
1000
0000
0000
0100
0000
0000
M010
0000
0000
0000
0000
0000
0000
0000
0000
0000
0000
0000
,  // measure 38
0021
0000
0000
0000
0000
0000
0130
0000
1000
0000
0000
0000
0004
0000
1003
0000
0010
0000
1000
0000
0001
0000
0010
0000
0001
0000
0100
00M0
0100
0000
1000
0000
,  // measure 39
0001
0000
0100
0000
0010
0000
1000
0000
0001
0000
0010
0000
0100
00M0
0100
0000
0001
0000
1000
0000
0010
0000
0100
0000
0001
0000
0000
0000
0040
0000
0030
0000
,  // measure 40
0210
0000
0000
0000
0000
0000
1300
0000
0001
0000
0000
0000
0004
0000
1003
0000
0010
0000
0100
0000
0001
0000
1000
0001
1000
0000
0100
0000
0010
0M00
0010
0000
,  // measure 41
1000
0000
0000
0001
0000
0000
0100
0000
0000
0010
0000
0000
1000
0000
0000
0001
0000
0010
0000
0001
0000
0010
0000
0000
0100
0000
0000
1000
0000
0000
0001
0000
0000
0000
0000
0000
M101
0000
0000
0000
0000
0000
M11M
0000
0000
0000
0000
0000
,  // measure 42
2001
0000
0000
0000
0000
0000
3001
0000
0100
0000
0000
0000
0040
0000
0130
0000
0001
0000
1000
0000
0100
0000
0010
0000
0001
0000
0100
00M0
0100
0000
0010
0000
,  // measure 43
0001
0000
1000
0000
0001
0000
1000
0000
0100
0000
0010
0M00
0010
0000
1000
0000
0001
0000
0100
0000
0010
0000
1000
0000
0001
0000
0000
0000
1000
0000
0000
0000
,  // measure 44
2100
0000
0000
0000
0000
0000
3001
0000
0M20
0000
0000
0000
0000
0000
0031
0000
0100
0000
0010
0000
0100
0000
0001
1000
0001
0000
0010
0000
0100
00M0
0100
0000
,  // measure 45
0001
0000
0000
1000
0000
0000
0010
0000
0000
0100
0000
0000
0010
0000
0000
1000
0000
0001
0000
1000
0000
0001
0000
0000
0010
0000
0000
0100
0000
0000
1000
0000
0000
0001
0000
0000
0200
0000
0000
0000
0000
0000
0000
0000
0000
0300
0000
0000
,  // measure 46
1002
0000
0000
0023
,  // measure 47
0230
0000
0000
2300
,  // measure 48
3020
0000
0000
0230
,  // measure 49
0302
0000
0000
0000
0000
0000
0000
0000
0000
0000
0000
0000
0000
0000
0000
0000
2003
0000
0000
0000
0000
0000
0000
0000
3200
0000
0000
0000
0000
0000
0000
0300
,  // measure 50
M110
0001
1000
0010
,  // measure 51
0100
0001
1000
0100
,  // measure 52
0041
0030
0001
0000
1000
0000
0010
0000
,  // measure 53
0100
0000
0000
0000
0001
0000
0000
0000
0010
0000
0000
0000
0200
0300
0000
0000
,  // measure 54
1000
0000
0001
0000
0100
0000
0010
0000
1000
0000
0001
0000
1000
0000
0100
0000
0010
0000
0001
0000
1000
0000
0001
0000
1000
0000
0010
0000
0100
0000
0001
1000
,  // measure 55
0001
0010
0100
1000
0001
0100
0010
1000
0001
0010
0100
0010
0001
1000
0010
0100
,  // measure 56
0001
0010
0100
0000
0010
0001
1000
0000
0010
0100
0001
0000
0010
0100
1000
0000
,  // measure 57
0002
0003
0000
0000
0200
0300
0000
0000
0040
0000
0030
0000
1000
0000
0010
0000
,  // measure 58
0210
0000
0000
0301
1000
0000
0400
0310
0001
1000
0010
1000
0001
0100
M010
0100
,  // measure 59
0004
0000
1003
0100
4000
0000
301M
0100
0001
1000
0010
1000
0001
0010
0100
0000
,  // measure 60
2100
0000
0000
0000
0000
0000
3001
0000
0100
0000
0000
0000
0040
0000
0130
0000
0001
0000
1000
0000
0100
0000
1000
0001
1000
0000
0010
0000
0100
0000
0001
0000
,  // measure 61
4000
0000
0000
0000
0000
0000
3100
0000
0010
0000
0001
0000
1000
0000
0000
0000
0000
0000
0010
0000
0000
0100
0000
0000
0002
0000
0000
1003
0000
0000
0200
0000
0000
0320
0000
0000
0032
0000
0000
1003
0000
0000
0010
0000
0000
0100
0000
0000
,  // measure 62
0002
0000
0000
1003
0100
0000
0040
0031
1000
0001
0100
0010
0100
0001
10M0
0100
,  // measure 63
0040
0000
0031
1000
0010
0000
010M
0010
1000
0001
0010
0100
1000
0010
010M
0000
,  // measure 64
0120
0000
0000
0000
0000
0000
1030
0000
0001
0000
0000
0000
0040
0000
0130
0000
1000
0000
0001
0000
1000
0000
0001
0100
0001
0000
1000
0000
0100
0000
0010
0000
,  // measure 65
0004
0000
0000
0000
0000
0000
1003
0000
0100
0000
1000
0000
0001
0000
0000
0000
0000
0000
0100
0000
0000
0010
0000
0000
0100
0000
0000
0001
0000
0000
1000
0000
0000
0100
0000
0000
0010
0000
0000
0000
0000
0000
0M01
0000
0000
0000
0000
0000
,  // measure 66
2002
0000
3003
0000
1001
0000
0004
1003
0100
1000
0001
0100
0001
1000
0100
0010
,  // measure 67
0400
0000
0000
0000
0000
0000
0000
0000
0000
0000
0000
0000
0000
0000
0000
0000
0000
0000
0000
0000
0000
0000
0000
0000
1300
0000
0000
0000
0000
0000
0000
0000
0000
0000
0001
0000
0000
0000
0000
0000
0000
0000
0000
0000
0000
0000
0000
0000
0400
0000
0000
0000
0000
0000
0000
0000
0000
0000
0000
0000
0000
0000
0000
0000
0000
0000
0000
0000
0000
0000
0000
0000
0310
0000
0000
0000
0000
0000
0000
0000
0000
0000
0000
0000
0100
0000
0000
0000
0000
0000
0000
0000
0000
0000
0000
0000
0001
0000
0000
0000
0000
0000
0000
0000
0000
0000
0000
0000
1000
0000
0000
0000
0000
0000
0000
0000
0000
0000
0000
0000
0001
0000
0000
0000
0000
0000
0000
0000
0000
0000
0000
0000
1000
0000
0000
0000
0000
0000
0000
0000
0000
0000
0000
0000
0100
0000
0000
0000
0000
0000
0000
0000
0000
0000
0000
0000
0000
0000
0000
0000
0000
0000
0000
0000
0000
0000
0000
0000
0040
0000
0000
0000
0000
0000
0000
0000
0000
0000
0000
0000
0030
0000
0000
0000
0000
0000
0000
0000
0000
0000
0000
0000
,  // measure 68
0012
0000
0000
0000
0000
0000
1003
0000
0010
0000
0000
0000
0400
0000
0301
0000
1000
0000
0100
0000
0010
0000
0001
1000
0001
0000
1000
0000
0010
0000
0100
0000
,  // measure 69
0001
0000
0000
0000
0000
0000
0000
0000
0000
0000
0000
0000
0000
0000
0010
0000
0000
0000
0000
0000
0000
0000
0000
0000
0100
0000
0000
0000
0000
0000
0000
0000
0000
0000
0000
0000
0000
0000
0000
0000
0000
0000
0000
0000
0000
0000
0000
0000
0020
0000
0000
0000
0000
0000
0000
0000
0000
0000
0000
0000
0000
0000
0000
0000
0000
0000
0000
0000
0000
0000
0000
0000
0031
0000
0000
0000
0000
0000
0000
0000
0000
0000
0000
0000
0000
0000
0000
0000
0000
0000
0000
0000
0000
0000
0000
0000
1000
0000
0000
0000
0000
0000
0000
0000
0000
0000
0000
0001
0000
0000
0000
0000
0000
0000
0000
0000
0000
0000
0000
0000
1000
0000
0000
0000
0000
0000
0000
0000
0000
0000
0000
0000
0000
0000
0000
0000
0000
0000
0000
0000
0000
0000
0000
0000
0010
0000
0000
0000
0000
0000
0000
0000
0000
0000
0000
0000
0000
0000
0000
0000
0000
0000
0000
0000
0000
0000
0000
0000
0100
0000
0000
0000
0000
0000
0000
0000
0000
0000
0000
0000
0000
0000
0000
0000
0000
0000
0000
0000
0000
0000
0000
0000
,  // measure 70
2001
0000
3000
0001
0020
0000
0000
0130
1000
0010
0100
0001
1000
0100
0010
0001
,  // measure 71
4000
0000
0000
0000
0000
0000
0000
0000
0000
0000
0000
0000
0000
0000
0000
0000
0000
0000
0000
0000
0000
0000
0000
0000
3010
0000
0000
0000
0000
0000
0000
0000
0000
0000
0100
0000
0000
0000
0000
0000
0000
0000
0000
0000
0000
0000
0000
0000
0010
0000
0000
0000
0000
0000
0000
0000
0000
0000
0000
0000
0000
0000
0000
0000
0000
0000
0000
0000
0000
0000
0000
0000
1000
0000
0000
0000
0000
0000
0000
0000
0000
0000
0000
0000
0001
0000
0000
0000
0000
0000
0000
0000
0000
0000
0000
0000
0100
0000
0000
0000
0000
0000
0000
0000
0000
0000
0000
0000
0010
0000
0000
0000
0000
0000
0000
0000
0000
0000
0000
0000
1000
0000
0000
0000
0000
0000
0000
0000
0000
0000
0000
0000
0100
0000
0000
0000
0000
0000
0000
0000
0000
0000
0000
0000
0010
0000
0000
0000
0000
0000
0000
0000
0000
0000
0000
0000
0000
0000
0000
0000
0000
0000
0000
0000
0000
0000
0000
0000
0400
0000
0000
0000
0000
0000
0000
0000
0000
0000
0000
0000
0300
0000
0000
0000
0000
0000
0000
0000
0000
0000
0000
0000
,  // measure 72
1200
0000
0000
0000
0000
0000
0310
0000
0001
0000
0000
0000
0400
0000
0310
0000
1000
0000
0001
0000
0100
0000
0001
0100
0001
0000
1000
0000
0100
0000
1000
0000
,  // measure 73
0001
0100
0010
0000
1000
0000
01M0
0100
0001
1000
0100
0010
0001
0100
0010
1000
,  // measure 74
0002
0000
0000
0000
1003
1000
0010
0010
,  // measure 75
0200
0001
0001
0301
0010
0010
0100
0100
,  // measure 76
2100
0000
0000
0000
3001
0001
0100
0100
,  // measure 77
0020
1000
1000
1030
0001
0001
0010
0010
,  // measure 78
0120
0000
0000
0000
0031
0001
0010
0010
,  // measure 79
0200
1000
1000
1300
0001
0001
0100
0100
,  // measure 80
0120
0000
0000
0000
1030
1000
0001
0001
,  // measure 81
2000
0000
0100
0000
0100
0000
3100
0010
0001
1000
0010
0100
0002
1003
0002
0000
,  // measure 82
0203
0000
0000
0000
0000
0000
0000
0000
0000
0000
0000
0000
0000
0310
0000
0000
,  // measure 83
0000
0000
0000
0000
0000
0000
0000
0000
0000
0000
0000
0000
0000
0000
0000
0000
0000
0000
0000
2000
0000
0000
0000
0000
0000
0000
0000
0000
0000
0000
0000
0000
0000
0000
0000
0000
0000
0000
0000
0000
0000
0000
0000
0000
0000
0000
0000
0000
0000
0000
0000
0000
0000
0000
0000
0000
0000
0000
0000
0000
0000
0000
0000
0000
0000
0000
0000
0000
0000
0000
0000
0000
0000
0000
0000
0000
0000
0000
0000
0000
0000
0000
0000
0000
0000
0000
0000
0000
0000
0000
0000
0000
0000
0000
0000
0000
0000
0000
0000
0000
0000
0000
0000
0000
0000
0000
0000
0000
0000
0000
0000
0000
0000
0000
0000
0000
0000
0000
0000
0000
0000
0000
0000
0000
0000
0000
0000
0000
0000
0000
0000
0000
0000
0000
0000
0000
0000
0000
0000
0000
0000
0000
0000
0000
0000
0000
0000
0000
0000
0000
3100
0000
0000
0000
0000
0000
0000
0000
0000
0000
0000
0000
0000
0000
0000
0000
0000
0000
0000
0000
0000
0000
0000
0000
0000
0000
0000
0000
0000
0000
0000
0000
0000
0000
0000
0000
0000
0000
0000
0000
0000
0000
,  // measure 84
0000
0000
0000
0000
0000
0000
0000
0000
0000
0000
0000
0000
0000
0000
0000
0000
0000
0000
0000
0000
0000
0000
0000
0000
0000
0000
0000
0000
0000
0000
0000
0000
1000
0000
0000
0000
0001
0000
0000
0000
0000
0000
0000
0000
0000
0000
0000
0000
0000
0000
0000
0000
0000
0000
0000
0000
0000
0000
0000
0000
0000
0000
0000
0000
0000
0000
0000
0000
0000
0000
0000
0000
0000
0000
0000
0100
0000
0000
0000
0000
0000
0000
0000
0000
0000
0000
0000
0000
0000
0000
0000
0000
0000
0000
0000
0000
0000
0000
0000
0000
0000
0000
0000
0000
0000
0000
0000
0000
0000
0010
0000
0000
0000
0000
0000
0000
0000
0000
0000
0000
0000
0000
0000
0000
0000
0000
0000
0000
0000
0000
0000
0000
0000
0000
0000
0000
0000
0000
0000
0000
0000
0000
1000
0000
0000
0000
0000
0000
0000
0000
0000
0000
0000
0000
0000
0000
0000
0000
0000
0000
0000
0000
0000
0000
0000
0000
0000
0000
0000
0000
0000
0000
0000
0000
0100
0000
0000
0000
0000
0000
0000
0000
0000
0000
0000
0000
0000
0000
0000
0000
0000
0000
,  // measure 85
0000
0000
0000
0000
0000
0000
0000
0000
0000
0000
0000
0010
0000
0000
0000
0000
0000
0000
0000
0000
0000
0000
0000
0000
0000
0000
0000
0000
0000
0000
0000
0000
0000
0000
0000
0000
0000
0000
0000
0001
0000
0000
0000
0000
0000
0000
0000
0000
0000
0000
0000
0000
0000
0000
0000
0000
0000
0000
0000
0000
0000
0000
0000
0000
0000
0000
0000
0000
0000
0000
0000
0000
1000
0000
0000
0000
0000
0000
0000
0000
0000
0000
0000
0000
0000
0000
0000
0000
0000
0000
0000
0000
0000
0000
0000
0000
0000
0000
0000
0000
0000
0000
0000
0010
0000
0000
0000
0000
0000
0000
0000
0000
0000
0000
0000
0000
0000
0000
0000
0000
0000
0000
0000
0000
0000
0000
0000
0000
0000
0000
0000
0000
0000
0000
0000
0000
0000
0000
0000
0000
0000
0000
0000
0100
0000
0000
0000
0000
0000
0000
0000
0000
0000
0000
0000
0000
0000
0000
0000
0000
0000
0000
0000
0000
0000
0000
0000
0000
0000
0000
0000
0000
0000
0000
0000
0000
0000
0000
0000
0000
0000
0001
0000
0000
0000
0000
0000
0000
0000
0000
0000
0000
,  // measure 86
0000
0000
0000
0000
0000
0000
0000
0000
0000
0000
0000
0000
0000
0000
0000
0000
0000
0000
0000
0000
0000
0000
0000
0000
0000
0000
0000
0000
0000
0000
0000
0000
0000
0000
0020
0000
0000
0000
0000
0000
0000
0000
0000
0000
0000
0000
0000
0000
0000
0000
0000
0000
0000
0000
0000
0000
0000
0000
0000
0000
0000
0000
0000
0000
0000
0000
0000
0000
0000
0000
0000
0000
0000
0000
0000
0000
0000
0000
0000
0000
0000
0000
0000
0000
0000
0000
0000
0000
0000
0000
0000
0000
0000
0000
0000
0000
0000
0000
0000
0000
0000
0000
0000
0000
0000
0000
0000
0000
0000
0000
0000
0000
0000
0000
0000
0000
0000
0000
0000
0000
0000
0000
0000
0000
0000
0000
0M00
0000
0000
0000
0000
0000
0000
0000
M000
0000
0000
0000
0000
0000
0000
0000
0000
0M00
0030
0000
0000
0000
0000
0000
0000
0000
0000
0000
0000
0000
0000
0000
0000
0000
0000
0000
0000
0000
0000
0000
0000
0000
0000
0000
0000
0000
0000
0000
0000
0000
0000
0000
0000
0000
0000
0000
0000
0000
0000
0000
0000
0000
0000
0000
0000
0000
;
