#VERSION:0.83;
#TITLE:Nurture;
#SUBTITLE:(feat. Brenna Myers);
#ARTIST:Glacier;
#TITLETRANSLIT:;
#SUBTITLETRANSLIT:;
#ARTISTTRANSLIT:;
#GENRE:EDM;
#ORIGIN:;
#CREDIT:;
#BANNER:Nurture-bn.png;
#BACKGROUND:Nurture-bg.png;
#PREVIEWVID:;
#JACKET:Nurture-jacket.png;
#CDIMAGE:;
#DISCIMAGE:;
#LYRICSPATH:;
#CDTITLE:cd-title-Benpai.png;
#MUSIC:Nurture.ogg;
#OFFSET:-0.033000;
#SAMPLESTART:51.457500;
#SAMPLELENGTH:18.915001;
#SELECTABLE:YES;
#DISPLAYBPM:101.500000;
#BPMS:0.000=101.508,
214.000=152.262,
215.000=101.508;
#STOPS:214.000=0.197;
#DELAYS:;
#WARPS:;
#TIMESIGNATURES:0.000=4=4;
#TICKCOUNTS:0.000=4;
#COMBOS:0.000=1;
#SPEEDS:0.000=1.000=0.000=0;
#SCROLLS:0.000=1.000;
#FAKES:;
#LABELS:0.000=Song Start;
#BGCHANGES:;
#KEYSOUNDS:;
#ATTACKS:
;

//---------------dance-single - ----------------
#NOTEDATA:;
#CHARTNAME:;
#STEPSTYPE:dance-single;
#DESCRIPTION:;
#CHARTSTYLE:;
#DIFFICULTY:Challenge;
#METER:10;
#RADARVALUES:0.492897,0.701925,0.327643,0.896003,0.658629,516.000000,467.000000,49.000000,134.000000,40.000000,0.000000,9.000000,0.000000,0.000000,0.492897,0.701925,0.327643,0.896003,0.658629,516.000000,467.000000,49.000000,134.000000,40.000000,0.000000,9.000000,0.000000,0.000000;
#CREDIT:Benpai;
#DISPLAYBPM:101.500000;
#NOTES:
// measure 0
0000
0000
0000
0000
,  // measure 1
0000
0000
0000
0000
,  // measure 2
0000
0000
0000
0000
,  // measure 3
0000
0000
0000
0000
,  // measure 4
0000
0000
0000
M000
,  // measure 5
0000
0000
1000
1000
0200
0000
0000
0000
,  // measure 6
0000
0000
0000
0000
1300
0000
0000
0000
0020
0000
0000
0000
0000
0000
0000
0031
0000
0000
0000
0000
0010
0000
0000
0000
1000
0000
0000
0000
0000
0000
0001
0000
,  // measure 7
1000
0000
0000
0000
0000
0000
0000
0000
0100
0000
0000
0000
0000
0000
0000
0000
0010
0000
0000
0000
0000
0001
0000
0000
1000
0000
0000
0000
0000
0000
0000
0000
0020
0000
0000
0000
0000
0000
0000
0000
0000
0000
0000
0000
0000
0000
0000
0000
0130
0000
0000
0000
0000
0000
0000
0000
0000
0000
0000
0000
0000
0000
0000
0000
,  // measure 8
0000
0000
0000
0001
0000
0000
0100
0000
0000
0001
0000
0000
2000
0000
0000
0000
0000
0000
3100
0000
0000
0000
0000
0010
,  // measure 9
M001
0000
1000
0000
0010
0000
0000
0010
0000
0000
0100
0000
0002
0000
0000
0000
,  // measure 10
0000
0000
0000
1003
0000
0000
0100
0000
0000
0010
0000
0000
0200
0000
0000
0000
0000
0000
1300
0000
0010
0000
0000
0100
,  // measure 11
0001
0000
0000
2000
0000
0000
3100
0000
0010
0100
0000
1000
0000
0000
0001
0200
0000
0000
0310
0000
0000
0200
0000
0000
,  // measure 12
0000
0000
2300
0000
3200
0000
0320
0000
2030
0000
0000
3000
1100
0000
0000
0000
,  // measure 13
M100
0020
0230
2300
,  // measure 14
0000
3020
0230
0302
,  // measure 15
0003
0100
0010
0010
2000
0000
3200
0000
,  // measure 16
0000
0000
0310
0000
0001
0000
0001
0000
0200
0000
0000
0310
1010
0000
1010
0000
,  // measure 17
0000
0000
0000
0000
0002
0000
0000
0000
0023
0000
0000
0030
0210
0000
0000
0000
,  // measure 18
0000
0000
1300
0000
0020
0000
0000
0000
0230
0000
0000
0301
1001
0000
1001
0000
,  // measure 19
0000
0000
1000
0000
0100
0000
0100
0000
0020
0000
0000
0030
0012
0000
0000
0000
,  // measure 20
0000
1003
0010
0100
0020
0000
M13M
0000
,  // measure 21
0000
0000
0000
0000
0000
0000
0000
0000
0000
0000
0000
0000
0000
0000
0000
0000
0000
0000
0000
0000
0000
0001
0000
0000
1000
0000
0100
0000
0010
0000
0001
0000
1000
0000
0010
0000
200M
0000
0000
0000
0000
0000
0000
0000
0000
0000
3001
0000
,  // measure 22
0100
0000
0000
0000
0010
0000
1000
0000
0000
0000
0001
0000
0010
0000
0000
0000
0100
0000
0010
0000
0000
0000
0001
0000
1000
0000
0000
2002
0000
0000
0000
0000
0000
3003
0000
0000
2020
0000
0000
0000
0000
0000
3030
0000
0000
0000
0010
0000
,  // measure 23
1000
0000
0000
0000
0100
0000
0010
0000
0000
0000
0001
0000
1000
0000
0000
0000
0010
0000
0100
0000
0001
0000
0010
0000
0100
0000
0000
2200
0000
0000
0000
0000
0000
3300
0000
0000
0022
0000
0000
0000
0000
0000
0033
0000
0000
0000
0001
0000
,  // measure 24
1000
0000
0000
0000
0010
0000
0100
0000
0000
0000
0001
0000
1000
0000
0000
0000
0100
0000
0010
0000
0000
0000
0001
0000
1000
0000
0000
2002
0000
0000
0000
0000
0000
3003
0000
0000
0001
0000
1000
0001
1000
0000
0100
0000
0000
0000
0010
0000
,  // measure 25
0001
0000
1000
0010
0000
0100
0010
0000
1000
0001
0000
0010
0100
1000
0100
1000
0000
0000
2MM1
0000
0000
0000
0000
3010
,  // measure 26
0100
0000
0000
0000
0001
0000
1000
0000
0000
0000
0100
0000
0010
0000
0000
0000
0100
0000
1000
0000
0000
0000
0001
0000
1000
0000
0000
2002
0000
0000
0000
0000
0000
3003
0000
0000
0202
0000
0000
0000
0000
0000
0303
0000
0000
0000
1000
0000
,  // measure 27
0010
0000
0000
0000
1000
0000
0001
0000
0000
0000
0010
0000
0100
0000
0000
0000
1000
0000
0001
0000
1000
0000
0001
0000
0100
0000
0000
0202
0000
0000
0000
0000
0000
0303
0000
0000
2020
0000
0000
0000
0000
0000
3030
0000
0000
0000
1000
0000
,  // measure 28
0001
0000
0000
0000
1000
0000
0100
0000
0000
0000
0010
0000
0001
0000
0000
0000
0100
0000
0010
0000
0000
0000
0100
0000
0001
0000
0000
2002
0000
0000
0000
0000
0000
3003
0000
0000
2200
0000
0000
3300
0000
0000
0001
0000
0000
0022
0000
0000
,  // measure 29
0033
0000
0000
1000
0000
0000
2002
0000
0000
0000
0000
0000
0000
0000
0000
0000
0000
0000
0000
0000
0000
3003
0000
0000
0101
0000
0000
0000
0100
0000
0000
0000
0010
0000
0000
0000
2010
0000
0000
0000
0000
0000
0000
0000
0000
0000
0000
0000
,  // measure 30
3400
0000
0000
0000
0000
0000
0000
0000
0000
0000
0000
0000
0000
0000
0000
0000
0000
0000
0000
0000
0000
0000
0000
0000
0000
0000
0000
0000
0000
0000
0000
0000
0000
0000
0000
0000
0000
0000
0000
0000
0000
0000
0300
0000
0000
0000
0000
0000
0140
0000
0000
0000
0000
0000
0000
0000
0000
0000
0000
0000
0000
0000
0000
0000
0000
0000
0000
0000
0000
0000
0000
0000
0000
0000
0000
0000
0000
0000
0000
0000
0030
0000
0000
0000
0000
0000
0000
0000
0000
0000
0000
0000
0000
0000
0000
0000
0001
0000
0000
0000
0000
0000
0000
0000
0000
0000
0000
0000
2002
0000
0000
0000
0000
0000
0000
0000
0000
0000
0000
0000
0000
0000
0000
0000
0000
0000
0000
0000
0000
0000
0000
0000
3003
0000
0000
0000
0000
0000
0000
0000
0000
0000
0000
0000
2020
0000
0000
0000
0000
0000
0000
0000
0000
0000
0000
0000
0000
0000
0000
0000
0000
0000
0000
0000
0000
0000
0000
0000
0000
0000
0000
0000
0000
0000
0000
0000
0000
0000
0000
0000
3030
0000
0000
0000
0000
0000
0000
0000
0000
0000
0000
0000
,  // measure 31
0040
0000
0030
0100
0000
0001
1000
0000
0010
1000
0000
0100
0020
0000
0000
0032
0000
0003
2001
0000
0000
0000
0000
0000
,  // measure 32
3040
0000
0000
0000
0000
0000
0000
0000
0000
0000
0000
0000
0000
0000
0000
0000
0000
0000
0030
0000
0000
0000
0000
0000
0100
0000
0000
0000
0000
0000
0000
0000
0000
0000
0000
0000
0000
0000
0000
0000
0001
0000
0000
0000
0000
0000
0000
0000
1000
0000
0000
0000
0000
0000
0000
0000
0000
0000
0000
0000
0000
0000
0000
0000
0100
0000
0000
0000
0000
0000
0000
0000
0000
0000
0000
0000
0000
0000
0000
0000
0000
0000
0000
0000
0000
0000
0000
0000
0000
0000
0000
0000
0000
0000
0000
0000
0010
0000
0000
0000
0000
0000
0000
0000
0000
0000
0000
0000
0220
0000
0000
0000
0000
0000
0000
0000
0000
0000
0000
0000
0000
0000
0000
0000
0000
0000
0000
0000
0000
0000
0000
0000
0330
0000
0000
0000
0000
0000
0000
0000
0000
0000
0000
0000
2200
0000
0000
0000
0000
0000
0000
0000
0000
0000
0000
0000
0000
0000
0000
0000
0000
0000
0000
0000
0000
0000
0000
0000
3300
0000
0000
0000
0000
0000
0000
0000
0000
0000
0000
0000
0000
0000
0000
0000
0001
0000
0000
0000
0000
0000
0000
0000
,  // measure 33
1000
0000
0000
0000
0000
0000
0010
0000
0000
0000
0000
0000
0110
0000
0000
0000
0000
0000
0000
0000
0000
0100
0000
0000
0001
0000
0000
0000
1000
0000
0100
0000
0000
0000
0000
0000
0012
0000
0000
0000
0000
0000
0000
0000
0000
0000
1003
0000
,  // measure 34
0010
0000
0000
0000
0100
0000
0010
0000
0000
0000
1000
0000
0100
0000
0000
0000
0010
0000
0001
0000
0000
0000
1000
0000
0001
0000
0000
2002
0000
0000
0000
0000
0000
3003
0000
0000
2020
0000
0000
0000
0000
0000
3030
0000
0000
0000
0001
0000
,  // measure 35
1000
0000
0000
0000
0100
0000
0010
0000
0000
0000
0100
0000
1000
0000
0000
0000
0001
0000
1000
0000
0001
0000
0100
0000
0010
0000
0000
2020
0000
0000
0000
0000
0000
3030
0000
0000
0202
0000
0000
0000
0000
0000
0303
0000
0000
0000
0001
0000
,  // measure 36
1000
0000
0000
0000
0100
0000
0010
0000
0000
0000
0001
0000
0100
0000
0000
0000
0010
0000
0100
0000
0000
0000
0001
0000
1000
0000
0000
2200
0000
0000
0000
0000
0000
3300
0000
0000
2002
0000
0000
0000
0000
0000
3003
0000
0000
0000
0001
0000
,  // measure 37
0100
0000
0000
0000
0000
0000
0000
0000
0000
0000
0000
0000
0000
0000
0000
0000
0010
0000
0000
0000
0000
0000
0000
0000
0100
0000
0000
0000
0000
0000
0000
0000
0000
0000
0000
0000
0000
0000
0000
0000
0001
0000
0000
0000
0000
0000
0000
0000
0010
0000
0000
0000
0000
0000
0000
0000
0100
0000
0000
0000
0000
0000
0000
0000
0010
0000
0000
0000
0000
0000
0000
0000
0100
0000
0000
0000
0000
0000
0000
0000
0000
0000
0000
0000
0000
0000
0000
0000
1000
0000
0000
0000
0000
0000
0000
0000
0001
0000
0000
0000
0000
0000
0000
0000
0000
0000
0000
0000
0000
0000
0000
0100
0000
0000
0000
0000
0000
0000
0000
0000
0010
0000
0000
0000
0000
0000
0000
0000
0000
0000
0000
0000
0000
0000
0000
1000
0000
0000
0000
0000
0000
0000
0000
0000
0020
0000
0000
0000
0000
0000
0000
0000
0000
0000
0000
0000
0000
0000
0000
0000
0000
0000
0000
0000
0000
0000
0000
0000
0000
0000
0000
0000
0000
0000
0000
0000
0000
0000
0000
0000
0000
0000
0000
0000
0000
0000
0000
0000
0000
0000
0000
0000
,  // measure 38
0000
0000
0000
0000
0000
0000
0130
0000
0000
0000
0000
0001
0000
0000
0000
0000
1000
0000
0000
0000
0000
0200
0000
0000
0000
0000
0000
0000
0000
0000
0320
0000
0000
0000
0000
0000
0100
0000
0000
0000
0000
0000
0000
0000
0000
0000
0000
0000
,  // measure 39
0000
0000
0000
0031
0000
0000
0000
0000
0000
1000
0000
0000
0000
0000
0000
0010
0000
0000
0000
0000
0000
0100
0000
0000
0001
0000
1000
0000
0100
0000
0010
0000
0001
0000
1000
0000
0020
0000
0000
0000
0000
0000
0000
0000
0000
0000
0130
0000
,  // measure 40
0000
0000
0000
0000
0000
0000
0000
0000
0000
0000
0000
0000
0001
0000
0000
0000
0000
0000
0000
0000
0000
0000
0000
0000
0000
0000
0000
0000
0000
0000
0000
0000
0000
0000
0000
0000
1000
0000
0000
0000
0000
0000
0000
0000
0000
0000
0000
0000
0100
0000
0000
0000
0000
0000
0010
0000
0000
0000
0000
0000
0100
0000
0000
0000
0000
0000
0000
0000
0000
0000
0000
0000
1000
0000
0000
0000
0000
0000
0001
0000
0000
0000
0000
0000
0100
0000
0000
0000
0000
0000
0000
0000
0000
0000
0000
0000
0001
0000
0000
0000
0000
0000
1000
0000
0000
0000
0000
0000
0001
0000
0000
0000
0000
0000
0000
0000
0000
0000
0000
0000
0010
0000
0000
0000
0000
0000
0000
0000
0000
0000
0000
0000
0000
0000
0000
0000
0200
0000
0000
0000
0000
0000
0000
0000
0000
0000
0000
0000
0000
0000
0000
0000
0000
0000
0000
0000
0000
0000
0000
0000
0000
0000
0000
0000
0000
0000
0000
0000
000M
0000
0000
0000
0000
0000
0000
0000
0000
0000
0000
0000
0000
0000
0000
0000
M000
0000
0000
0000
0000
0000
0000
0000
,  // measure 41
0000
0000
0000
0310
0000
0000
0001
0000
0000
0000
1000
0000
0000
0000
0000
0000
0000
0000
000M
0000
0000
0M00
0000
0000
0000
0000
0000
00M0
0000
0000
0000
0000
0000
0000
0000
0000
2100
0000
0000
0000
0000
0000
0000
0000
0000
0000
0000
0000
,  // measure 42
3002
0203
0320
2030
,  // measure 43
3200
0320
0032
0203
,  // measure 44
0320
0000
0000
0000
2030
0000
0000
0000
3100
0000
0000
0000
1100
0000
0000
0101
,  // measure 45
0000
0000
0000
0220
0000
0000
0000
0000
0000
0000
0000
0000
033M
0000
M000
000M
0000
0000
2000
0000
0000
0000
0000
3010
,  // measure 46
0100
0000
0000
0010
0000
0000
2000
0000
0000
0000
0000
0000
3200
0000
0000
0000
0000
0000
0310
0000
0000
0000
0000
0100
,  // measure 47
1000
0000
0000
0001
0000
0000
0200
0000
0310
1000
0000
0001
1000
0000
0000
0100
0000
0000
1000
0000
0000
0000
0000
0100
,  // measure 48
0010
0000
0000
0001
0000
0000
0200
0000
0000
0302
0000
0000
0023
0000
0000
0000
0000
0000
0130
0000
0000
1000
0000
0001
,  // measure 49
0100
0000
0000
0010
0000
0000
2000
0000
3001
1000
0000
0100
0020
0000
0000
0000
0000
0000
0031
0000
0000
0000
0000
1000
,  // measure 50
0001
0000
0000
0100
0000
0000
0020
0000
0000
0000
0000
0000
2030
0000
0000
0000
0000
0000
3001
0000
0000
0000
0000
1000
,  // measure 51
0100
0000
0000
1000
0000
0000
0020
0000
0130
0001
0000
1000
0100
0000
0000
0100
0000
0000
0020
0000
0000
0000
0000
0031
,  // measure 52
1000
0000
0000
0001
0000
0000
0200
0000
0000
0000
0000
0000
0320
0000
0000
0000
0000
0000
003M
000M
000M
000M
000M
000M
,  // measure 53
000M
000M
000M
000M
000M
000M
000M
000M
000M
000M
000M
000M
100M
0000
0000
0000
0000
0000
2001
0000
0000
0000
0000
3001
,  // measure 54
0010
0000
0000
0000
0000
0000
0000
0000
0000
0000
0000
0000
0100
0000
0000
0000
0000
0000
0000
0000
0000
0000
0000
0000
0000
0000
0000
0000
0000
0000
0000
0000
0000
0000
0000
0000
0100
0000
0000
0000
0000
0000
0000
0000
0000
0000
0000
0000
0000
0000
0000
0000
0000
0000
0000
0000
0000
0000
0000
0000
1000
0000
0000
0000
0000
0000
0000
0000
0000
0000
0000
0000
0000
0000
0000
0000
0000
0000
0000
0000
0000
0000
0000
0000
1000
0000
0000
0000
0000
0000
0000
0000
0000
0000
0000
0000
0010
0000
0000
0000
0000
0000
0000
0000
0000
0000
0000
0000
0400
0000
0000
0000
0000
0000
0000
0000
0000
0000
0000
0000
0000
0000
0000
0000
0000
0000
0000
0000
0000
0000
0000
0000
0000
0000
0000
0000
0000
0000
0300
0000
0000
0000
0000
0000
2020
0000
0000
0000
0000
0000
0000
0000
0000
0000
0000
0000
0000
0000
0000
0000
0000
0000
0000
0000
0000
0000
0000
0000
3030
0000
0000
0000
0000
0000
0000
0000
0000
0000
0000
0000
0000
0000
0000
0000
1000
0000
0000
0000
0000
0000
0000
0000
,  // measure 55
0010
0000
0000
0000
0100
0000
0010
0000
0000
0000
1000
0000
0001
0000
0000
0000
0010
0000
0100
0000
0000
0000
1000
0000
0040
0000
0000
0000
0000
0000
0000
0000
0000
0030
0000
0000
0201
0000
0000
0000
0000
0000
0000
0000
0000
0000
0301
0000
,  // measure 56
1000
0000
0010
0200
0000
0301
1000
0000
1000
0001
0000
1000
0200
0000
0000
0000
0000
0300
2001
0000
0000
3010
0000
0100
,  // measure 57
M004
0000
0000
0003
0000
0000
M100
0000
0000
00M1
0000
0000
0000
0000
0000
1M00
0000
0000
00M1
0000
0000
0010
0000
0000
0100
0000
0000
2200
0000
0000
0000
0000
0000
3300
0000
0000
2002
0000
0000
0000
0000
0000
3003
0000
0000
0000
0001
0000
,  // measure 58
0100
0000
0000
0010
0000
0000
0000
0000
0000
0010
0000
0000
0000
0000
0000
0100
0000
0000
0000
0000
0000
0100
0000
0000
0001
0000
0000
0040
0000
0000
0000
0000
0000
0030
0000
0000
0021
0000
0000
0000
0000
0000
0000
0000
0000
0000
0031
0000
,  // measure 59
1000
0000
0100
0010
0000
0001
1000
0000
0001
0100
0000
0010
4000
0000
0000
0000
0000
3000
1020
0000
0000
0000
0000
1030
,  // measure 60
0001
0000
0100
0010
0000
1000
0200
0000
0000
0000
0000
0000
0320
0000
0031
1000
0000
0010
0100
0000
0000
0001
0000
1000
,  // measure 61
0100
0010
0200
2300
3002
0000
1003
0000
;
