#TITLE:Marionette;
#SUBTITLE:;
#ARTIST:Memme;
#TITLETRANSLIT:;
#SUBTITLETRANSLIT:;
#ARTISTTRANSLIT:;
#GENRE:;
#CREDIT:;
#BANNER:Marionette-bn.png;
#BACKGROUND:Marionette-bg.png;
#LYRICSPATH:;
#CDTITLE:;
#MUSIC:Marionette.ogg;
#OFFSET:0.411182;
#SAMPLESTART:24.316090;
#SAMPLELENGTH:11.636182;
#SELECTABLE:YES;
#DISPLAYBPM:165.000000;
#BPMS:0.000000=165.000000
,67.000000=247.500000
,67.750000=82.500000
,68.000000=165.000000
,131.000000=247.500000
,131.750000=82.500000
,132.000000=165.000000
,227.000000=247.500000
,227.750000=82.500000
,228.000000=165.000000
,259.000000=247.500000
,259.750000=82.500000
,260.000000=165.000000
,283.000000=247.500000
,284.000000=165.000000
;
#STOPS:283.000000=0.061000,
283.500000=0.060000
;
#BGCHANGES:;
#KEYSOUNDS:;
#ATTACKS:;

//---------------dance-single - Benpai----------------
#NOTES:
     dance-single:
     Benpai:
     Challenge:
     11:
     0.976644,1.119784,0.245134,0.744480,1.098562,753.000000,726.000000,27.000000,82.000000,16.000000,0.000000,0.976644,1.119784,0.245134,0.744480,1.098562,753.000000,726.000000,27.000000,82.000000,16.000000,0.000000:
// measure 0
0000
0000
0000
0000
,  // measure 1
0000
0000
0000
0000
,  // measure 2
0000
0000
0000
0000
,  // measure 3
0000
0000
0000
0000
,  // measure 4
0000
0000
0000
0000
0000
0000
0000
0001
,  // measure 5
0001
1000
0100
1000
,  // measure 6
0010
0000
0100
0001
0100
0000
0010
0000
,  // measure 7
2000
3100
2000
3002
0203
0310
2000
3002
,  // measure 8
0013
0000
0100
1000
0001
0000
1000
0010
0100
0001
1000
0100
0010
0001
1000
0001
,  // measure 9
0100
0000
0010
0000
1000
0000
0001
1000
0100
1000
0001
0010
0100
0000
1000
0000
,  // measure 10
1000
0000
0001
0100
0020
0000
1030
0000
0002
0000
0013
0100
2000
0000
0000
0000
,  // measure 11
3001
0000
0010
0000
0100
0000
0010
0001
1000
0001
1000
0010
0100
0000
0120
0000
,  // measure 12
0000
0000
1030
0001
1000
0000
0001
0000
0010
0000
0100
0000
2100
0000
0000
0000
,  // measure 13
3001
0000
0100
0000
0010
0000
0100
0010
0100
0001
1000
0001
0010
0000
0100
0000
,  // measure 14
0100
0000
1000
0001
0100
0000
0010
0000
2000
0000
3010
1000
0002
0000
0013
0100
,  // measure 15
2000
0000
3001
0100
0020
0000
0130
0001
1000
0100
0010
0001
0010
0000
0001
1000
,  // measure 16
0010
0100
0010
1000
0001
0000
0010
0000
0200
0000
0310
0001
4000
0000
0000
3000
,  // measure 17
1001
0000
1000
0000
0010
0000
1000
0000
0001
1000
0001
0100
0010
0000
0100
0000
,  // measure 18
0100
0000
0001
0010
0100
0000
1000
0000
0002
0000
1003
0001
0200
0000
0000
0000
,  // measure 19
0310
0000
0100
0000
0001
0000
1000
0100
1000
0001
0010
0100
1000
0000
2001
0000
,  // measure 20
0000
0000
3010
0100
0010
0000
1000
0000
0001
0000
0010
0000
0120
0000
0000
0000
,  // measure 21
0031
0000
1000
0000
0010
0000
0100
0010
1000
0001
0010
0100
1000
0000
0001
0000
,  // measure 22
0001
0000
0100
0010
1000
0000
0001
0000
0010
0000
0100
1000
0200
0000
0310
0001
,  // measure 23
1000
0010
0100
0010
1000
0001
0100
0001
1000
0100
0010
0001
1000
0010
1000
0001
,  // measure 24
0010
0100
1000
0100
0010
0001
0100
0001
1000
0100
0010
0001
20M0
0000
0M00
0000
,  // measure 25
3020
0000
0000
0000
1030
0000
0002
0000
0000
0000
0103
0010
0200
0000
0001
0000
,  // measure 26
0000
0000
0302
0000
0013
0000
0100
0000
2000
0000
3100
1000
0002
0000
0103
0000
,  // measure 27
0020
0000
0130
0001
0100
0000
0002
0000
1003
0000
0100
0010
0002
0000
1003
0000
,  // measure 28
1000
0000
0010
0000
0100
0000
0001
0000
1000
0010
1000
0001
0020
0000
0130
0000
,  // measure 29
0020
0000
0000
0000
0031
0000
2000
0000
0000
0000
3010
0100
0020
0000
1030
0000
,  // measure 30
0001
0000
0020
0130
1000
0000
0001
0000
2000
0000
3001
0100
0020
0000
1030
0000
,  // measure 31
1M02
0000
1003
0100
1000
0000
0002
0013
0001
1000
0010
0100
0001
0000
0102
0000
,  // measure 32
0000
0000
1003
0100
1000
0001
1000
0010
0100
0001
0010
0000
0400
0000
0000
0000
,  // measure 33
1300
0000
0001
0000
1000
0000
0010
0000
0100
0010
1000
0001
1000
0000
0100
0000
,  // measure 34
0100
0000
0010
0100
1000
0000
0001
0100
0001
1000
0100
0010
0002
0000
0000
0000
,  // measure 35
1003
0000
0100
0000
0010
0000
0100
0010
0100
1000
0001
1000
0010
0000
0120
0000
,  // measure 36
0000
0000
1030
0001
1000
0000
0001
0000
0010
0000
0100
0000
12MM
0000
0000
0000
,  // measure 37
1300
0000
0001
0000
0100
0000
0001
0100
0001
1000
0100
0010
0001
0000
0100
0000
,  // measure 38
0100
0000
0010
1000
0001
0000
0010
0000
0200
0000
0310
0001
1000
0000
1000
0001
,  // measure 39
0010
0100
1000
0001
1000
0010
0100
0001
0100
0001
1000
0100
0010
0100
0010
0001
,  // measure 40
1000
0001
0100
0010
0100
0001
1000
0100
0010
0001
0100
0010
2000
0000
0000
0000
,  // measure 41
3001
1000
0001
0010
0100
1000
0001
1000
0001
0010
0100
1000
0010
0100
0001
1000
,  // measure 42
0001
1000
0010
0100
0001
1000
0100
0010
0001
1000
0100
1000
0001
0010
0100
1000
,  // measure 43
0001
0100
0010
1000
0010
1000
0001
0100
0010
1000
0010
1000
0001
0010
0100
0010
,  // measure 44
0001
1000
0100
1000
0001
0100
0010
1000
0100
1000
0001
0010
0100
1000
0001
0100
,  // measure 45
0010
1000
0010
0100
0001
1000
0010
1000
0010
0100
0001
1000
0001
0010
0100
1000
,  // measure 46
0001
1000
0001
0010
0100
1000
0001
0100
0001
1000
0001
1000
0100
0010
0100
1000
,  // measure 47
0001
0010
0001
1000
0001
1000
0010
0100
0001
1000
0001
0100
0010
0100
0001
1000
,  // measure 48
0001
0010
0100
1000
0001
0100
0001
1000
0100
0010
0001
1000
0020
0000
0000
0000
,  // measure 49
0130
0000
0001
1000
0100
0000
0040
0030
0100
0000
0040
0030
0001
0000
4000
3000
,  // measure 50
0010
0000
0100
0010
1000
0000
0001
0010
0100
0000
0010
0001
1000
0000
0004
0003
,  // measure 51
0100
0000
0010
0100
0001
0000
4000
3000
0010
0000
4000
3000
0001
0000
0040
0030
,  // measure 52
0100
0000
0010
0100
1000
0001
0100
0010
0100
0001
1000
0100
2000
0000
3000
0000
,  // measure 53
2100
0000
0000
0000
3000
0000
1002
0000
0000
0000
0003
0000
0201
0000
0000
0310
,  // measure 54
0000
0000
1002
0000
0000
0013
0000
0000
0120
0000
0000
0031
0000
0000
0201
0000
,  // measure 55
0000
0000
0301
1000
0001
0010
0100
1000
0001
0010
0100
1000
0001
0100
0020
0000
,  // measure 56
0000
0000
0000
1030
0000
0000
0000
0000
2M2M
0000
0000
0000
0000
0000
0000
0000
0000
0000
0000
0000
0000
0000
3030
0000
0002
0000
0000
0000
0000
0000
0000
0000
,  // measure 57
4M03
0000
3000
0000
0100
0000
0010
0001
1000
0000
0010
0000
0100
0000
0102
0000
,  // measure 58
0000
0000
1003
0000
0001
0100
0001
1000
0100
1000
0001
0010
0200
0000
0000
0000
,  // measure 59
034M
0030
0002
0203
2300
3200
0301
1002
,  // measure 60
0000
0000
2003
0000
0000
0000
3010
0000
0100
0001
1000
0100
0010
0000
0400
0000
,  // measure 61
0300
0000
1000
0000
0010
0000
0100
0001
1000
0000
0100
0000
1000
0000
1002
0000
,  // measure 62
0000
0000
M103
0000
0110
0000
0010
1000
0000
0001
0010
0100
2000
0000
3001
0100
,  // measure 63
0010
1000
0100
1000
0002
0000
0013
0100
1000
0001
1000
0010
0100
0001
1000
0100
,  // measure 64
0010
0100
1000
0001
0100
0010
1000
0001
0010
0100
1000
0000
0MM4
0000
0000
0003
,  // measure 65
0100
0001
1000
0010
0100
0010
0100
0001
1000
0100
0010
0100
1000
0000
2001
0000
,  // measure 66
0000
0000
3010
0000
0100
0001
0100
0001
1000
0100
0010
0001
2000
0000
0000
0000
,  // measure 67
3M04
0003
2000
3020
0032
0023
1030
2001
,  // measure 68
0000
0000
3002
0000
0000
0000
0023
0000
0130
1000
0001
0100
0010
0000
M400
0000
,  // measure 69
0310
1000
0001
1000
0100
0010
0100
0010
0001
1000
0001
1000
0010
0000
0210
0000
,  // measure 70
0000
0000
0301
0000
0102
0000
0000
0000
1003
0000
1000
0100
0010
0000
0001
0000
,  // measure 71
1000
0100
1000
0001
1000
0001
0100
0010
1000
0001
0010
0100
1000
0001
0010
0001
,  // measure 72
1000
0010
0100
0010
1000
0001
0010
0100
0010
0001
1000
0000
0101
0000
1010
0000
,  // measure 73
0000
2MM2
0000
0000
,  // measure 74
0000
0000
0000
3003
;

//---------------dance-single - Benpai----------------
#NOTES:
     dance-single:
     Benpai:
     Hard:
     10:
     0.671848,0.644724,0.263292,0.671848,0.108948,518.000000,489.000000,29.000000,74.000000,7.000000,0.000000,0.671848,0.644724,0.263292,0.671848,0.108948,518.000000,489.000000,29.000000,74.000000,7.000000,0.000000:
// measure 0
0000
0000
0000
0000
,  // measure 1
0000
0000
0000
0000
,  // measure 2
0000
0000
0000
0000
,  // measure 3
0000
0000
0000
0000
,  // measure 4
0000
0000
0000
0000
0000
0000
0000
0001
,  // measure 5
0001
1000
0100
1000
,  // measure 6
0010
0000
0100
0001
0100
0000
0010
0000
,  // measure 7
2000
3100
2000
3002
0203
0310
2000
3002
,  // measure 8
0013
0000
0100
0000
1000
0000
0001
0100
0001
0000
1000
0000
0010
0000
0100
0000
,  // measure 9
0001
0010
0100
0010
0001
0001
1000
0010
,  // measure 10
0100
0001
0100
0010
2000
3000
2010
0000
,  // measure 11
3001
0100
0001
0010
0100
0100
1000
1002
,  // measure 12
0000
0000
0103
0010
0100
0000
0001
0000
1000
0000
0100
0000
2100
0000
0000
0000
,  // measure 13
3001
1000
0010
0100
0001
0001
1000
0100
,  // measure 14
1000
0001
0100
0010
2000
3000
1100
0100
,  // measure 15
0020
0000
0030
0000
0002
0000
0003
0000
0100
0000
0010
0000
1000
0000
0001
1000
,  // measure 16
0001
0000
0010
0000
0100
0000
1000
0000
0001
0000
1000
0010
0100
0000
0000
0000
,  // measure 17
1001
0001
0010
0100
1000
1000
0010
0100
,  // measure 18
0001
1000
0100
1000
0002
0003
0201
0000
,  // measure 19
0310
0100
0001
1000
1000
0100
0010
0021
,  // measure 20
0000
0000
0130
1000
0100
0000
0010
0000
0001
0000
1000
0000
2001
0000
0000
0000
,  // measure 21
3010
0100
0001
0010
0100
0100
1000
0001
,  // measure 22
0100
0010
0100
0001
2000
3000
0001
0010
,  // measure 23
0100
1000
0010
0001
0010
0100
1000
0100
,  // measure 24
0001
1000
0100
1000
0001
0100
0002
0000
,  // measure 25
0023
0000
0000
0000
0130
0000
2000
0000
0000
0000
3001
0100
0002
0000
1003
0000
,  // measure 26
0100
0020
0130
1000
0020
0130
0002
1003
,  // measure 27
0200
0310
0100
2000
3001
0100
0002
0013
,  // measure 28
0100
0000
0100
0000
1000
0000
1000
0000
0001
0000
0100
0001
0100
0000
0010
0000
,  // measure 29
2000
0000
0000
0000
3001
0000
0200
0000
0000
0000
0310
1000
0002
0000
2003
0000
,  // measure 30
0000
0000
3100
0000
0010
0000
0100
0000
2000
0000
3001
0100
0001
0000
1000
0000
,  // measure 31
1100
0100
1000
0010
0100
0001
1000
1020
,  // measure 32
0000
0130
0001
1000
0100
1000
0001
0000
,  // measure 33
1001
1000
0010
0100
0001
0001
0010
0100
,  // measure 34
1000
0001
0100
0001
0020
0030
0200
0000
,  // measure 35
1300
0001
0100
0010
0100
0001
1000
2100
,  // measure 36
0000
0000
3001
1000
0001
0000
0100
0000
0010
0000
0100
0000
0002
0000
0000
0000
,  // measure 37
1003
0100
0010
0001
0001
1000
0001
0100
,  // measure 38
0010
0100
0001
1000
0020
0030
0100
0100
,  // measure 39
0001
0010
0100
0001
0100
0010
1000
0010
,  // measure 40
0100
1000
0001
0100
0010
1000
0002
0000
,  // measure 41
0013
0100
0010
0001
1000
0010
0100
0010
,  // measure 42
1000
0001
1000
0100
0010
0100
1000
0001
,  // measure 43
0100
0001
0010
0100
1000
0010
0100
0001
,  // measure 44
1000
0001
0010
0100
0010
0001
1000
0010
,  // measure 45
0100
0010
1000
0100
1000
0001
0100
0010
,  // measure 46
0100
0001
1000
0100
0010
0001
1000
0010
,  // measure 47
0100
0010
1000
0001
0010
0100
0010
0001
,  // measure 48
1000
0000
0100
0000
1000
0000
0001
0000
0100
0001
0100
0001
2000
0000
0000
0000
,  // measure 49
3100
0000
0040
0030
0001
0000
0040
0030
0100
0000
0040
0030
0001
0000
4000
3000
,  // measure 50
0010
0000
0100
0001
0100
0000
0010
0000
1000
0000
0001
0000
1000
0000
0400
0300
,  // measure 51
0010
0000
0004
0003
1000
0000
0004
0003
0100
0000
0004
0003
1000
0000
0400
0300
,  // measure 52
0010
0000
0001
0100
0001
0000
0100
0000
0010
0000
1000
0000
0002
0000
0MM3
0000
,  // measure 53
2001
0000
0000
0000
3000
0000
1200
0000
0000
0000
0300
0000
0021
0000
0000
0130
,  // measure 54
0000
0000
1002
0000
0000
0103
0000
0000
0210
0000
0000
0301
0000
0000
4001
0000
,  // measure 55
0000
0000
0000
0000
0000
0000
0000
3000
,  // measure 56
0000
0000
0000
0010
0000
0000
0000
0000
2020
0000
0000
0000
0000
0000
0000
0000
0000
0000
0000
0000
0000
0000
3030
0000
0M00
0000
0000
0000
0000
0000
0000
0000
,  // measure 57
4M00
3000
0100
0010
1000
0010
0001
0012
,  // measure 58
0000
0000
1003
0000
0010
0000
0100
0000
0001
1000
0001
1000
0200
0000
0000
0000
,  // measure 59
034M
0030
0002
0203
2300
3200
0301
1002
,  // measure 60
0000
2003
0000
3100
0010
0002
0000
0403
,  // measure 61
0300
0010
1000
0100
0001
0100
0010
0012
,  // measure 62
0000
0000
1003
0000
0010
0000
0000
0100
0000
0000
0001
0000
1001
0000
1000
0000
,  // measure 63
0100
0010
0002
0103
0010
1000
0200
1300
,  // measure 64
0010
0100
0010
1000
0001
0010
0100
0000
,  // measure 65
4000
3000
0001
0000
0010
0000
0010
0000
0100
0000
1000
0000
0001
0000
0102
0000
,  // measure 66
0000
0000
1003
0000
0100
0000
0010
0000
0100
1000
0100
1000
0002
0000
0000
0000
,  // measure 67
0403
0300
0002
0023
2030
3020
0031
2001
,  // measure 68
0000
3020
0000
0130
0001
2000
0000
3400
,  // measure 69
0310
0001
0100
0010
0100
0001
1000
2100
,  // measure 70
0000
0000
3001
0000
0012
0000
0000
0000
1003
0000
0010
0100
0001
0000
1000
0000
,  // measure 71
0100
1000
0001
0100
0001
0010
0100
1000
,  // measure 72
0010
0100
0001
0010
0100
1000
0001
0101
,  // measure 73
0000
2MM2
0000
0000
,  // measure 74
0000
0000
0000
3003
;

//---------------dance-single - Benpai----------------
#NOTES:
     dance-single:
     Benpai:
     Beginner:
     1:
     0.046692,0.066504,0.009079,0.000000,0.000000,36.000000,35.000000,1.000000,0.000000,0.000000,0.000000,0.046692,0.066504,0.009079,0.000000,0.000000,36.000000,35.000000,1.000000,0.000000,0.000000,0.000000:
0000
0000
0000
0000
,
0000
0000
0000
0000
,
0000
0000
0000
0000
,
0000
0000
0000
0000
,
0000
0000
0000
0000
,
1000
0000
0000
0000
,
0000
0000
0000
0000
,
0100
0000
0000
0000
,
0000
0000
0000
0000
,
1000
0000
0000
0000
,
0000
0000
0000
0000
,
1000
0000
0000
0000
,
0000
0000
0000
0000
,
0001
0000
0000
0000
,
0000
0000
0000
0000
,
0001
0000
0000
0000
,
0000
0000
0000
0000
,
0010
0000
0000
0000
,
0000
0000
0000
0000
,
0100
0000
0000
0000
,
0000
0000
0000
0000
,
0010
0000
0000
0000
,
0000
0000
0000
0000
,
0100
0000
0000
0000
,
0000
0000
0000
0000
,
1000
0000
0000
0000
,
0000
0000
0000
0000
,
1000
0000
0000
0000
,
0000
0000
0000
0000
,
0001
0000
0000
0000
,
0000
0000
0000
0000
,
0001
0000
0000
0000
,
0000
0000
0000
0000
,
0100
0000
0000
0000
,
0000
0000
0000
0000
,
0100
0000
0000
0000
,
0000
0000
0000
0000
,
0010
0000
0000
0000
,
0000
0000
0000
0000
,
0010
0000
0000
0000
,
0000
0000
0000
0000
,
1000
0000
0000
0000
,
0000
0000
0000
0000
,
1000
0000
0000
0000
,
0000
0000
0000
0000
,
0001
0000
0000
0000
,
0000
0000
0000
0000
,
0001
0000
0000
0000
,
0000
0000
0000
0000
,
0100
0000
0000
0000
,
0000
0000
0000
0000
,
0100
0000
0000
0000
,
0000
0000
0000
0000
,
0010
0000
0000
0000
,
0000
0000
0000
0000
0000
0000
0000
1000
,
0000
0000
0000
0000
,
0000
0000
0000
0000
,
1000
0000
0000
0000
,
0000
0000
0000
0000
,
0001
0000
0000
0000
,
0000
0000
0000
0000
0000
0000
0000
0001
,
0000
0000
0000
0000
,
0000
0000
0000
0000
,
1000
0000
0000
0000
,
0000
0000
0000
0000
,
0010
0000
0000
0000
,
0000
0000
0000
0000
,
0100
0000
0000
0000
,
0000
0000
0000
0000
0000
0000
0000
0100
,
0000
0000
0000
0000
,
0000
0000
0000
0000
,
0001
0000
0000
0000
,
0000
0000
0000
0000
,
0000
1001
0000
0000
;

//---------------dance-single - Benpai----------------
#NOTES:
     dance-single:
     Benpai:
     Easy:
     5:
     0.286638,0.339329,0.036316,0.426714,0.000000,221.000000,217.000000,4.000000,47.000000,0.000000,0.000000,0.286638,0.339329,0.036316,0.426714,0.000000,221.000000,217.000000,4.000000,47.000000,0.000000,0.000000:
0000
0000
0000
0000
,
0000
0000
0000
0000
,
0000
0000
0000
0000
,
0000
0000
0000
0000
,
0000
0000
0000
0000
,
1000
0000
0100
0000
,
0010
0000
0100
0000
,
1000
1000
0001
0001
,
0200
0000
0000
0000
,
0301
1000
0000
1000
,
0001
0001
0010
0200
,
1300
0000
0100
0000
0000
0000
0100
0010
,
0000
0010
0000
0002
,
1003
0001
0000
0001
,
0100
0100
0001
2000
,
3001
0010
0001
1000
,
0010
0100
0010
2000
,
3001
1000
0000
1000
,
0100
0100
0010
0002
,
1003
0000
0100
0000
0000
0000
0100
0010
,
0000
0010
0000
0002
,
1003
0001
0000
0001
,
0100
0100
0010
2000
,
3001
0000
0000
0010
0000
0000
0001
0000
,
0000
1000
0000
0000
0100
0000
0200
0000
,
0310
0000
0000
0001
0000
0000
1000
0000
,
0000
0010
0000
0000
1000
0000
1000
0000
,
0100
0000
0000
0010
0000
0000
0010
0000
,
0100
1000
0001
0001
,
0100
0000
0000
0010
0000
0000
1000
0000
,
0000
0001
0000
0000
0010
0000
0001
0000
,
1000
0000
0000
0100
0000
0000
1000
0001
,
0000
0100
0100
0200
,
0301
1000
0000
1000
,
0100
0100
0010
0200
,
1300
0000
0001
0000
0000
0000
0001
0100
,
0000
0100
0010
2000
,
3001
1000
0000
1000
,
0100
0010
0100
2000
,
3001
0000
0000
0100
0000
0000
0010
0000
,
0000
1000
0000
0000
0100
0000
2000
0000
,
3002
0000
0000
2003
0000
0000
3200
0000
,
0000
0320
0000
0000
0230
0000
2300
0000
,
3002
0000
0000
0203
0000
0300
0200
0000
,
0000
0000
0000
0302
,
2003
0000
0000
3200
0000
0000
2300
0000
,
0000
3020
0000
0000
0230
0000
0320
0000
,
2030
0000
0000
3002
0000
0000
0023
0000
,
0000
0000
0000
0230
,
1300
0001
1000
0010
,
0100
0001
1000
0100
,
0010
0100
1000
0001
,
0100
0000
0010
0000
1000
0000
0002
0003
,
1001
0000
0000
1000
0000
0000
0100
0000
,
0000
0010
0000
0000
0001
0000
0000
4000
,
0000
0000
0000
0000
0000
0000
0000
3000
,
0000
0102
0000
0000
,
4003
3000
0100
0000
0010
0000
0001
1000
,
0000
0001
0100
0001
,
4000
3000
0100
0000
0010
0000
0100
1000
,
0000
0100
0000
1000
0000
0010
0000
0400
,
0300
0000
0001
0000
1000
0000
0100
4000
,
3000
0020
0000
0130
,
0001
0000
0000
0010
0000
0000
0100
0000
,
0000
1000
0000
0000
0001
0000
0002
0000
,
4003
0000
0000
0000
0000
0000
3001
0400
,
0300
0001
1000
0010
,
1000
0000
0100
0000
0010
0000
0001
0100
,
0000
0001
0000
0100
0000
0010
0000
4000
,
3000
0000
1002
0000
0000
0000
1003
0400
,
0300
0020
0031
0001
,
0002
0000
0000
2003
0000
0000
3200
0000
,
0000
0320
0000
0000
0032
0000
1003
0001
,
0000
2002
0000
0000
,
0000
0000
0000
3003
;

//---------------dance-single - Benpai----------------
#NOTES:
     dance-single:
     Benpai:
     Medium:
     8:
     0.443575,0.475060,0.081711,0.690006,0.009079,342.000000,333.000000,9.000000,76.000000,0.000000,0.000000,0.443575,0.475060,0.081711,0.690006,0.009079,342.000000,333.000000,9.000000,76.000000,0.000000,0.000000:
// measure 0
0000
0000
0000
0000
,  // measure 1
0000
0000
0000
0000
,  // measure 2
0000
0000
0000
0000
,  // measure 3
0000
0000
0000
0000
,  // measure 4
0000
0000
0000
0000
0000
0000
0000
0001
,  // measure 5
0001
1000
0100
1000
,  // measure 6
0010
0000
0100
0001
0100
0000
0010
0000
,  // measure 7
1000
0000
0100
1000
0001
0000
0100
0010
,  // measure 8
2000
0000
0000
0000
,  // measure 9
3001
0010
0001
1000
0000
0000
1000
0010
,  // measure 10
0010
0100
0001
0000
1000
0000
0200
0000
,  // measure 11
1300
0001
0100
0010
0000
0010
0100
0002
,  // measure 12
0000
1003
0001
0010
0100
0000
2000
0000
,  // measure 13
3001
0100
0001
1000
0000
0000
1000
0100
,  // measure 14
0100
0010
0001
0000
1000
0000
0010
0100
,  // measure 15
0002
0000
2003
0000
3100
1000
0001
0100
,  // measure 16
0020
0000
1030
0001
0010
0000
0200
0000
,  // measure 17
1300
0001
1000
0000
0010
0100
0010
0000
,  // measure 18
1000
0100
0010
0000
0100
0000
2000
0000
,  // measure 19
3001
0100
0001
0000
1000
0100
0010
0001
,  // measure 20
0000
0001
1000
0000
0010
0100
0002
0000
,  // measure 21
1003
0100
1000
0000
0001
0100
0010
0000
,  // measure 22
1000
0001
1000
0000
0100
0000
2000
0000
,  // measure 23
3001
0000
0100
0010
0000
0100
0001
0000
,  // measure 24
1000
0100
0000
0010
0100
0000
2000
0000
,  // measure 25
3001
0000
1000
0020
0000
0000
0230
0000
,  // measure 26
0000
0302
0000
0000
0023
0000
0230
0000
,  // measure 27
0320
0000
0000
0032
0000
0003
0002
0000
,  // measure 28
0103
0010
1000
0000
0001
0000
0100
0010
,  // measure 29
2000
0000
0000
3200
0000
0000
2300
0000
,  // measure 30
0000
3002
0000
0000
0203
0000
0302
0000
,  // measure 31
0023
0000
0000
0230
0000
0000
1300
0001
,  // measure 32
0000
1000
0010
0100
0001
0000
2000
0000
,  // measure 33
3001
0000
0010
0000
0100
0000
1000
0001
,  // measure 34
0100
0001
0010
0200
,  // measure 35
0310
0000
0001
0000
1000
0000
0010
0100
,  // measure 36
0000
0100
0001
0000
1000
0100
0020
0000
,  // measure 37
0031
0000
1000
0000
0010
0000
0100
0001
,  // measure 38
1000
0000
0100
0000
1000
0001
0100
0001
,  // measure 39
0020
0000
0000
0230
0000
0000
2300
0000
,  // measure 40
0000
3002
0000
0000
0103
0010
2000
0000
,  // measure 41
3001
0000
1000
0020
0000
0130
0002
0000
,  // measure 42
1003
0200
0000
0000
0320
0000
0032
0000
,  // measure 43
2003
0000
3010
0200
0000
0301
0200
0000
,  // measure 44
0001
0000
0001
0000
0001
0000
0301
1000
,  // measure 45
0200
0000
0310
0200
0000
1300
0002
0000
,  // measure 46
0103
0020
0000
0000
0230
0000
0320
0000
,  // measure 47
2030
0000
0000
3002
0000
0000
0023
0000
,  // measure 48
0130
1000
0001
1000
0010
0100
0002
0000
,  // measure 49
1003
0100
1000
0000
0010
0100
0001
0000
,  // measure 50
1000
0100
0010
0000
0100
1000
0001
0000
,  // measure 51
0100
0001
0100
0000
0010
1000
0001
0000
,  // measure 52
0010
0100
1000
0000
0010
0100
0002
0003
,  // measure 53
2001
0000
3000
2100
0000
3000
0012
0000
,  // measure 54
0003
2010
0000
3000
0120
0000
0000
4030
,  // measure 55
0000
0000
0000
0000
0000
0000
0000
3000
,  // measure 56
0000
0000
0000
0010
0000
0000
0000
0000
0102
0000
0000
0000
0000
0000
0000
0000
0000
0000
0000
0000
0000
0000
0000
0000
1003
0000
0000
0000
0000
0000
0000
0000
,  // measure 57
0400
0300
1000
0000
0010
0100
0001
1000
,  // measure 58
0000
0000
0100
1000
0100
0000
0010
0000
,  // measure 59
0004
0003
1001
0000
0001
0100
0010
2000
,  // measure 60
0000
3200
0000
2300
0000
3010
0100
0040
,  // measure 61
0030
1000
0001
0000
0010
0100
1000
0004
,  // measure 62
0003
0000
1000
0000
0010
0000
0000
0100
0000
0000
0001
0000
1000
0000
0100
0000
,  // measure 63
0020
0000
0031
2000
0000
3010
0200
0000
,  // measure 64
0301
1000
0000
0001
0010
0001
2000
0000
,  // measure 65
3010
0000
0400
0000
0000
0000
0301
4000
,  // measure 66
3000
0100
0010
0000
0100
1000
0001
0000
,  // measure 67
0400
0300
0101
0000
0001
1000
0100
0020
,  // measure 68
0000
0230
0000
2300
0000
3010
0100
0004
,  // measure 69
0003
1000
0400
0000
0000
0000
0310
0004
,  // measure 70
0003
1000
0020
0000
0130
0001
1000
0001
,  // measure 71
1000
0000
0100
2000
0000
3001
0200
0000
,  // measure 72
0000
0310
0100
0001
1000
0001
0100
0010
,  // measure 73
0000
2002
0000
0000
,  // measure 74
0000
0000
0000
3003
;
