#TITLE:Mango Beat;
#SUBTITLE:;
#ARTIST:Rawtek & Masayoshi Iimori;
#TITLETRANSLIT:;
#SUBTITLETRANSLIT:;
#ARTISTTRANSLIT:;
#GENRE:Jungle Trap;
#CREDIT:Feraligatr;
#BANNER:Mango Beat.png;
#BACKGROUND:Mango Beat-bg.png;
#LYRICSPATH:;
#CDTITLE:cdtitle.png;
#MUSIC:Mango Beat.ogg;
#OFFSET:0.008000;
#SAMPLESTART:27.684000;
#SAMPLELENGTH:16.615999;
#SELECTABLE:YES;
#DISPLAYBPM:130.000000;
#BPMS:0.000000=130.000000
;
#STOPS:
;
#BGCHANGES:;
#KEYSOUNDS:;
#ATTACKS:;

//---------------dance-single - Feraligatr----------------
#NOTES:
     dance-single:
     Feraligatr:
     Challenge:
     10:
     0.730952,0.874844,0.283333,0.133333,0.829167,564.000000,34.000000,16.000000,24.000000,0.000000,14.000000,0.730952,0.874844,0.283333,0.133333,0.829167,564.000000,34.000000,16.000000,24.000000,0.000000,14.000000:
0000
0000
0000
0000
,
0000
0000
0000
0000
,
0000
0000
0000
0000
,
0000
0000
0000
0000
,
0001
0000
0000
0000
0000
0000
0010
0000
0000
0000
0000
0000
0001
0000
0000
0000
0100
0000
0000
0000
1000
0000
0000
0000
0100
0000
0000
0000
0000
0010
0000
0000
,
1000
0000
0000
0000
0000
0000
0000
0000
0000
0001
0000
0000
0000
0000
0000
0000
0000
0000
1000
0000
0000
0000
0000
0000
0001
0000
0000
0000
0000
0000
0100
0000
0000
0000
0000
0000
0010
0000
0000
0000
0000
0000
1000
0000
0001
0000
1000
0000
,
0100
0000
0000
0000
0000
0000
0010
0000
0000
0000
0000
0000
0001
0000
0000
0000
1000
0000
0000
0000
0010
0000
0000
0000
0100
0000
0000
0000
0000
0001
0000
0000
,
1000
0000
0000
0100
0000
0000
0010
0000
0001
0000
0100
0000
0020
0000
0000
0000
,
1030
0001
0010
0100
0010
0001
1000
0010
,
0100
0000
0001
0000
1000
0000
0100
0000
1000
0000
0001
0000
0100
0000
0010
1000
,
0001
1000
0100
0010
0100
1000
0001
0100
,
0001
0000
1000
0000
0100
0000
0010
0000
0001
0000
1000
0000
0010
0000
0100
0001
,
1000
0100
0010
0100
1000
0001
0100
0010
0100
0001
1000
0100
1000
0001
0100
0010
,
1000
0001
0010
0100
1000
0001
0100
0010
1000
0100
1000
0001
0100
0010
1000
0100
,
0040
0004
0000
0000
0000
0000
0000
0000
0000
0000
0000
0000
0000
0000
0000
0000
0000
0000
0000
0000
0000
0000
0030
0000
1003
0000
0100
0000
1000
0000
0001
0000
,
0400
0000
0000
0000
0000
0000
0000
0000
0000
0000
0000
0000
0000
0000
0000
0000
0000
0000
0000
0000
0000
0000
0000
0000
0000
0000
0000
0000
0000
0000
0000
0000
0000
0000
0000
0000
0000
0000
0000
0000
0000
0000
0000
0000
0000
0000
0000
0000
0000
0000
0000
0000
0000
0000
0000
0000
0000
0000
0000
0000
0000
0000
0000
0000
0000
0000
0000
0000
0000
0000
0000
0000
0000
0000
0000
0000
0000
0000
0000
0000
0000
0000
0000
0000
0000
0000
0000
0000
0000
0000
0000
0000
0000
0000
0000
0000
0301
0000
0000
0000
0000
0000
0000
0000
0000
0000
0000
0000
0000
0000
0000
0000
0001
0000
0000
0000
0000
0000
0000
0000
0000
0000
0000
0000
0000
0000
0000
0000
0001
0000
0000
0000
0000
0000
0000
0000
0000
0000
0000
0000
0000
0000
0000
0000
1M01
0000
0000
0000
0000
0000
00M0
0000
0000
0000
0000
0000
0M00
0000
0000
0000
0000
0000
0000
0000
0000
0000
0000
0000
0000
0000
0000
0000
0000
0000
0000
0000
0000
0000
0000
0000
0000
0000
0000
0000
0000
0000
0000
0000
0000
0000
0000
0000
,
2100
0000
0000
3100
0010
0000
0011
0000
1000
0000
0010
0000
0010
0000
0000
0100
,
0001
0000
0000
0000
0000
0000
0000
0000
0000
1000
0000
0000
0001
0000
0000
0000
0000
0000
0101
0000
0000
0000
0000
0000
0100
0000
0000
0000
0000
0000
0110
0000
0000
0000
0000
0000
0010
0000
0000
0000
0000
0000
1000
0000
0001
0000
1000
0000
,
0002
0000
0000
0013
0001
0000
1001
0000
1000
0000
0100
0000
0100
0000
0000
0010
,
0001
0000
0000
0100
0000
0000
0010
0000
1010
0000
1000
0000
1001
0000
M00M
0000
,
0201
0000
0000
0301
1000
0000
1100
0000
0001
0000
0010
0000
0010
0000
0000
0100
,
1000
0000
0000
0000
0000
0000
0000
0000
0000
0001
0000
0000
1000
0000
0000
0000
0000
0000
1100
0000
0000
0000
0000
0000
0100
0000
0000
0000
0000
0000
0110
0000
0000
0000
0000
0000
0010
0000
0000
0000
0000
0000
0001
0000
1000
0000
0001
0000
,
2000
0000
0000
3010
1000
0000
1001
0000
0001
0000
0010
0000
0010
0000
0000
0100
,
1000
0000
0000
0010
0000
0000
0100
0000
0101
0000
1000
0000
02M0
0000
0310
0001
,
2000
0000
0000
3010
0100
0000
0101
0000
1000
0000
0001
0000
0001
0000
0000
0010
,
0100
0000
0000
0000
0000
0000
0000
0000
0000
1000
0000
0000
0001
0000
0000
0000
0000
0000
0101
0000
0000
0000
0000
0000
0100
0000
0000
0000
0000
0000
0110
0000
0000
0000
0000
0000
0010
0000
0000
0000
0000
0000
1000
0000
0001
0000
1000
0000
,
0002
0000
0000
0013
0100
0000
1100
0000
0001
0000
1000
0000
1000
0000
0000
0001
,
0100
0000
0000
0010
0000
0000
1000
0000
1001
0000
0001
0000
0011
0000
00MM
0000
,
1000
0100
1000
0001
0100
0010
0100
0001
1000
0100
1000
0001
0100
0010
1000
0001
,
0010
0000
0000
0100
0000
0000
1000
0000
0000
0001
0000
0000
0100
0000
0000
0010
0000
0000
1000
0000
0000
0100
0000
0000
1000
0000
0000
0001
0000
0000
0010
0000
0000
0100
0000
0000
0010
0000
0000
0001
0000
0000
1000
0000
0010
0000
1000
0000
,
0004
0400
0000
0000
0000
0000
0000
0000
0000
0000
0000
0000
0000
0000
0000
0000
0000
0000
0000
0000
0000
0000
0003
0000
0310
0000
1000
0000
0001
0000
0010
0000
,
0200
0000
0000
0000
0000
0000
0000
0000
0000
0000
0000
0000
0000
0000
0000
0000
0000
0000
0000
0000
0000
0000
0000
0000
0000
0000
0000
0000
0000
0000
0000
0000
0000
0000
0000
0000
1000
0000
0000
0000
0000
0000
0000
0000
0000
0000
0000
0000
0000
0000
0000
0000
0000
0000
0000
0000
0000
0000
0000
0000
0000
0000
0000
0000
0000
0000
0000
0000
0000
0000
0000
0000
0010
0000
0000
0000
0000
0000
0000
0000
0000
0000
0000
0000
0300
0000
0000
0000
0000
0000
0000
0000
0000
0000
0000
0000
M11M
0000
0000
0000
0000
0000
0000
0000
M000
0000
0000
0000
0000
0000
0000
0000
M000
0000
0000
0000
0000
0000
0000
0000
0000
0000
0000
0000
0000
0000
0000
0000
0000
0000
0000
0000
000M
0000
0000
0000
0000
0000
0000
0000
0000
0000
0000
0000
0000
0000
0000
0000
0000
0000
0000
0000
0000
0000
0000
0000
0000
0000
0000
0000
0000
0000
0000
0000
0000
0000
0000
0000
000M
0000
0000
0000
0000
0000
0100
0000
0000
0000
0000
0000
0000
0000
0000
0000
0000
0000
0000
0000
0000
0000
0000
0000
,
1100
0000
0000
0000
0000
0000
0000
0000
0000
1000
0000
0000
0000
0000
0000
0000
0000
0000
0001
0000
0000
0000
0000
0000
0100
0000
0000
0000
0000
0000
1000
0000
0000
0000
0000
0000
0100
0000
0000
0000
0100
0000
0000
0000
0100
0000
0000
0000
,
0010
0000
0000
1000
0000
0000
0001
0000
1000
0100
1000
0001
1000
0010
1000
0001
,
1000
0000
0000
0000
0000
0000
0000
0000
0000
0100
0000
0000
0000
0000
0000
0000
0000
0000
0010
0000
0000
0000
0000
0000
0001
0000
0000
0000
0000
0000
1000
0000
0000
0000
0000
0000
0010
0000
0000
0000
0010
0000
0000
0000
0010
0000
0000
0000
,
0100
0000
0000
0001
0000
0000
1000
0000
0001
0100
0001
1000
0001
0010
0001
1000
,
0001
0000
0000
0000
0000
0000
0000
0000
0000
0100
0000
0000
0000
0000
0000
0000
0000
0000
0001
0000
0000
0000
0000
0000
0010
0000
0000
0000
0000
0000
1000
0000
0000
0000
0000
0000
0010
0000
0000
0000
0010
0000
0000
0000
0010
0000
0000
0000
,
0100
0000
0000
1000
0000
0000
0001
0000
1000
0010
1000
0001
1000
0100
1000
0001
,
1000
0000
0000
0000
0000
0000
0000
0000
0000
0010
0000
0000
0000
0000
0000
0000
0000
0000
0100
0000
0000
0000
0000
0000
0001
0000
0000
0000
0000
0000
1000
0000
0000
0000
0000
0000
0100
0000
0000
0000
0100
0000
0000
0000
0100
0000
0000
0000
,
0010
0000
0000
0001
0000
0000
1000
0000
0010
0000
1000
0000
0002
0000
0000
0000
,
1003
0001
0010
0100
1000
0001
0100
0010
,
1000
0000
0001
0000
0010
0000
0001
0000
1000
0000
0010
0000
0100
0000
0001
1000
,
0100
0010
0100
1000
0001
0100
0010
1000
,
0001
0000
0010
0000
0100
0000
1000
0000
0001
0000
0100
0000
0010
0000
1000
0001
,
0010
0100
0010
0001
1000
0010
0100
0010
1000
0001
0010
0001
1000
0010
0100
0001
,
1000
0100
1000
0010
0100
0001
1000
0100
0010
0001
0100
0010
1000
0001
0010
0100
,
4000
0004
0000
0000
0000
0000
0000
0000
0000
0000
0000
0000
0000
0000
0000
0000
0000
0000
0000
0000
0000
0000
3000
0000
0103
0000
0010
0000
0100
0000
0001
0000
,
1000
0000
0000
0000
0000
0000
0400
0000
0000
0300
0000
0000
0010
0000
0000
0000
0000
0000
0004
0000
0000
0003
0000
0000
1M00
0000
0000
0000
1000
0000
0000
0000
1000
00M0
0000
0000
1001
0000
0000
0000
0000
0000
0000
0000
0000
0000
0000
0000
,
0001
1000
0001
0000
0000
0000
0100
0000
0001
0000
0000
0000
1000
0000
0000
0000
0100
0000
0000
0000
0011
0000
0000
0000
0010
0000
0001
0000
1000
0000
0001
0000
,
0200
0000
0000
0310
1000
0000
0001
0000
0010
0000
1100
0000
0001
0100
0010
0100
,
0001
1000
0001
0000
0000
0000
0010
0000
0001
0000
0000
0000
1000
0000
0000
0000
0010
0000
0000
0000
0101
0000
0000
0000
0001
0000
M010
0000
0000
0000
001M
0000
,
2000
0000
0000
3001
0100
0000
0010
0000
1000
0000
0400
0300
0010
0001
1000
0100
,
1000
0001
1000
0000
0000
0000
0001
0000
0100
0000
0000
0000
0010
0000
0000
0000
1000
0000
0000
0000
0101
0000
0000
0000
0001
0000
0010
0000
0001
0000
1000
0000
,
0200
0000
0000
0310
0001
0000
1000
0000
0010
0000
0101
0000
1000
0100
0010
0100
,
1000
0001
1000
0000
0000
0000
0001
0000
0010
0000
0000
0000
0100
0000
0000
0000
1000
0000
0000
0000
0011
0000
0000
0000
0001
0000
M100
0000
0000
0000
010M
0000
,
2000
0000
0000
3001
0100
0000
0010
0000
1000
0000
0001
0000
0010
0000
0010
0100
,
0010
0001
0010
0000
0000
0000
0100
0000
1000
0000
0000
0000
0001
0000
0000
0000
0100
0000
0000
0000
1010
0000
0000
0000
1100
0000
0000
0000
0000
0000
0100
0000
,
0040
0000
0030
0001
1000
0000
0001
0000
0100
0000
1010
0000
0011
0000
0000
0001
,
1000
0100
1000
0000
0000
0000
0001
0000
1000
0000
0000
0000
0001
0000
0000
0000
0100
0000
0000
0000
1010
0000
0000
0000
1000
0000
010M
0000
0000
0000
M100
0000
,
0004
0000
0003
0010
0100
0000
1000
0000
0001
0000
0100
0000
0020
0000
1030
0001
,
1000
0001
0010
0100
0010
0001
1000
0010
0100
0001
1000
0100
0010
0100
1000
0001
,
0100
0010
0100
0001
1000
0100
0010
0100
1000
0010
0100
0001
0010
0001
1000
0010
,
0400
0004
0000
0000
0000
0000
0000
0000
0000
0000
0000
0000
0000
0000
0000
0000
0000
0000
0000
0000
0000
0000
0300
0000
1003
0000
001M
0000
0000
0000
M010
0000
,
0002
0000
0000
1003
0000
0000
0100
0000
0010
0000
0001
0000
0000
0000
0000
0000
;

//---------------dance-single - Feraligatr----------------
#NOTES:
     dance-single:
     :
     Hard:
     8:
     0.453571,0.424167,0.033333,0.008333,0.270833,376.000000,4.000000,1.000000,10.000000,0.000000,3.000000,0.453571,0.424167,0.033333,0.008333,0.270833,376.000000,4.000000,1.000000,10.000000,0.000000,3.000000:
0000
0000
0000
0000
,
0000
0000
0000
0000
,
0000
0000
0000
0000
,
0000
0000
0000
0000
,
1000
0000
0000
0010
0000
0000
0100
0000
0000
0000
0001
0000
1000
0000
0000
0000
,
0100
0000
0000
0010
0000
0000
0001
0000
0000
0000
1000
0000
0010
0000
0000
0000
,
0100
0000
0000
0001
0000
0000
1000
0000
0000
0000
0100
0000
0010
0000
0000
0000
,
0001
0000
0000
1000
0000
0000
0010
0000
0000
0000
0000
0000
0000
0000
0000
0000
,
1000
0100
0010
0001
1000
0010
0100
0010
,
1000
0001
0010
0100
1000
0001
0100
0010
,
0100
0001
1000
0100
0010
0001
1000
0010
,
0100
0001
1000
0100
1000
0001
0100
0010
,
1000
0000
0000
0100
0000
0000
0010
0000
0010
0000
0000
0001
0000
0000
1000
0000
,
1000
0000
0000
0010
0000
0000
0100
0000
0100
0000
0000
0001
0000
0000
1000
0000
,
1000
0000
0100
0000
0010
0000
0001
0000
1000
0000
0010
0000
0100
0001
0100
0001
,
1000
0000
0000
0000
0000
0000
000M
M000
000M
M000
0000
0000
,
0101
0000
0000
1000
0000
0000
1000
0000
0100
0000
0010
0000
0010
0000
0000
0000
,
0001
0000
0000
0100
0000
0000
0100
0000
0010
0000
0100
0000
0001
0000
1000
0001
,
1000
0000
0000
0100
0000
0000
0100
0000
0010
0000
0001
0000
0001
0000
0000
0000
,
1000
0000
0000
0010
0000
0000
0100
0000
0001
0000
1000
0000
0001
0000
0M00
0000
,
1001
0000
0000
1000
0000
0000
1000
0000
0001
0000
0100
0000
0100
0000
0000
0000
,
0010
0000
0000
1000
0000
0000
1000
0000
0001
0000
0010
0000
0001
0000
1000
0100
,
1000
0000
0000
0001
0000
0000
0001
0000
0100
0000
0010
0000
0010
0000
0000
0000
,
1000
0000
0000
0100
0000
0000
0010
0000
0001
0000
1000
0000
0000
0000
0001
1000
,
0100
0000
0000
0010
0000
0000
0010
0000
0001
0000
1000
0000
1000
0000
0000
0000
,
0001
0000
0000
0100
0000
0000
0100
0000
0010
0000
1000
0000
0001
0000
1000
0001
,
1000
0000
0000
0100
0000
0000
0100
0000
0010
0000
0001
0000
0001
0000
0000
0000
,
1000
0000
0000
0010
0000
0000
0100
0000
0010
0000
1000
0000
0001
0000
00M0
0000
,
1000
0100
1000
0001
0100
0010
0100
0001
,
1000
0100
0010
0001
1000
0010
0100
0001
,
1000
0010
0100
0001
1000
0100
0100
0000
,
0020
0000
0000
0000
0000
0000
0000
0030
0011
0000
0000
0000
0000
0000
0000
0000
,
0001
0000
0000
0010
0000
0000
0100
0000
0000
0000
1000
0000
0001
0000
0000
0000
,
0100
0000
0000
0010
0000
0000
1000
0000
0000
0000
0001
0000
0010
0000
0000
0000
,
0100
0000
0000
1000
0000
0000
0001
0000
0000
0000
0100
0000
0010
0000
0000
0000
,
1000
0000
0000
0001
0000
0000
0010
0000
0000
0000
0100
0000
1000
0000
0000
0000
,
0001
0000
0000
1000
0000
0000
0010
0000
0000
0000
0100
0000
0001
0000
0000
0000
,
1000
0000
0000
0100
0000
0000
0010
0000
0000
0000
0100
0000
1000
0000
0000
0000
,
0001
0000
0000
0100
0000
0000
0010
0000
0000
0000
1000
0000
0001
0000
0000
0000
,
0010
0000
0000
0100
0000
0000
1000
0000
0000
0000
0001
0000
0000
0000
0000
0000
,
1000
0010
0100
0010
1000
0001
0010
0100
,
0010
0001
1000
0010
0100
0001
1000
0100
,
0010
0100
1000
0001
0100
0010
1000
0001
,
0010
0001
1000
0010
0100
0001
1000
0100
,
0010
0000
0000
0001
0000
0000
1000
0000
1000
0000
0000
0010
0000
0000
0100
0000
,
0100
0000
0000
0001
0000
0000
1000
0000
1000
0000
0000
0100
0000
0000
0010
0000
,
0010
0000
0100
0000
0010
0000
0001
0000
1000
0000
0001
0000
1000
0100
1000
0100
,
0010
0000
0000
0000
0000
0000
0004
0000
0000
0003
0000
0000
0000
0000
0000
0000
0000
0000
4000
0000
0000
3000
0000
0000
00M0
0000
0000
0000
0M00
0000
0000
0000
00M0
0000
0000
0000
0M00
0000
0000
0000
0000
0000
0000
0000
0000
0000
0000
0000
,
1001
0000
0000
0001
0000
0000
0100
0000
0000
0000
1000
0000
0100
0000
0000
0000
,
0010
0000
0000
1000
0000
0000
0001
0000
0000
0000
0010
0000
0100
0000
0000
0000
,
1000
0000
0000
0001
0000
0000
0100
0000
0000
0000
0010
0000
1000
0001
0000
0001
,
1000
0000
0000
0100
0000
0000
0010
0000
0000
0000
0004
0003
0000
0000
0001
1000
,
0001
0000
0000
1000
0000
0000
0010
0000
0000
0000
0001
0000
0010
0000
0000
0000
,
0100
0000
0000
0001
0000
0000
1000
0000
0000
0000
0100
0000
0010
0000
0000
0000
,
0001
0000
0000
1000
0000
0000
0010
0000
0000
0000
0100
0000
0001
1000
0000
1000
,
0001
0000
0000
0010
0000
0000
0100
0000
0000
0000
1000
0000
0001
0000
0001
0000
,
1000
0000
0000
0001
0000
0000
0010
0000
0100
0000
0001
0000
0100
0000
0010
0000
,
0001
0000
0000
1000
0000
0000
0010
0000
0100
0000
0001
0000
1000
0000
0100
0000
,
0010
0000
0000
0001
0000
0000
1000
0000
0010
0000
0100
0000
0001
1000
0000
1000
,
0001
0000
0000
0010
0000
0000
0100
0000
1000
0000
0001
0000
0000
0000
1000
0100
,
1000
0001
0100
0010
0100
0001
1000
0100
,
0010
0001
1000
0010
0100
0010
1000
0001
,
0010
0100
1000
0001
0100
0010
1000
0001
,
0010
0000
0000
0100
0000
0000
1000
0000
0000
0000
0001
0000
0000
0000
0000
0000
;

//---------------dance-single - Feraligatr----------------
#NOTES:
     dance-single:
     :
     Medium:
     5:
     0.327381,0.318125,0.150000,0.016667,0.000000,255.000000,18.000000,2.000000,0.000000,0.000000,0.000000,0.327381,0.318125,0.150000,0.016667,0.000000,255.000000,18.000000,2.000000,0.000000,0.000000,0.000000:
0000
0000
0000
0000
,
0000
0000
0000
0000
,
0000
0000
0000
0000
,
0000
0000
0000
0000
,
1100
0000
0001
1001
,
0000
1001
1000
0000
,
1010
0000
0001
0101
,
0000
0101
1000
0000
,
0001
0010
0100
1000
,
0001
0100
0010
0100
,
0001
1000
0100
0010
,
0001
1000
0010
0100
,
0001
0001
0010
0010
,
0100
0100
1000
1000
,
0001
1000
0001
1000
0001
1000
0001
1000
,
0001
0000
0000
0000
,
1001
0000
0001
0000
1000
0100
0100
0000
,
0010
0000
0001
1000
0000
1000
0000
1000
,
0010
0000
0100
0000
0010
1000
1000
0000
,
0001
0010
0110
0110
,
1100
0000
1000
0000
0001
0100
0100
0000
,
0010
0000
1000
0001
0000
0001
0000
0001
,
0010
0000
0100
0000
1000
0001
0001
0000
,
0100
0000
0010
0000
1000
0000
0002
0003
,
1001
0000
1000
0000
0001
0010
0010
0000
,
0100
0000
1000
0001
0000
0001
0000
0001
,
0100
0000
0010
0000
0100
0001
0001
0000
,
1000
0100
0110
0110
,
0011
0001
1000
1000
,
0010
0010
0100
0100
,
0001
1000
0001
1000
0001
1000
0001
1000
,
0020
0000
0000
0000
0000
0000
0000
0030
0110
0000
0000
0000
0000
0000
0000
0000
,
0001
1000
0100
0010
,
0100
1000
0001
0100
,
0010
0100
0001
1000
,
0100
0010
0001
1000
,
0010
0100
0001
1000
,
0100
1000
0100
0010
,
0001
1000
0010
0100
,
0001
0000
1000
0000
0100
0010
0000
0000
,
0001
1000
0010
0100
,
0010
1000
0001
0010
,
0100
1000
0001
0100
,
0010
1000
0001
0010
,
0100
0100
1000
1000
,
0001
0001
0100
0100
,
0001
1000
0001
1000
0001
1000
0001
1000
,
0001
0100
0000
0010
0000
0000
0000
0000
,
1001
0000
0000
0000
1000
0100
0100
0000
,
0010
0000
0001
0000
1000
0010
0010
0000
,
0100
0000
0000
0000
0001
1000
1000
0000
,
0100
0000
0010
0000
0001
1000
0000
0000
,
1001
0000
0000
0000
1000
0010
0010
0000
,
0100
0000
0001
0000
1000
0100
0100
0000
,
0010
0000
0000
0000
0001
1000
1000
0000
,
0010
0000
0100
0000
0001
1000
0000
0000
,
1100
0000
0000
0000
0001
1000
0010
0000
,
0100
0000
0001
0000
1000
0100
0010
0000
,
0001
0000
0000
0000
1000
0010
0100
0000
,
0010
0000
1000
0000
0001
0010
0000
0000
,
0100
0100
1000
1000
,
0001
0001
0100
0100
,
0001
1000
0001
1000
0001
1000
0001
1000
,
0001
0000
0000
0000
0010
0100
0000
0000
;

//---------------dance-single - Feraligatr----------------
#NOTES:
     dance-single:
     :
     Easy:
     4:
     0.228571,0.238594,0.050000,0.008333,0.000000,185.000000,6.000000,1.000000,0.000000,0.000000,0.000000,0.228571,0.238594,0.050000,0.008333,0.000000,185.000000,6.000000,1.000000,0.000000,0.000000,0.000000:
// measure 0
0000
0000
0000
0000
,  // measure 1
0000
0000
0000
0000
,  // measure 2
0000
0000
0000
0000
,  // measure 3
0000
0000
0000
0000
,  // measure 4
1100
0000
0001
0000
,  // measure 5
1000
0000
0010
0000
,  // measure 6
0100
0000
0001
0000
,  // measure 7
1000
0000
0100
0000
,  // measure 8
0010
0001
0010
0000
,  // measure 9
0001
1000
0001
0000
,  // measure 10
1000
0010
1000
0000
,  // measure 11
0001
0100
0001
0000
,  // measure 12
1000
1000
1000
1000
,  // measure 13
0100
0100
0100
0100
,  // measure 14
0010
0010
0010
0010
,  // measure 15
0001
0000
0000
0000
,  // measure 16
1001
1000
0001
0100
,  // measure 17
0010
0100
0001
1000
,  // measure 18
0100
1000
0001
0100
,  // measure 19
0010
1000
0001
0010
,  // measure 20
0100
0010
0001
1000
,  // measure 21
0010
0100
0001
1000
,  // measure 22
0100
1000
0001
0100
,  // measure 23
0010
1000
0001
0010
,  // measure 24
1001
0001
1000
0010
,  // measure 25
0100
0010
1000
0001
,  // measure 26
0010
0001
1000
0010
,  // measure 27
0100
0001
1000
0100
,  // measure 28
0010
0010
0010
0010
,  // measure 29
0001
0001
0001
0001
,  // measure 30
1000
1000
1000
1000
,  // measure 31
0020
0000
0130
0000
,  // measure 32
0001
0000
1000
0000
,  // measure 33
0100
0000
0010
0000
,  // measure 34
0100
0000
1000
0000
,  // measure 35
0001
0000
0100
0000
,  // measure 36
0010
0000
0100
0000
,  // measure 37
0001
0000
1000
0000
,  // measure 38
0100
0000
0010
0000
,  // measure 39
0100
0000
1000
0000
,  // measure 40
0001
1000
0001
0000
,  // measure 41
1000
0100
1000
0000
,  // measure 42
0001
0100
0001
0000
,  // measure 43
1000
0001
0010
0000
,  // measure 44
0100
0100
0100
0100
,  // measure 45
1000
1000
1000
1000
,  // measure 46
0001
0001
0001
0001
,  // measure 47
0100
0000
0000
0000
,  // measure 48
1001
0000
0000
0000
0000
0001
1000
0000
,  // measure 49
0010
0000
0000
0000
0000
0100
0010
0000
,  // measure 50
1000
0000
0000
0000
0000
0001
1000
0000
,  // measure 51
0100
0000
0010
0000
,  // measure 52
1001
0000
0000
0000
0000
1000
0001
0000
,  // measure 53
0010
0000
0000
0000
0000
0100
0010
0000
,  // measure 54
0001
0000
0000
0000
0000
1000
0001
0000
,  // measure 55
0100
0000
0010
0000
,  // measure 56
1010
0000
0000
0000
0000
1000
1000
0000
,  // measure 57
0001
0000
0000
0000
0000
0010
0010
0000
,  // measure 58
0100
0000
0000
0000
0000
1000
1000
0000
,  // measure 59
0001
0000
0000
0000
0100
0010
0000
0000
,  // measure 60
1000
1000
1000
1000
,  // measure 61
0100
0100
0100
0100
,  // measure 62
0010
0010
0010
0010
,  // measure 63
0001
0000
0000
0000
1000
0001
0000
0000
;

//---------------dance-single - Feraligatr----------------
#NOTES:
     dance-single:
     :
     Beginner:
     1:
     0.115476,0.132552,0.050000,0.016667,0.000000,89.000000,6.000000,2.000000,0.000000,0.000000,0.000000,0.115476,0.132552,0.050000,0.016667,0.000000,89.000000,6.000000,2.000000,0.000000,0.000000,0.000000:
// measure 0
0000
0000
0000
0000
,  // measure 1
0000
0000
0000
0000
,  // measure 2
0000
0000
0000
0000
,  // measure 3
0000
0000
0000
0000
,  // measure 4
1001
0000
0000
0000
,  // measure 5
1000
0000
0000
0000
,  // measure 6
0100
0000
0000
0000
,  // measure 7
0010
0000
0000
0000
,  // measure 8
0100
0000
0000
0000
,  // measure 9
1000
0000
0000
0000
,  // measure 10
0001
0000
0000
0000
,  // measure 11
0100
0000
0000
0000
,  // measure 12
0010
0000
0010
0000
,  // measure 13
0100
0000
0100
0000
,  // measure 14
0001
0000
0001
0000
,  // measure 15
1000
0000
0000
0000
,  // measure 16
1001
0000
1000
0000
,  // measure 17
0001
0000
0100
0000
,  // measure 18
0010
0000
0100
0000
,  // measure 19
0001
0000
1000
0000
,  // measure 20
0100
0000
0010
0000
,  // measure 21
0100
0000
1000
0000
,  // measure 22
0001
0000
0100
0000
,  // measure 23
0010
0000
1000
0000
,  // measure 24
1001
0000
0001
0000
,  // measure 25
1000
0000
0010
0000
,  // measure 26
0100
0000
0010
0000
,  // measure 27
1000
0000
0001
0000
,  // measure 28
0010
0000
0010
0000
,  // measure 29
0100
0000
0100
0000
,  // measure 30
1000
0000
1000
0000
,  // measure 31
0002
0000
1003
0000
,  // measure 32
0001
0000
0000
0000
,  // measure 33
0100
0000
0000
0000
,  // measure 34
0010
0000
0000
0000
,  // measure 35
0100
0000
0000
0000
,  // measure 36
0001
0000
0000
0000
,  // measure 37
1000
0000
0000
0000
,  // measure 38
0100
0000
0000
0000
,  // measure 39
0010
0000
0000
0000
,  // measure 40
0001
0000
0000
0000
,  // measure 41
0100
0000
0000
0000
,  // measure 42
0010
0000
0000
0000
,  // measure 43
0100
0000
0000
0000
,  // measure 44
0001
0000
0001
0000
,  // measure 45
1000
0000
1000
0000
,  // measure 46
0100
0000
0100
0000
,  // measure 47
0010
0000
0000
0000
,  // measure 48
1001
0000
1000
0000
,  // measure 49
0000
0000
0010
0000
,  // measure 50
0000
0000
0100
0000
,  // measure 51
0000
0000
0001
0000
,  // measure 52
1001
0000
1000
0000
,  // measure 53
0000
0000
0100
0000
,  // measure 54
0000
0000
0010
0000
,  // measure 55
0000
0000
0100
0000
,  // measure 56
1001
0000
1000
0000
,  // measure 57
0000
0000
0001
0000
,  // measure 58
0000
0000
0100
0000
,  // measure 59
0000
0000
0010
0000
,  // measure 60
1000
0000
1000
0000
,  // measure 61
0100
0000
0100
0000
,  // measure 62
0010
0000
0010
0000
,  // measure 63
0002
0000
0000
0000
1000
0003
0000
0000
;
