#TITLE:Limbo;
#SUBTITLE:;
#ARTIST:Nitti Gritti & Adair;
#TITLETRANSLIT:;
#SUBTITLETRANSLIT:;
#ARTISTTRANSLIT:;
#GENRE:Trap;
#CREDIT:Feraligatr;
#BANNER:Limbo.png;
#BACKGROUND:Limbo-bg.png;
#LYRICSPATH:;
#CDTITLE:cdtitle.png;
#MUSIC:Limbo.ogg;
#OFFSET:0.009000;
#SAMPLESTART:55.991001;
#SAMPLELENGTH:14.400000;
#SELECTABLE:YES;
#DISPLAYBPM:150.000000;
#BPMS:0.000000=150.000000
,157.000000=75.000000
,158.000000=150.000000
;
#STOPS:140.000000=1.200000
;
#BGCHANGES:;
#KEYSOUNDS:;
#ATTACKS:;

//---------------dance-single - Feraligatr----------------
#NOTES:
     dance-single:
     Feraligatr:
     Challenge:
     12:
     1.000000,1.000000,0.425197,0.700787,1.000000,748.000000,54.000000,89.000000,37.000000,25.000000,1.000000,1.000000,1.000000,0.425197,0.700787,1.000000,748.000000,54.000000,89.000000,37.000000,25.000000,1.000000:
// measure 0
0000
0000
0000
0000
,  // measure 1
0000
0000
0000
0000
,  // measure 2
0000
0000
0000
0000
,  // measure 3
0000
0000
0000
0000
0000
0000
0000
0000
0000
0000
0000
0000
1000
0000
0000
0001
0100
0001
0100
0000
0000
0010
0000
0000
,  // measure 4
2010
0000
0000
3001
1000
0100
1000
0001
0100
0000
0000
0010
1000
0000
0010
0000
,  // measure 5
0200
0000
0000
0301
1000
0001
0010
0100
0020
0000
0032
1003
0020
0000
0130
0000
,  // measure 6
0002
0000
0000
1003
0001
0100
0001
1000
0100
0000
0000
0010
0200
0000
1300
0000
,  // measure 7
0002
0000
0203
0310
1000
0000
1000
0001
0010
0000
0001
1000
0010
0000
0100
0000
,  // measure 8
0102
0000
0000
1003
0001
0010
0001
1000
0010
0000
0000
1000
0001
0000
0010
0000
,  // measure 9
0200
0000
0000
1300
0001
0100
0001
1000
0200
0000
2300
3001
0200
0000
0310
0000
,  // measure 10
2000
0000
0000
3001
0100
0001
1000
0100
0010
0000
0000
0001
2000
0000
3010
0000
,  // measure 11
0200
0000
0000
0000
0000
0000
0302
0000
0000
1003
0000
0000
0100
0000
0000
0000
0000
0000
0100
0000
0000
0010
0000
0000
0001
0000
0000
0000
0000
0000
1000
0000
0001
0000
1000
0000
0001
0000
0000
0000
0000
0000
0100
0000
0000
0000
0000
0000
,  // measure 12
0101
0000
0000
0000
0000
0000
1000
0000
0000
0001
0000
0000
0010
0000
0000
0001
1000
0001
0100
0000
0000
0010
0000
0000
,  // measure 13
2000
0000
0000
0000
3001
0000
1000
0000
0001
0000
0100
010M
1000
0000
0100
0000
,  // measure 14
0001
0000
0100
0000
1000
0000
0100
0000
0100
0000
0100
0010
0001
0000
1000
0000
,  // measure 15
0020
0000
0000
0000
1030
0000
0010
0000
0100
0000
0001
0000
0020
0000
0100
0030
,  // measure 16
1200
0000
0000
0000
0000
0000
0310
0000
0000
0001
0000
0000
1000
0000
0000
0001
1000
0001
0100
0000
0000
0010
0000
0000
,  // measure 17
2000
0000
0000
0000
3100
0000
1000
0000
0001
0000
0100
010M
1000
0000
0010
0000
,  // measure 18
0001
0000
0010
0000
1000
0000
0010
0000
0010
0000
0010
1000
0001
0000
1000
0000
,  // measure 19
0200
0000
0000
1300
0001
0000
0100
0000
0101
0000
1000
0000
0200
0000
0000
0300
,  // measure 20
2120
3M31
000M
2120
3M31
0000
1000
0010
,  // measure 21
2210
33M1
000M
2210
33M1
1000
0001
0010
,  // measure 22
0212
13M3
M000
0212
13M3
0000
0001
0100
,  // measure 23
1020
0000
0000
0000
0000
0000
0230
0000
0000
0010
0000
0000
0301
0000
0000
1000
0001
0010
0100
0000
0000
0010
0000
0000
,  // measure 24
0212
0000
13M3
0000
1000
0000
M212
0000
13M3
0000
1000
0001
0100
0000
0010
0000
,  // measure 25
2210
0000
33M1
0000
0001
0000
221M
0000
33M1
0000
0001
1000
0100
0000
0010
0000
,  // measure 26
0212
0000
13M3
0000
1000
0000
M212
0000
13M3
0000
1000
0001
0100
0000
0010
0000
,  // measure 27
4010
0000
0000
0000
0000
0000
0000
0000
0000
0000
0000
0000
3001
0000
0000
1000
0001
1000
0001
0000
0000
0010
0000
0000
,  // measure 28
1100
1000
0001
0100
0010
1000
1000
1000
,  // measure 29
0100
0010
0100
1000
0001
0100
0100
0100
,  // measure 30
0010
0000
1000
0000
0001
0000
0010
0000
0100
0000
1000
0001
0100
0010
0100
0001
,  // measure 31
1000
0000
0000
0000
0100
0000
0000
0000
0010
0000
0000
0000
0100
0000
0000
0000
1000
0000
0000
0000
0001
0000
0000
0000
0001
0000
0100
0000
0001
1000
0001
1000
,  // measure 32
0100
0000
1000
0000
0001
0000
1000
0000
0001
0000
0010
0000
0100
0000
1000
0001
1000
0000
0010
0000
1000
0000
0001
0000
0010
0000
0100
0000
1000
0000
0001
1000
,  // measure 33
0001
0000
0100
0000
0010
0000
1000
0000
0001
0000
0010
0000
0001
0000
1000
0001
1000
0000
0010
0000
0100
0000
0010
0000
1000
0000
0001
0000
0010
0000
0001
0000
,  // measure 34
1000
0010
0100
0001
1000
0001
1000
0100
0010
0001
0010
0100
1000
0001
1000
0010
0100
0001
1000
0001
1000
0100
0010
0100
,  // measure 35
100M
0000
0000
0000
0000
0000
0000
0000
2100
0000
0000
0000
0000
0000
0000
0000
3001
0000
1000
0001
0100
0000
0010
0000
0000
0000
1000
0000
0001
0000
0010
0000
,  // measure 36
0000
0000
0100
0000
1000
0000
0001
0000
0000
0000
0000
0000
0100
0010
1000
0000
0000
0000
0001
0000
1000
0000
0100
0000
0000
0000
0010
0000
0001
0000
1000
0000
,  // measure 37
0001
0000
0100
0000
010M
0000
1000
0000
0010
0000
0100
0001
1000
0000
0001
0000
0000
0000
1000
0000
0100
0000
0010
0000
0000
0000
0100
0000
0010
0000
0001
0000
,  // measure 38
0000
1000
0010
0100
0000
0001
1000
0100
0000
0010
0100
1000
0000
0001
1000
0010
,  // measure 39
1000
0100
0010
0001
2MM1
0000
0000
0000
31MM
1000
0001
0100
0000
0010
0100
0001
,  // measure 40
0000
0000
0000
0000
1000
0001
0010
0000
0000
0000
0100
0000
1000
0000
0001
0000
0000
0000
0100
0000
0001
0000
1000
0000
0001
0000
0010
0000
001M
0000
1000
0000
,  // measure 41
0001
0000
1000
0100
0010
0000
0001
0000
0000
0000
1000
0000
0001
0000
0100
0000
0000
0000
0001
0000
0100
0000
0000
0000
0001
0000
1000
0000
0001
0000
0010
0000
,  // measure 42
0001
0000
0100
0001
1000
0000
0100
0010
0001
0000
1000
0001
0100
0010
0100
0001
,  // measure 43
1002
0000
0000
0000
0013
0000
0001
0000
1000
0100
0000
M100
0001
0000
1000
0000
,  // measure 44
0001
0000
0000
0000
1000
0100
1000
0000
0001
0000
0000
0000
1000
0000
0000
0000
0001
0000
0100
0000
0000
0000
010M
0000
1000
0000
0100
0000
M100
0000
0001
0000
,  // measure 45
1000
0000
0001
0000
1000
0000
0010
0000
1000
0100
0000
M100
0001
0000
1000
0000
,  // measure 46
0100
0000
0000
0000
1000
0001
1000
0000
0000
0000
0010
0000
1000
0000
0001
0000
1000
0000
0010
0000
0000
0000
M010
0000
0001
0000
0100
0000
0010
0000
1000
0000
,  // measure 47
1002
0000
0000
0000
0013
0100
1000
0001
0000
0100
0010
1000
0000
0001
0010
0100
,  // measure 48
0000
0000
0000
0000
1000
0001
0100
0000
0000
0000
0010
0000
1000
0000
0001
0000
0000
0000
0010
0000
0001
0000
1000
0000
0001
0000
0100
0000
010M
0000
1000
0000
,  // measure 49
0001
0000
1000
0100
1000
0000
0001
0000
0000
0000
0100
0000
0001
0000
1000
0000
0000
0000
0001
0000
1000
0000
0010
0000
0000
0000
1000
0000
0001
0000
0010
0000
,  // measure 50
0100
0110
0111
MMMM
,  // measure 51
2001
0000
0000
0000
0000
0000
0000
0000
3001
0010
0001
0010
0001
0000
0000
0000
0001
0000
0000
0000
0001
0000
0000
0000
0001
0000
0100
0000
0010
0000
1000
0000
,  // measure 52
0100
0010
0100
1000
0010
0100
0001
1000
1002
0000
0003
0000
0021
0000
0000
0030
,  // measure 53
0210
0000
0000
0000
0000
0000
0000
0000
1300
0001
1000
0001
1000
0000
0000
0000
1010
0000
0000
0000
0010
0000
0000
0000
0100
0000
0000
0000
0001
0000
0000
0000
,  // measure 54
0001
0000
0000
0000
0001
0000
0000
0000
1000
0000
0000
0000
0100
0000
0000
0000
0110
0000
0000
0000
0100
1000
0100
1000
0100
0000
0010
0000
0100
0000
1000
0000
,  // measure 55
1002
0000
0000
0000
0000
0000
0003
0000
1000
0001
1000
0001
1000
0000
0000
0000
1100
0000
0000
0000
1000
0000
0000
0000
0001
0000
0010
0000
0100
0000
1000
0000
,  // measure 56
0010
0100
0010
1000
0100
0010
0001
1000
2001
0000
3000
0000
1020
0000
0000
0030
,  // measure 57
0210
0000
0000
0000
0000
0000
0000
0000
0301
1000
0001
1000
0001
0000
0000
0000
0101
0000
0000
0000
0100
0000
0000
0000
0001
0000
0000
0000
1000
0000
0000
0000
,  // measure 58
0100
0000
0000
1000
0001
0000
0010
0000
0100
0000
0010
0000
0001
0000
1000
0000
,  // measure 59
1020
0000
0000
0000
0000
0000
0000
0000
0130
0001
0100
0001
0100
0000
0000
0000
1020
0000
0000
0000
0000
0000
0000
0000
0130
0001
0100
0001
0100
0000
0000
0000
,  // measure 60
1000
0000
0100
0000
1000
0000
0100
0000
0110
0000
0010
0000
0012
0000
0000
0003
,  // measure 61
2001
0000
0000
0000
0000
0000
0000
0000
3001
1000
0001
1000
0001
0000
0000
0000
0101
0000
0000
0000
0001
0000
0000
0000
1000
0000
0000
0000
0010
0000
0000
0000
,  // measure 62
0100
0000
0000
0000
0100
0000
0000
0000
0001
0000
0000
0000
1000
0000
0000
0000
1100
0000
0000
0000
1000
0001
1000
0001
1000
0000
0010
0000
0100
0000
0001
0000
,  // measure 63
2001
0000
0000
0000
0000
0000
0000
0000
0000
0000
0000
0000
0000
0000
0000
0000
0000
0000
0000
0000
0000
0000
0000
0000
0000
0000
0000
0000
0000
0000
0000
0000
0000
0000
0000
0000
0000
0000
0000
0000
0000
0000
0000
0000
0000
0000
0000
0000
3100
0000
0000
0000
0000
0000
1000
0000
0000
0000
0000
0000
0100
0000
0000
0000
0000
0000
1000
0000
0000
0000
0000
0000
0100
0000
0000
0000
0000
0000
0000
0000
0000
0000
0000
0000
0000
0000
0000
0000
0000
0000
0000
0000
0000
0000
0000
0000
0110
0000
0000
0000
0000
0000
0000
0000
0000
0000
0000
0000
0000
0000
0000
0000
0000
0000
0000
0000
0000
0000
0000
0000
0000
0000
0000
0000
0000
0000
0000
0000
0001
0000
0000
0000
0000
0000
0000
0000
0000
0000
0000
0000
0000
0000
0000
0000
0000
0000
0000
0000
0000
0000
0000
0000
0000
0000
0000
0000
0000
0000
0000
0000
1000
0000
0000
0000
0000
0000
0000
0000
0000
0000
0000
0000
0000
0000
0000
0000
0000
0000
0000
0000
0000
0000
0000
0000
0000
0000
0000
0000
0000
0000
0000
0000
,  // measure 64
0010
0000
0000
0000
0000
0000
0000
0000
0001
0000
0000
0000
0000
0000
0000
0000
0010
0000
0000
0000
0000
0000
0000
0000
0210
0000
0000
0000
0000
0000
0000
0000
0000
0300
0000
0000
0102
0000
0000
0000
0000
0000
0000
0000
0000
0003
0000
0000
,  // measure 65
2001
0000
0000
0000
0000
0000
0000
0000
3001
0010
0001
0010
0001
0000
0000
0000
1001
0000
0000
0000
1000
0000
0000
0000
0010
0000
0000
0000
0100
0000
0001
0000
,  // measure 66
1000
0000
0000
0000
0000
0000
0100
0000
0000
0010
0000
0000
0001
0000
0000
0000
0000
0000
1000
0000
0001
0000
1000
0000
0010
0000
0000
0000
0000
0000
0100
0000
0000
0000
0000
0000
0001
0000
0000
0000
0000
0000
0000
0000
0000
0000
0000
0000
,  // measure 67
2001
0000
0000
3001
1000
0001
0100
0010
1000
0000
0000
0001
1000
0000
0100
0000
,  // measure 68
0020
0000
0000
0031
1000
0100
1000
0001
0200
0000
0320
0000
2030
0000
3001
0000
,  // measure 69
0020
0000
0000
0130
0010
0001
1000
0001
0100
0000
0000
0001
2000
0000
3010
0000
,  // measure 70
0200
0000
0302
1003
0100
0000
0010
0001
1000
0000
0001
1000
0010
0000
0100
0000
,  // measure 71
0120
0000
0000
1030
0001
0100
0001
1000
0100
0000
0000
0010
0001
0000
1000
0000
,  // measure 72
0020
0000
0000
0130
0001
1000
0001
1000
0200
0000
0320
0000
0032
0000
1003
0000
,  // measure 73
0020
0000
0000
0130
0001
1000
0001
0010
0100
0000
0000
1000
0002
0000
0103
0000
,  // measure 74
0020
0000
0000
0000
0000
0000
2030
0000
0000
3001
0000
0000
0010
0000
0000
0000
0000
0000
0010
0000
0000
0000
0000
0000
0100
0000
0000
0000
0000
0000
1000
0000
0001
0000
1000
0000
0010
0000
0000
0000
0000
0000
0100
0000
0000
0000
0000
0000
,  // measure 75
0101
0000
0000
0000
;
