#TITLE:KUSOGE- Pt.2;
#SUBTITLE:;
#ARTIST:Ginsuke;
#TITLETRANSLIT:;
#SUBTITLETRANSLIT:;
#ARTISTTRANSLIT:;
#GENRE:;
#CREDIT:Loodee;
#BANNER:KUSOGE- Pt.2-bn.png;
#BACKGROUND:KUSOGE- Pt.2-bg.png;
#LYRICSPATH:;
#CDTITLE:loodeecdtitle.png;
#MUSIC:KUSOGE- Pt.2.ogg;
#OFFSET:-0.338000;
#SAMPLESTART:67.845009;
#SAMPLELENGTH:18.000000;
#SELECTABLE:YES;
#DISPLAYBPM:80.000000:160.000000;
#BPMS:0.000000=160.000000
,34.000000=-160.000000
,38.000000=160.000000
,42.000000=-160.000000
,46.000000=160.000000
,50.500000=-160.000000
,50.750000=160.000000
,156.000000=80.000000
,158.000000=120.000000
,158.333328=160.000000
,158.666672=240.000000
,159.333328=160.000000
,159.666672=120.000000
,160.000000=160.000000
,166.000000=120.000000
,166.333328=160.000000
,166.666672=240.000000
,167.000000=160.000000
,174.000000=120.000000
,174.333328=160.000000
,174.666672=240.000000
,175.333328=160.000000
,175.666672=120.000000
,176.000000=160.000000
,182.000000=320.000000
,182.750000=160.000000
,183.125000=80.000000
,183.500000=160.000000
,184.000000=320.000000
,184.750000=160.000000
,185.125000=80.000000
,185.500000=160.000000
,186.000000=320.000000
,186.500000=160.000000
,186.750000=80.000000
,187.000000=160.000000
,190.000000=120.000000
,190.333328=160.000000
,190.666672=240.000000
,191.333328=160.000000
,191.666672=120.000000
,192.000000=160.000000
,198.000000=120.000000
,198.333328=160.000000
,198.666672=240.000000
,199.333328=160.000000
,199.666672=120.000000
,200.000000=160.000000
,206.000000=120.000000
,206.333328=160.000000
,206.666672=240.000000
,207.333328=160.000000
,207.666672=120.000000
,208.000000=160.000000
,214.000000=320.000000
,214.750000=160.000000
,215.125000=80.000000
,215.500000=160.000000
,216.000000=320.000000
,216.750000=160.000000
,217.125000=80.000000
,217.500000=160.000000
,218.000000=320.000000
,218.500000=160.000000
,218.750000=80.000000
,219.000000=160.000000
,222.000000=320.000000
,223.000000=160.000000
,223.500000=80.000000
,224.000000=160.000000
,230.000000=320.000000
,231.000000=160.000000
,231.500000=80.000000
,232.000000=160.000000
,238.000000=320.000000
,239.000000=160.000000
,239.500000=80.000000
,240.000000=160.000000
,248.000000=240.000000
,248.333328=160.000000
,248.666672=120.000000
,249.000000=240.000000
,249.333328=160.000000
,249.666672=120.000000
,250.000000=160.000000
,252.000000=80.000000
,253.000000=320.000000
,254.000000=160.000000
,254.500000=80.000000
,255.000000=160.000000
,261.000000=320.000000
,262.000000=160.000000
,262.500000=80.000000
,263.000000=160.000000
,269.000000=320.000000
,270.000000=160.000000
,270.500000=80.000000
,271.000000=160.000000
,279.000000=240.000000
,279.333344=160.000000
,279.666656=120.000000
,280.000000=240.000000
,280.333344=160.000000
,280.666656=120.000000
,281.000000=160.000000
,283.000000=80.000000
,283.500000=120.000000
,284.000000=160.000000
;
#STOPS:42.000=1.687,
283.500000=0.062000,
283.750000=0.063000
;
#BGCHANGES:;
#KEYSOUNDS:;
#ATTACKS:;

//---------------dance-single - Loodee----------------
#NOTES:
     dance-single:
     Loodee:
     Challenge:
     10:
     0.597525,0.938765,0.340055,0.501581,0.743870,492.000000,452.000000,40.000000,59.000000,21.000000,0.000000,0.597525,0.938765,0.340055,0.501581,0.743870,492.000000,452.000000,40.000000,59.000000,21.000000,0.000000:
// measure 0
0000
0000
0000
0000
,  // measure 1
0000
0000
0000
0000
,  // measure 2
0000
0000
0000
0000
,  // measure 3
0000
0000
0000
0000
,  // measure 4
0000
0000
0000
0000
,  // measure 5
0000
0000
0000
0000
,  // measure 6
0000
0000
0000
0000
0000
0000
0001
1000
0001
0000
0010
0000
0100
0000
1000
0000
0010
0000
0100
0000
0001
0000
0010
0000
0001
0000
0100
0000
0010
0000
1000
0000
,  // measure 7
0001
0010
0001
0010
0100
1000
0100
1000
0010
0000
0100
0000
0001
0000
0100
0000
,  // measure 8
0120
0000
0000
0000
0000
0000
0000
0030
0000
0000
0000
0000
0000
0000
0000
0000
,  // measure 9
0000
0000
0000
0000
,  // measure 10
0000
0000
0000
0000
0000
0000
0000
0000
0000
0000
0000
0000
0000
0000
0000
0000
0000
0000
0000
0000
0000
0000
0000
0000
0000
0000
0000
0000
0000
0000
0000
0000
0000
0000
0000
0000
0000
0000
0000
0000
0000
0000
0000
0000
0000
0000
0000
0000
0000
0000
0000
0000
0000
0000
0000
0000
0000
0000
0000
0000
0000
0000
0000
0000
0000
0000
0000
0000
0000
0000
0000
0000
0000
0000
0000
0000
0000
0000
0000
0000
0000
0000
000M
0000
0000
0000
0000
0000
0000
0000
0000
0000
0000
0000
0000
0000
M000
0000
0000
0000
0000
0000
0000
0000
0000
M000
0000
0000
000M
M000
0000
0000
0000
0000
0000
0M00
0000
0000
0000
0000
0000
0000
0000
0000
0000
0000
0000
0000
00M0
0000
0000
0000
M000
0000
0M00
0000
0000
0000
0000
0000
0000
0000
000M
0000
0000
0000
0000
0M00
0000
0000
00M0
0000
0000
0000
0000
0000
000M
0000
0000
0000
0000
0000
M000
0000
0000
0000
0000
0000
00M0
0000
0000
0000
0000
0000
0M00
0000
0000
0000
0000
0000
000M
0000
0000
0000
0000
0000
0000
0000
0000
M000
0000
0000
,  // measure 11
0000
0000
0000
0000
0000
0000
00M0
0000
0000
0000
0000
0000
0000
0000
0000
0M00
0000
0000
0000
0000
0000
0000
0000
0000
0000
0000
0000
000M
0000
0000
M000
0000
0000
0000
0000
0000
0M00
0000
0000
00M0
0000
0000
0000
0000
0000
0000
0000
0000
0000
0000
0000
M00M
0000
0000
00M0
0000
0000
0000
0000
0000
0M00
0000
0000
00M0
0000
0000
0000
0000
0000
0000
0000
0000
M000
0000
00M0
0000
0000
0000
0M00
00M0
0000
0000
0000
0000
0000
0000
0000
000M
0000
0000
0000
0000
0000
0M00
0000
0000
0000
0000
0000
0000
0000
0000
0000
0000
0000
0000
0000
0000
0000
0000
0000
0000
0000
0000
0000
0000
0000
0000
0000
0000
0000
0000
0000
0000
0000
0000
0000
0000
0000
0000
0000
0000
0000
0000
0000
0000
0000
0000
0000
0000
0000
0000
0000
0000
0000
0000
0000
0000
0000
0000
0000
0000
0000
0000
0000
0000
0000
0000
0000
0000
0000
0000
0000
0000
0000
0000
0000
0000
0000
0000
0000
0000
0000
0000
0000
0000
0000
0000
0000
0000
0000
0000
0000
0000
0000
0000
0000
0000
0000
0000
0000
0000
,  // measure 12
MMMM
MMMM
MMMM
MMMM
MMMM
MMMM
MMMM
MMMM
MMMM
MMMM
MMMM
0000
MMMM
0000
0000
0000
,  // measure 13
0000
0000
0000
0000
,  // measure 14
0000
0000
0000
0000
,  // measure 15
1200
0000
0000
0000
0000
0000
0000
0300
0110
0000
0010
0000
0001
0000
1000
0000
,  // measure 16
0020
0000
0000
0000
0000
0000
0000
0030
1010
0000
1000
0000
0001
0000
0010
0000
,  // measure 17
0200
0000
0000
0310
0011
0001
1000
0010
,  // measure 18
0200
0000
0000
0000
0000
0000
0000
0000
0000
0000
0000
0000
0000
0000
0000
0000
2300
0000
0000
0000
0000
0000
0000
0000
0000
0000
0000
0000
3000
0100
0000
0000
0010
0000
0000
0000
0000
0000
0000
0000
0000
0000
0000
0000
0000
1000
0000
0000
0000
0000
0000
0000
0000
0000
0000
0000
0101
0000
0000
0000
0000
0000
0000
0000
,  // measure 19
0002
0000
0000
0000
0000
0000
0000
0003
0011
0000
0010
0000
0100
0000
1000
0000
,  // measure 20
0200
0000
0000
0000
0000
0000
0000
0300
1100
0000
1000
0000
0010
0000
0100
0000
,  // measure 21
0101
0000
0000
0001
1001
1000
0100
0010
,  // measure 22
0011
0000
0001
1000
0000
0001
1000
0000
1020
0000
0000
0000
0000
0000
0000
0000
,  // measure 23
0130
0000
0000
0001
0000
0000
1000
0000
0000
0100
0000
0000
0040
0000
0000
0000
,  // measure 24
0000
0000
0000
0000
0000
0030
0000
0000
0010
0000
0000
0100
0000
0000
1000
0000
,  // measure 25
0020
0000
0000
0032
0000
0013
0200
0000
,  // measure 26
0000
0000
0000
0301
0010
0100
1000
0100
,  // measure 27
1000
0000
0000
0010
0100
0001
0100
0020
,  // measure 28
0000
0000
0000
0000
0000
0000
0000
0000
1030
0000
0000
0100
0000
0000
0010
0000
,  // measure 29
0200
0000
0000
0302
0000
0103
0020
0000
,  // measure 30
0031
0010
0100
1000
0001
1000
0010
0100
,  // measure 31
1001
0000
0000
0001
0000
0000
0010
0000
0000
0001
0000
0000
1000
0000
0000
1000
,  // measure 32
0000
0000
1000
0000
0000
1000
0000
0000
0010
0000
0000
0100
0000
0000
0001
0000
,  // measure 33
0010
0000
0000
0010
0000
0000
0100
0000
0000
0010
0000
0000
0100
0000
0000
0100
,  // measure 34
0000
0000
0100
0000
0000
0100
0000
0000
1000
0000
0000
0001
0000
0000
0100
0000
,  // measure 35
0002
0000
0000
0000
0003
0000
0000
0000
0000
0200
0000
0000
0000
0300
0000
0000
0000
0000
0020
0000
0000
0000
0030
0000
0000
0000
0000
2000
0000
0000
0000
3000
0000
0000
0000
0000
0020
0000
0000
0000
0030
0000
0000
0000
0000
0010
0000
0000
,  // measure 36
0000
0000
0010
0000
0000
0010
0000
0000
0100
0000
0000
0001
0000
0000
1000
0000
,  // measure 37
0100
0000
0000
0100
0000
0000
0010
0000
0000
0100
0000
0000
1000
0000
0000
1000
,  // measure 38
0000
0000
1000
0000
0000
1000
0000
0000
1010
0000
0000
0100
0000
0000
1001
0000
,  // measure 39
0M11
0000
0000
0000
0000
0000
0000
0000
2M01
0000
0000
0000
0020
0000
0000
0030
,  // measure 40
3001
0000
0010
0000
0200
0000
0000
0300
0200
0000
0000
0300
0010
0000
0001
0000
,  // measure 41
0100
0000
1000
0000
0200
0000
0000
0300
1020
0000
0000
0000
0000
0000
0000
0000
,  // measure 42
1030
0000
0000
0000
0000
0000
0000
0000
0100
0000
0000
0000
0000
0000
0000
0000
0020
0000
0000
0000
0000
0000
0000
0000
0000
0000
0000
0000
0030
0000
0000
0000
0020
0000
0000
0000
0000
0000
0000
0000
0000
0000
0000
0000
0030
0000
0000
0000
0100
0000
0000
0000
0000
0000
0000
0000
0010
0000
0000
0000
0000
0001
0000
0000
,  // measure 43
1000
0000
0000
0000
0101
0000
0000
0000
2010
0000
0000
0000
0200
0000
0000
0300
,  // measure 44
3001
0000
0100
0000
0020
0000
0000
0030
0020
0000
0000
0030
1000
0000
0001
0000
,  // measure 45
0010
0000
1000
0000
0020
0000
0000
0030
0012
0000
0000
0000
0000
0000
0103
0000
,  // measure 46
1002
0000
0000
0000
0000
0000
0000
0000
0000
0000
0000
0000
0000
0000
0000
0000
0000
0000
0000
0000
0000
0000
0000
0000
0103
0000
0000
0000
0000
0000
0000
0000
2010
0000
0000
0000
0000
0000
0000
0000
0000
0000
0000
0000
0000
0000
0000
0000
3001
0000
0000
0000
0000
0000
0000
0000
0010
0000
0000
0000
0000
0100
0000
0000
,  // measure 47
1000
0000
0000
0000
0000
0000
0000
0000
0000
0000
0000
0000
0000
1100
0000
0000
0000
0000
0000
0000
0000
0100
0000
0000
0010
0000
0000
0000
0000
0000
0000
0000
0012
0000
0000
0000
0000
0000
0000
0000
0000
0000
0000
0000
0000
0000
0000
0000
0200
0000
0000
0000
0000
0000
0000
0000
0000
0000
0000
0000
0300
0000
0000
0000
,  // measure 48
1003
0000
0010
0000
0200
0000
0000
0300
0200
0000
0000
0300
0001
0000
1000
0000
,  // measure 49
0100
0000
0001
0000
0200
0000
0000
0300
0120
0000
0000
0000
0000
0000
0000
0000
,  // measure 50
0130
0000
0000
0000
0000
0000
0000
0000
1000
0000
0000
0000
0000
0000
0000
0000
0002
0000
0000
0000
0000
0000
0000
0000
0000
0000
0000
0000
0003
0000
0000
0000
0002
0000
0000
0000
0000
0000
0000
0000
0000
0000
0000
0000
0003
0000
0000
0000
0100
0000
0000
0000
0000
0000
0000
0000
0010
0000
0000
0000
0000
1000
0000
0000
,  // measure 51
0001
0000
0000
0000
0000
0000
0000
0000
0000
0000
0000
0000
0000
0010
0000
0000
0000
0000
0000
0000
0000
0000
0000
0000
1001
0000
0000
0000
0000
0000
0000
0000
0102
0000
0000
0000
0000
0000
0000
0000
0000
0000
0000
0000
0000
0000
0000
0000
2000
0000
0000
0000
0000
0000
0000
0000
0000
0000
0000
0000
3000
0000
0000
0000
,  // measure 52
0013
0000
0100
0000
2000
0000
0000
3000
2000
0000
0000
3000
0001
0000
0100
0000
,  // measure 53
0010
0000
0001
0000
0020
0000
0000
0030
0120
0000
0000
0000
0000
0000
1030
0000
,  // measure 54
2001
0000
0000
3010
0201
0000
0301
0010
,  // measure 55
0100
0010
0001
1000
0100
0010
1002
0000
0000
0000
0000
0000
,  // measure 56
0103
0010
1000
0010
0100
0010
1000
0100
0010
0100
1000
0100
,  // measure 57
0010
0001
0100
0010
0100
0001
2000
0000
0000
0000
0000
0000
,  // measure 58
3010
0100
0001
0100
0010
1000
0001
0010
0100
0010
0100
1000
,  // measure 59
0010
1000
0001
0010
0001
1000
0200
0000
0000
0000
0000
0000
,  // measure 60
0310
0001
0100
0001
1000
0001
1000
0100
1000
0010
1000
0001
,  // measure 61
1000
0100
0010
0001
1000
0010
0001
0010
0100
0010
1000
0001
,  // measure 62
1001
0000
0000
0000
1001
0000
0000
0000
0010
0000
0000
0010
0000
0000
0010
0000
,  // measure 63
1M01
0000
0000
0M12
0000
0000
0000
0000
0000
1003
0010
0100
,  // measure 64
0010
1000
0010
0100
0001
0010
0100
1000
0100
0010
0001
0100
,  // measure 65
0010
1000
0001
0200
0000
0000
0000
0000
0000
0301
0010
0001
,  // measure 66
1000
0001
1000
0010
0100
0001
1000
0100
1000
0010
0100
0001
,  // measure 67
0010
0100
1000
0002
0000
0000
0000
0000
0000
0013
0001
0100
,  // measure 68
0001
1000
0100
1000
0010
1000
0001
0010
0100
1000
0010
1000
,  // measure 69
0001
0010
0100
1000
0100
0001
0100
0010
0001
0011
0000
0000
,  // measure 70
1001
0000
0000
0000
0001
0000
0000
0001
0000
0000
0001
0000
M101
0000
M000
M000
,  // measure 71
M101
0001
1000
0100
1000
0010
0100
0001
,  // measure 72
1000
0000
0001
0000
0010
0000
0100
0000
1000
0000
0100
0010
0001
0000
0100
0000
,  // measure 73
0001
0000
1000
0000
0010
0000
0100
0000
0001
0000
0010
0000
0100
0000
1000
0001
,  // measure 74
0100
0000
0010
1000
0001
0000
0010
0000
0001
0000
1000
0000
0001
0000
0100
0000
,  // measure 75
0010
1000
0001
0010
0001
0100
0010
1000
,  // measure 76
0001
0000
1000
0000
0100
0000
0010
0000
0001
0000
0010
0100
1000
0000
0010
0000
,  // measure 77
0100
0000
0001
0000
1000
0000
0100
0000
1000
0000
0010
0000
0100
0000
0001
1000
,  // measure 78
0100
0000
0010
0001
1000
0000
0010
0000
0100
0000
0001
0000
1000
0000
0100
0000
;

//---------------dance-single - Loodee----------------
#NOTES:
     dance-single:
     Loodee:
     Hard:
     8:
     0.445715,0.602535,0.195532,0.569592,0.114769,367.000000,344.000000,23.000000,67.000000,1.000000,0.000000,0.445715,0.602535,0.195532,0.569592,0.114769,367.000000,344.000000,23.000000,67.000000,1.000000,0.000000:
0000
0000
0000
0000
,
0000
0000
0000
0000
,
0000
0000
0000
0000
,
0000
0000
0000
0000
,
1000
0100
0010
0001
0100
0010
1000
0001
,
0100
0010
1000
0100
0010
0100
1000
0001
,
0100
0001
0010
0100
1000
0100
0010
0001
,
0100
0001
1000
0001
1000
1000
0010
0010
,
0102
0000
0000
0000
0000
0000
0000
0003
0000
0000
0000
0000
0000
0000
0000
0000
,
0000
0000
0000
0000
,
0000
0000
0000
0000
0000
0000
0000
0000
M000
00M0
0M00
000M
M000
00M0
0M00
000M
,
M000
00M0
0M00
000M
M000
00M0
0M00
000M
0000
0000
0000
0000
0000
0000
0000
0000
,
0000
0000
0000
0000
,
0000
0000
0000
0000
,
0000
0000
0000
0000
,
1200
0000
0000
0000
0310
0001
1000
0001
,
0200
0000
0000
0000
0310
1000
0010
0100
,
0002
0000
0000
1003
0001
0010
0100
0010
,
0002
0203
0320
2030
,
3200
0000
0000
0000
0310
0100
1000
0001
,
2000
0000
0000
0000
3010
0100
0001
0100
,
0101
0000
0000
0000
1000
0010
1000
0100
,
1100
0100
0120
0000
,
0031
0000
0000
1000
0000
0000
0010
0000
0000
1000
0000
0000
0002
0000
0000
0000
,
0000
0000
0000
0000
0000
0000
0000
0000
0013
0000
0000
0100
0000
0000
1000
0000
,
0020
0000
0000
2030
0000
3001
0020
0000
,
0000
0000
0000
0000
,
0030
0000
0000
0001
0100
0001
0010
0200
,
0000
0000
0000
0000
0000
0000
0000
0000
1300
0000
0000
0001
0000
0000
0100
0000
,
0020
0000
0000
2030
0000
3001
0020
0000
,
0000
0000
0000
0000
0000
0000
0000
0030
,
1001
1000
0010
1000
,
0001
1000
0001
0100
,
0001
0010
0100
0010
,
0100
1000
0010
1000
,
0002
0003
0000
0020
0030
0000
0200
0300
0000
2000
3000
0000
0001
0000
0000
0000
,
0100
0010
0100
0001
,
1000
0100
1000
0100
,
0010
0000
0000
0000
0000
0000
0000
0000
0011
0000
0000
0001
0000
0000
1000
0000
,
1001
0000
1020
0000
,
0130
0000
0001
0000
0020
0000
0000
0030
0020
0000
0000
0030
0100
0000
1000
0000
,
0010
0100
0002
0000
0023
0000
0000
0000
,
0130
0000
1000
0000
0020
0000
0000
0030
0020
0000
0000
0030
1000
0000
0100
0000
,
0020
0032
2003
0000
,
3001
0000
0100
0000
0020
0000
0000
0030
0020
0000
0000
0030
0100
0000
0001
0000
,
1000
0100
0020
0000
0032
0000
0000
1003
,
0020
0000
0000
1030
0200
0000
0000
0310
,
0011
0000
0000
0000
0000
0000
0000
0000
0000
0000
0000
0000
0000
0001
0000
0000
0000
0000
0000
0000
0000
0000
0000
0000
0001
0000
0000
0000
0000
0000
0000
0000
2000
0000
0000
0000
0000
0000
0000
0000
0000
0000
0000
0000
0000
0000
0000
0000
0000
0000
0000
0000
0000
0000
0000
0000
0000
0000
0000
0000
0000
0000
0000
0000
,
3010
0000
0100
0000
0002
0000
0000
0003
0002
0000
0000
0003
0010
0000
0100
0000
,
1000
0010
0200
0000
0302
0000
0000
0000
,
0013
0000
0100
0000
2000
0000
0000
3000
2000
0000
0000
3000
0010
0000
0100
0000
,
0002
0023
0230
0000
,
0310
0000
0001
0000
2000
0000
0000
3000
2000
0000
0000
3000
0010
0000
1000
0000
,
0100
0010
0002
0000
0203
0000
0000
0310
,
2000
0000
0000
3100
0020
0000
0031
0100
,
0001
1000
0001
1000
0000
0000
1020
0000
0000
0000
0000
0000
,
0130
0001
0010
0000
0110
0000
0100
1000
,
0010
1000
0001
0000
0021
0000
0000
0000
,
0130
0010
0001
0000
1001
0000
1000
0010
,
0100
0110
1002
0000
,
0013
0100
1000
0000
1100
0000
0100
0010
,
0001
0000
0000
0100
0000
0000
0001
0000
0000
0000
0000
0000
0010
0000
0100
0000
0010
0000
0100
0000
1000
0000
0100
0000
,
1000
0000
0000
0000
1000
0000
0000
0000
0001
0000
0000
0001
0000
0000
0001
0000
,
0100
0120
0000
2030
,
3001
0001
0020
0100
,
0031
0201
0000
0320
,
1030
0200
0010
1300
,
1000
0000
1020
0000
0000
0000
0130
0001
,
0100
0000
0110
0000
0010
1000
0100
0010
,
0001
0000
0000
1000
0001
1000
0001
1000
0001
0100
0000
0000
,
0100
0000
0020
0000
1030
0001
0020
0000
,
0130
1000
0001
1000
0010
0100
0001
0010
,
0100
0010
0001
1000
0010
0100
0010
1000
,
0100
0010
0001
1000
0001
0100
0010
1000
,
0100
0010
0100
1000
0010
0000
0110
0000
,
0100
0001
0010
0001
1000
0100
0010
0100
,
1000
0010
0100
0001
0100
0010
1000
0001
,
0010
0100
0010
0100
1000
0010
1000
0001
,
0100
0010
0100
0001
1000
0000
1010
0000
;

//---------------dance-single - Loodee----------------
#NOTES:
     dance-single:
     Loodee:
     Medium:
     6:
     0.337626,0.469382,0.212534,0.391063,0.021253,278.000000,253.000000,25.000000,46.000000,2.000000,0.000000,0.337626,0.469382,0.212534,0.391063,0.021253,278.000000,253.000000,25.000000,46.000000,2.000000,0.000000:
0000
0000
0000
0000
,
0000
0000
0000
0000
,
0000
0000
0000
0000
,
0000
0000
0000
0000
,
0001
0000
0101
0000
,
0001
0000
1001
0000
,
1000
0000
1100
0000
,
0100
0000
0010
0000
0001
1000
0001
0001
,
0200
0000
0000
0000
0000
0000
M0M0
0300
M0M0
0000
0000
0000
0000
0000
0000
0000
,
0000
0000
0000
0000
,
0000
0000
0000
0000
,
0000
0000
0000
0000
,
0000
0000
0000
0000
,
0000
0000
0000
0000
,
0000
0000
0000
0000
,
2001
0000
0000
0000
3100
0010
0001
0000
,
0200
0000
0000
0000
0310
1000
0001
0000
,
0020
0000
0000
0000
0130
1000
0100
0000
,
2000
3200
0320
0032
,
0203
0000
0000
0000
0310
1000
0001
0000
,
2000
0000
0000
0000
3100
0010
0100
0000
,
0110
0000
0011
0000
,
0002
0203
0320
0000
,
1030
0000
0000
0000
,
0000
0000
0000
0000
0000
0000
0000
0000
0001
0000
0000
0010
0000
0000
0100
0000
,
0010
0000
0000
0001
0000
1000
0001
0000
,
0000
0000
0000
0000
,
0000
0000
0000
0100
0010
0100
0001
0100
,
0000
0000
0000
0000
0000
0000
0000
0000
0001
0000
0000
0010
0000
0000
0100
0000
,
0010
0000
0000
0001
0000
1000
0010
0000
,
0000
0000
0000
0000
,
1020
0000
0000
0000
,
0000
0000
0000
0000
,
0000
0000
0000
0000
,
0000
0000
0000
0000
,
1030
0000
0000
0100
0000
0000
0010
0000
0000
0001
0000
0000
2000
0000
0000
0000
,
0000
0000
3020
0000
,
0230
0000
0000
0000
,
0000
0000
0000
0000
0300
0000
0000
0000
0101
0000
0000
0001
0000
0000
1000
0000
,
0001
0000
1002
0000
,
0013
0100
0010
0000
0010
0000
0001
1000
,
0010
0200
0302
0000
,
0013
0100
1000
0000
1000
0000
0010
0100
,
0001
2000
3200
0000
,
0310
0001
0010
0000
0010
0000
0001
1000
,
0010
0000
0100
0000
0202
0000
0000
0303
,
2002
0000
0000
3003
2200
0000
0000
3300
,
1001
0000
1020
0000
,
0130
0001
1000
0000
1000
0000
0100
0010
,
0001
0200
0320
0000
,
0130
0001
1000
0000
1000
0000
0001
0010
,
0100
0020
0032
0000
,
1003
0010
0100
0000
0100
0000
0001
1000
,
0100
0000
0010
0000
0022
0000
0000
0033
,
2200
0000
0000
3300
2002
0000
0000
3003
,
0001
0001
0201
0000
,
0310
1000
0100
0000
0100
0000
0010
0001
,
1000
0010
0200
0000
,
0301
0010
0100
0000
0100
0000
0010
0001
,
0100
0100
0200
0000
,
0310
1000
0100
0000
0100
0000
0010
0001
,
0100
0000
0010
0000
2000
0000
0000
3000
,
1001
0010
1001
0000
,
0011
0000
2001
0000
0000
0000
3010
0100
,
0001
0000
0001
0000
0010
0100
1000
0000
,
0010
0000
0200
0000
0000
0000
0301
0010
,
0100
0000
0100
0000
1000
0010
0100
0000
,
0100
0000
0200
0000
0000
0000
0301
0010
,
0001
0000
0001
0000
0010
0100
1000
0000
,
0010
1000
0000
1100
,
0001
1100
0000
1001
,
0001
0100
0010
0000
1000
0001
1000
0000
,
0100
0010
0100
0000
1000
0001
0100
0001
,
0010
0100
0010
0000
0001
1000
0001
0000
,
0100
0010
1000
0000
0001
0010
0100
1000
,
0100
1000
0001
0000
0100
0010
0100
0000
,
0001
1000
0010
0000
0100
0001
1000
0001
,
0010
0100
0010
0000
0001
1000
0001
0000
,
0100
0010
1000
0000
0010
1000
0001
0010
;

//---------------dance-single - Loodee----------------
#NOTES:
     dance-single:
     Loodee:
     Easy:
     4:
     0.195532,0.267793,0.051008,0.153025,0.000000,161.000000,155.000000,6.000000,18.000000,0.000000,0.000000,0.195532,0.267793,0.051008,0.153025,0.000000,161.000000,155.000000,6.000000,18.000000,0.000000,0.000000:
0000
0000
0000
0000
,
0000
0000
0000
0000
,
0000
0000
0000
0000
,
0000
0000
0000
0000
,
0001
0000
1000
0000
,
0010
0000
1000
0000
,
0001
0000
0010
0000
,
0001
0000
0100
0100
,
0020
0000
0000
0030
0000
0000
0000
0000
,
0000
0000
0000
0000
,
0000
0000
0000
0000
,
0000
0000
0000
0000
,
0000
0000
0000
0000
,
0000
0000
0000
0000
,
0000
0000
0000
0000
,
2001
0000
3100
0000
,
0020
0000
0031
0000
,
0200
0000
0301
0000
,
1000
0001
1000
0001
,
0200
0000
0310
0000
,
2000
0000
3010
0000
,
1010
0000
0010
0000
,
1001
0000
0001
0000
,
2001
0000
0000
0000
,
0000
0000
0000
0000
,
3200
0000
0000
0320
,
0000
0000
0000
0030
,
0000
0000
0000
0000
,
0000
0000
0001
0000
,
2000
0000
0000
3020
,
0000
0000
0000
0030
,
0100
0000
0100
0000
,
0100
0000
0100
0000
,
0001
0000
0001
0000
,
0001
0000
0001
0000
,
1000
0000
0100
0000
,
0010
0000
0001
0000
,
1000
0000
0010
0000
,
0100
0000
0001
0000
,
1001
0000
1001
0000
,
0001
0010
0010
0000
,
0001
1000
0010
0000
,
0100
0000
0100
0000
,
0100
0010
1000
0000
,
0100
0010
0010
0000
,
0001
0000
2000
0000
,
3020
0000
2030
0000
,
3002
0000
0013
0000
,
0100
1000
1000
0000
,
0001
0100
0001
0000
,
0010
0000
0010
0000
,
0010
0001
1000
0000
,
0010
0100
0100
0000
,
0001
1000
0002
0000
,
0023
0000
0230
0000
,
0300
0000
1000
0000
,
0010
0100
0010
0000
,
0010
1000
0100
0000
,
0010
0001
1000
0000
,
1000
0001
0100
0000
,
0010
1000
0010
0000
,
0010
1000
0001
0000
,
0010
0010
0010
0000
,
0100
0100
0000
1000
,
0001
1000
0000
1000
,
0010
0100
0000
0010
,
1000
0010
0000
0010
,
1000
0001
0000
0010
,
0100
0010
0000
0010
,
0001
1000
0000
0100
,
0100
0100
0000
1000
,
0001
0000
0100
0000
,
0001
0000
1000
0000
,
0100
0000
0010
0000
,
0100
0000
1000
0001
,
1000
0000
0010
0000
,
1000
0000
0001
0000
,
0010
0000
0100
0000
,
0010
0000
0001
0001
;

//---------------dance-single - Loodee----------------
#NOTES:
     dance-single:
     Loodee:
     Beginner:
     2:
     0.086228,0.165777,0.034006,0.025504,0.000000,71.000000,67.000000,4.000000,3.000000,0.000000,0.000000,0.086228,0.165777,0.034006,0.025504,0.000000,71.000000,67.000000,4.000000,3.000000,0.000000,0.000000:
0000
0000
0000
0000
,
0000
0000
0000
0000
,
0000
0000
0000
0000
,
0000
0000
0000
0000
,
0001
0000
0000
0000
,
0000
0000
0000
0000
,
0001
0000
0000
0000
,
0000
0000
0000
0000
,
2000
0000
0000
0000
0000
0000
0000
3000
0000
0000
0000
0000
0000
0000
0000
0000
,
0000
0000
0000
0000
,
0000
0000
0000
0000
,
0000
0000
0000
0000
,
0000
0000
0000
0000
,
0000
0000
0000
0000
,
0000
0000
0000
0000
,
0001
0000
0000
0000
,
0010
0000
0000
0000
,
0100
0000
0000
0000
,
0010
0000
0010
0000
,
0010
0000
0000
0000
,
0001
0000
0000
0000
,
1000
0000
0000
0000
,
1001
0000
0000
0000
,
2002
0000
0000
0000
,
0000
0000
0000
0000
,
3003
0000
0000
0000
,
0000
0000
0000
0000
,
0000
0000
0000
0000
,
0000
0000
0000
0000
,
0000
0000
0000
0000
,
0000
0000
0000
0000
,
0001
0000
0000
0000
,
0000
0000
0000
0000
,
1000
0000
0000
0000
,
0000
0000
0000
0000
,
0100
0000
0000
0000
,
0000
0000
0000
0000
,
1000
0000
0000
0000
,
0000
0000
0000
0000
,
1001
0000
0001
0000
,
0000
0000
0010
0000
,
0000
0000
0001
0000
,
0000
0000
1000
0000
,
0000
0000
0100
0000
,
0000
0000
0010
0000
,
0000
0000
0001
0000
,
0001
0000
1000
0000
,
1000
0000
0001
0000
,
0000
0000
0100
0000
,
0000
0000
0001
0000
,
0000
0000
1000
0000
,
0000
0000
0100
0000
,
0000
0000
1000
0000
,
0000
0000
0010
0000
,
0010
0000
0100
0000
,
0000
0000
0001
0000
,
0000
0000
1000
0000
,
1000
0000
1000
0000
,
0000
0000
0010
0000
,
0010
0000
0010
0000
,
0000
0000
1000
0000
,
1000
0000
1000
0000
,
0000
0000
0001
0000
,
0000
0001
0000
0000
,
0000
0010
0000
0010
,
0000
0010
0000
0000
,
0000
0001
0000
0001
,
0000
0001
0000
0000
,
0000
1000
0000
1000
,
0000
0010
0000
0000
,
0000
0100
0000
0000
,
1001
0000
0000
0000
,
0001
0000
0000
0000
,
0001
0000
0000
0000
,
0010
0000
0000
0000
,
0100
0000
0000
0000
,
0100
0000
0000
0000
,
0100
0000
0000
0000
,
1000
0000
0000
0000
;
