#TITLE:Just Pudding;
#SUBTITLE:;
#ARTIST:satella;
#TITLETRANSLIT:;
#SUBTITLETRANSLIT:;
#ARTISTTRANSLIT:;
#GENRE:EDM;
#CREDIT:;
#BANNER:Just Pudding-bn.png;
#BACKGROUND:Just Pudding-bg.png;
#LYRICSPATH:;
#CDTITLE:cd-title-Benpai.png;
#MUSIC:Just Pudding.ogg;
#OFFSET:0.009000;
#SAMPLESTART:95.990990;
#SAMPLELENGTH:12.000000;
#SELECTABLE:YES;
#DISPLAYBPM:160.000000;
#BPMS:0.000000=160.000000
;
#STOPS:
;
#BGCHANGES:;
#KEYSOUNDS:;
#ATTACKS:;

//---------------dance-single - Benpai----------------
#NOTES:
     dance-single:
     Benpai:
     Challenge:
     10:
     0.595352,0.720125,0.215559,0.742479,0.303379,522.000000,495.000000,27.000000,93.000000,13.000000,0.000000,0.595352,0.720125,0.215559,0.742479,0.303379,522.000000,495.000000,27.000000,93.000000,13.000000,0.000000:
// measure 0
0000
0000
0000
0000
,  // measure 1
0000
0000
0000
0000
,  // measure 2
0000
0000
0000
0000
,  // measure 3
0000
0000
0000
0000
,  // measure 4
0000
0000
0000
0000
,  // measure 5
0000
0000
0000
0000
,  // measure 6
0000
0000
0000
0000
,  // measure 7
0000
0000
0M00
0000
,  // measure 8
0001
0100
0020
0130
0001
2000
3100
0010
,  // measure 9
0000
0000
0010
0000
0000
0010
0001
0000
1001
0000
0000
0001
0000
0000
0100
0000
,  // measure 10
0000
0000
0100
0000
0000
0001
1000
0000
1100
0000
0000
0100
1000
0000
0001
0000
,  // measure 11
0000
0000
0001
0000
0000
1000
0010
0000
0110
0000
0000
0100
0000
0000
0001
0000
,  // measure 12
0020
0130
1000
0002
0103
0010
1000
0100
,  // measure 13
0000
0000
0100
0000
0000
1000
0001
0000
1001
0000
0000
1000
0000
0000
0010
0000
,  // measure 14
0000
0000
0010
0000
0000
0100
0001
0000
0101
0000
0000
0100
0000
0000
0010
0000
,  // measure 15
2000
0000
3100
0000
0010
0100
1000
0000
0001
0000
1000
0010
0100
0000
0001
0000
,  // measure 16
1001
1000
0020
1030
0010
0100
0001
1000
,  // measure 17
0000
0000
1000
0000
0000
0001
0010
0000
0110
0000
0000
0100
0000
0000
1000
0000
,  // measure 18
0000
0000
0001
0000
0000
0100
0010
0000
1010
0000
0000
1000
0001
0000
0010
0000
,  // measure 19
0000
0000
0010
0000
0000
0100
1000
0000
1001
0000
0000
0001
0000
0000
0100
0000
,  // measure 20
0020
0130
0001
2000
3100
1000
0001
0100
,  // measure 21
0000
0000
0100
0000
0000
0100
0001
0000
1001
0000
0000
1000
0000
0000
0001
0000
,  // measure 22
0010
0000
0100
0000
1000
0001
0100
0000
0101
0000
0000
0001
1000
0000
0100
0000
,  // measure 23
0020
0000
0130
0000
1000
0001
0100
0000
1001
0000
0000
0000
0000
0000
0000
0000
,  // measure 24
1000
0000
0010
0000
0020
0000
0000
0130
0010
0000
0010
0000
1000
0000
0200
0000
,  // measure 25
0300
0000
1000
0000
1000
0000
0001
0100
0010
0000
0100
0000
0001
0000
0010
0000
,  // measure 26
0100
0000
1000
0000
2000
0000
0000
3001
1000
0000
1000
0000
0100
0000
0010
0000
,  // measure 27
0000
0000
0100
0000
0100
0000
0000
0010
0001
0000
1000
0000
0001
0000
0100
0000
,  // measure 28
0010
0000
0100
0000
0200
0000
0000
0301
0100
0000
0100
0000
0010
0000
1000
0000
,  // measure 29
0000
0000
0010
0000
0020
0000
0000
0130
0001
0000
1000
0000
0100
0000
0010
0000
,  // measure 30
0100
1000
0001
0100
0000
0100
0010
1000
,  // measure 31
0000
1000
0100
0010
1000
0010
0100
0010
,  // measure 32
0012
0000
0000
1003
0010
0100
0010
0004
,  // measure 33
0000
0013
1000
0001
0010
0100
1000
0001
,  // measure 34
0100
0020
0000
0130
0001
0010
0100
0004
,  // measure 35
0000
0103
1000
0001
1000
0010
0100
0010
,  // measure 36
1000
0200
0000
0310
0100
1000
0010
0004
,  // measure 37
0000
0013
0100
0001
1000
0100
0010
0100
,  // measure 38
1000
0002
0000
0013
0100
1000
0010
0400
,  // measure 39
0000
0301
0100
0010
1000
0001
0010
0001
,  // measure 40
1002
0000
0000
0103
0010
1000
0100
0004
,  // measure 41
0000
0103
0010
0001
1000
0010
0100
0001
,  // measure 42
MM2M
0000
0000
0130
1000
0010
0100
4000
,  // measure 43
0000
3100
0010
1000
0001
0010
0100
1000
,  // measure 44
0001
0200
0000
0310
0100
0001
0010
4000
,  // measure 45
0000
3010
0100
1000
0001
0100
0010
1000
,  // measure 46
0001
0020
0000
0031
1000
0001
0100
0040
,  // measure 47
0000
0130
0001
1000
1100
0000
0000
0000
,  // measure 48
0002
0000
0000
0103
0002
0000
2003
0000
,  // measure 49
3100
0000
0000
0000
0000
0000
0000
0000
0000
0000
0000
0000
0000
0000
0000
0000
0000
0000
0000
0000
0000
0000
0000
0000
1000
0000
0000
0000
0000
0000
0000
0000
0000
0000
0000
0000
0000
0000
0000
0000
0000
0000
0000
0000
0000
0000
0000
0000
0000
0000
0000
0000
0000
0000
0000
0000
0000
0000
0000
0000
0000
0000
0001
0000
0000
0000
0000
0000
0000
0000
0000
0000
1000
0000
0000
0000
0000
0000
0000
0000
0000
0000
0000
0000
0000
0000
0000
0000
0000
0000
0000
0000
0000
0000
0000
0000
0010
0000
0000
0000
0000
0000
0000
0000
0000
0000
0000
0000
0000
0000
0000
0000
0000
0000
0000
0000
0000
0000
0000
0000
0100
0000
0000
0000
0000
0000
0000
0000
0000
0000
0000
0000
0000
0000
0010
0000
0000
0000
0000
0000
0000
0000
0000
0000
0000
0000
0000
0000
0000
0000
0000
0000
0000
0000
0000
0000
0000
0000
0100
0000
0000
0000
0000
0000
0000
0000
0000
0000
0001
0000
0000
0000
0000
0000
0000
0000
0000
0000
0000
0000
0000
0000
0000
0000
0000
0000
0000
0000
0000
0000
0000
0000
,  // measure 50
1000
0000
0000
0000
0000
0000
0000
0000
0000
0000
0000
0000
0000
0000
0000
0000
0000
0000
0000
0000
0000
0000
0000
0000
0100
0000
0000
0000
0000
0000
0000
0000
0000
0000
0000
0000
0000
0000
0010
0000
0000
0000
0000
0000
0000
0000
0000
0000
0000
0000
0000
0000
0000
0000
0000
0000
0000
0000
0000
0000
0000
0000
0100
0000
0000
0000
0000
0000
0000
0000
0000
0000
1000
0000
0000
0000
0000
0000
0000
0000
0000
0000
0000
0000
0000
0000
0000
0000
0000
0000
0000
0000
0000
0000
0000
0000
0010
0000
0000
0000
0000
0000
0000
0000
0000
0000
0000
0000
0000
0000
0000
0000
0000
0000
0000
0000
0000
0000
0000
0000
0100
0000
0000
0000
0000
0000
0000
0000
0000
0000
0000
0000
0000
0000
0001
0000
0000
0000
0000
0000
0000
0000
0000
0000
0000
0000
0000
0000
0000
0000
0000
0000
0000
0000
0000
0000
0000
0000
0100
0000
0000
0000
0000
0000
0000
0000
0000
0000
0010
0000
0000
0000
0000
0000
0000
0000
0000
0000
0000
0000
0000
0000
0000
0000
0000
0000
0000
0000
0000
0000
0000
0000
,  // measure 51
1000
0000
0000
0000
0000
0000
0000
0000
0000
0000
0000
0000
0000
0000
0000
0000
0000
0000
0000
0000
0000
0000
0000
0000
0001
0000
0000
0000
0000
0000
0000
0000
0000
0000
0000
0000
0000
0000
0100
0000
0000
0000
0000
0000
0000
0000
0000
0000
0000
0000
0000
0000
0000
0000
0000
0000
0000
0000
0000
0000
0000
0000
0001
0000
0000
0000
0000
0000
0000
0000
0000
0000
1000
0000
0000
0000
0000
0000
0000
0000
0000
0000
0000
0000
0000
0000
0000
0000
0000
0000
0000
0000
0000
0000
0000
0000
0100
0000
0000
0000
0000
0000
0000
0000
0000
0000
0000
0000
0000
0000
0000
0000
0000
0000
0000
0000
0000
0000
0000
0000
1000
0000
0000
0000
0000
0000
0000
0000
0000
0000
0000
0000
0000
0000
0001
0000
0000
0000
0000
0000
0000
0000
0000
0000
0000
0000
0000
0000
0000
0000
0000
0000
0000
0000
0000
0000
0000
0000
0100
0000
0000
0000
0000
0000
0000
0000
0000
0000
0010
0000
0000
0000
0000
0000
0000
0000
0000
0000
0000
0000
0000
0000
0000
0000
0000
0000
0000
0000
0000
0000
0000
0000
,  // measure 52
0210
0000
0000
0000
0000
0000
0000
0000
0000
0000
0000
0000
0000
0000
0000
0000
0000
0000
0000
0000
0000
0000
0000
0000
0000
0000
0000
0000
0000
0000
0000
0000
0000
0000
0000
0000
0000
0000
0000
0000
0000
0000
0000
0000
0000
0000
0000
0000
0000
0000
0000
0000
0000
0000
0000
0000
0000
0000
0000
0000
0000
0000
0000
0000
0000
0000
0000
0000
0000
0000
0000
0000
0301
0000
0000
0000
0000
0000
0000
0000
0000
0000
0000
0000
0000
0000
0000
0000
0000
0000
0000
0000
0000
0000
0000
0000
1000
0000
0000
0000
0000
0000
0000
0000
0000
0000
0000
0000
0000
0000
0000
0000
0000
0000
0000
0000
0000
0000
0000
0000
0100
0000
0000
0000
0000
0000
0000
0000
0000
0000
0000
0000
0000
0000
0000
0000
0000
0000
0000
0000
0000
0000
0000
0000
0010
0000
0000
0000
0000
0000
0000
0000
0000
0000
0000
0000
0000
0000
0001
0000
0000
0000
0000
0000
0000
0000
0000
0000
1000
0000
0000
0000
0000
0000
0000
0000
0000
0000
0000
0000
0000
0000
0000
0000
0000
0000
0000
0000
0000
0000
0000
0000
,  // measure 53
0000
0000
0000
0000
0000
0000
0000
0000
0000
0000
0000
0000
0000
0000
0000
0000
0000
0000
0000
0000
0000
0000
0000
0000
0001
0000
0000
0000
0000
0000
0000
0000
0000
0000
0000
0000
0000
0000
0000
0000
0000
0000
0000
0000
0000
0000
0000
0000
0000
0000
0000
0000
0000
0000
0000
0000
0000
0000
0000
0000
0000
0000
1000
0000
0000
0000
0000
0000
0000
0000
0000
0000
0001
0000
0000
0000
0000
0000
0000
0000
0000
0000
0000
0000
0000
0000
0000
0000
0000
0000
0000
0000
0000
0000
0000
0000
0100
0000
0000
0000
0000
0000
0000
0000
0000
0000
0000
0000
0000
0000
0000
0000
0000
0000
0000
0000
0000
0000
0000
0000
0010
0000
0000
0000
0000
0000
0000
0000
0000
0000
0000
0000
0000
0000
0000
0000
0000
0000
0000
0000
0000
0000
0000
0000
1000
0000
0000
0000
0000
0000
0000
0000
0000
0000
0000
0000
0000
0000
0100
0000
0000
0000
0000
0000
0000
0000
0000
0000
1000
0000
0000
0000
0000
0000
0000
0000
0000
0000
0000
0000
0000
0000
0000
0000
0000
0000
0000
0000
0000
0000
0000
0000
,  // measure 54
0001
0000
0000
0000
0000
0000
0000
0000
0000
0000
0000
0000
0000
0000
0000
0000
0000
0000
0000
0000
0000
0000
0000
0000
0100
0000
0000
0000
0000
0000
0000
0000
0000
0000
0000
0000
0000
0000
0001
0000
0000
0000
0000
0000
0000
0000
0000
0000
0000
0000
0000
0000
0000
0000
0000
0000
0000
0000
0000
0000
0000
0000
1000
0000
0000
0000
0000
0000
0000
0000
0000
0000
0001
0000
0000
0000
0000
0000
0000
0000
0000
0000
0000
0000
0000
0000
0000
0000
0000
0000
0000
0000
0000
0000
0000
0000
0010
0000
0000
0000
0000
0000
0000
0000
0000
0000
0000
0000
0000
0000
0000
0000
0000
0000
0000
0000
0000
0000
0000
0000
0100
0000
0000
0000
0000
0000
0000
0000
0000
0000
0000
0000
0000
0000
1000
0000
0000
0000
0000
0000
0000
0000
0000
0000
0000
0000
0000
0000
0000
0000
0000
0000
0000
0000
0000
0000
0000
0000
0001
0000
0000
0000
0000
0000
0000
0000
0000
0000
1000
0000
0000
0000
0000
0000
0000
0000
0000
0000
0000
0000
0000
0000
0000
0000
0000
0000
0000
0000
0000
0000
0000
0000
,  // measure 55
0001
0000
0000
0000
0000
0000
0000
0000
0000
0000
0000
0000
0000
0000
0000
0000
0000
0000
0000
0000
0000
0000
0000
0000
0100
0000
0000
0000
0000
0000
0000
0000
0000
0000
0000
0000
0000
0000
0010
0000
0000
0000
0000
0000
0000
0000
0000
0000
0000
0000
0000
0000
0000
0000
0000
0000
0000
0000
0000
0000
0000
0000
0100
0000
0000
0000
0000
0000
0000
0000
0000
0000
0001
0000
0000
0000
0000
0000
0000
0000
0000
0000
0000
0000
0000
0000
0000
0000
0000
0000
0000
0000
0000
0000
0000
0000
1000
0000
0000
0000
0000
0000
0000
0000
0000
0000
0000
0000
0000
0000
0000
0000
0000
0000
0000
0000
0000
0000
0000
0000
0100
0000
0000
0000
0000
0000
0000
0000
0000
0000
0000
0000
0000
0000
0010
0000
0000
0000
0000
0000
0000
0000
0000
0000
0001
0000
0000
0000
0000
0000
0000
0000
0000
0000
0000
0000
0000
0000
0000
0000
0000
0000
0000
0000
0000
0000
0000
0000
0001
0000
0000
0000
0000
0000
0000
0000
0000
0000
0000
0000
0000
0000
0000
0000
0000
0000
0000
0000
0000
0000
0000
0000
,  // measure 56
1002
0000
0000
0103
0010
1000
0001
0010
,  // measure 57
0100
1000
0001
0100
0001
1000
0010
0100
,  // measure 58
0001
1000
0100
0010
0100
1000
0001
0100
,  // measure 59
0010
0100
0001
1000
0001
0010
0100
1000
,  // measure 60
2100
0000
3001
0102
0000
1003
2010
3001
,  // measure 61
0100
0110
0010
1000
1002
0000
0000
0000
,  // measure 62
0000
0000
0000
0000
,  // measure 63
0023
0000
0000
0030
,  // measure 64
1001
0000
1000
0000
0000
0000
0100
0000
0020
0000
0031
0020
0000
0030
0200
0000
,  // measure 65
0300
2000
0000
3000
2000
0000
3M00
0020
0000
0030
0200
0000
0301
0000
1000
0000
,  // measure 66
0010
0000
0200
0000
0300
0000
0010
0000
2000
0000
3001
2000
0000
3000
0200
0000
,  // measure 67
0300
0020
0000
0030
0002
0000
0M03
1000
0002
0000
0203
0000
0300
0200
0000
0300
,  // measure 68
0010
0000
1000
0000
0000
0000
0001
0000
0020
0000
0130
0020
0000
0030
0002
0000
,  // measure 69
0003
1000
0002
0000
0203
0000
03M0
0200
0000
0300
0020
0000
0030
0020
0000
0030
,  // measure 70
1000
0000
0200
0000
0300
0000
1000
0000
0002
0000
0103
0002
0000
0003
0020
0000
,  // measure 71
0030
0100
2000
0000
3002
0000
0103
0002
0000
0003
2000
0000
3000
2000
3000
0000
,  // measure 72
MM2M
0000
0000
0000
0030
0000
1000
0000
0002
0000
1003
0002
0000
0003
0020
0000
,  // measure 73
0030
0200
0000
0300
0200
0000
03M0
2000
0000
3000
0020
0000
1030
0000
0001
0000
,  // measure 74
0100
0000
0020
0000
0030
0000
0100
0000
0002
0000
1003
0002
0000
0000
0023
0000
,  // measure 75
0030
0200
0000
0300
2000
0000
30M0
0001
2000
0000
3020
0000
0030
0020
0000
0030
,  // measure 76
0100
0000
0001
0000
0000
0000
0010
0000
0200
0000
0310
0200
0000
0000
2300
0000
,  // measure 77
3000
0001
2000
0000
3020
0000
0M30
1000
0001
0000
1000
0000
0100
0000
0010
0000
,  // measure 78
0012
0000
1003
1010
0010
0100
2001
0000
,  // measure 79
3100
0021
0000
0000
0000
0000
0000
0000
,  // measure 80
0000
0000
0000
0000
,  // measure 81
0000
0000
0000
0000
0031
0000
1000
0000
0200
0000
0300
0200
0000
0300
0200
0000
,  // measure 82
0300
0000
0000
0000
;

//---------------dance-single - Benpai----------------
#NOTES:
     dance-single:
     Benpai:
     Medium:
     6:
     0.283990,0.392197,0.095804,0.287411,0.007984,249.000000,237.000000,12.000000,36.000000,5.000000,0.000000,0.283990,0.392197,0.095804,0.287411,0.007984,249.000000,237.000000,12.000000,36.000000,5.000000,0.000000:
// measure 0
0000
0000
0000
0000
,  // measure 1
0000
0000
0000
0000
,  // measure 2
0000
0000
0000
0000
,  // measure 3
0000
0000
0000
0000
,  // measure 4
0000
0000
0000
0000
,  // measure 5
0000
0000
0000
0000
,  // measure 6
0000
0000
0000
0000
,  // measure 7
0000
0000
0000
0000
,  // measure 8
1000
0000
0001
0000
0000
0001
0000
0100
,  // measure 9
0000
0001
0000
0000
1000
0000
0000
1000
,  // measure 10
0000
0000
0000
0000
0100
0000
0000
0100
,  // measure 11
0000
0000
0000
0000
1000
0000
0000
1000
,  // measure 12
0010
0000
0000
0010
0000
0000
0200
0000
,  // measure 13
0000
0000
0000
0000
0301
0000
0000
0001
,  // measure 14
0000
0000
0000
0000
1000
0000
0000
1000
,  // measure 15
0200
0000
0000
0000
0310
0000
0000
0010
,  // measure 16
0001
0000
0000
0001
0000
0000
2000
0000
,  // measure 17
0000
0000
0000
0000
3010
0000
0000
0010
,  // measure 18
0000
0000
0000
0000
0100
0000
0000
0100
,  // measure 19
0000
0000
0000
0000
0001
0000
0000
0001
,  // measure 20
1000
0000
0000
1000
0000
0000
0200
0000
,  // measure 21
0000
0000
0000
0000
0310
0000
0000
0001
,  // measure 22
2000
0000
0000
0000
3010
0000
0000
0100
,  // measure 23
0001
1000
1001
0000
,  // measure 24
2010
0000
0000
3001
0100
0001
0000
1000
,  // measure 25
0000
0100
1000
0000
0010
0000
0100
0000
,  // measure 26
0001
1000
0001
0000
0010
0000
0100
1000
,  // measure 27
0000
0100
1000
0000
0010
0000
0100
0000
,  // measure 28
0001
1000
0001
0000
0100
0000
0010
1000
,  // measure 29
0000
0010
1000
0000
0100
0000
0010
0000
,  // measure 30
0100
0000
1000
0001
0000
0100
0010
0100
,  // measure 31
0000
0001
1000
0000
0100
0000
0010
0000
,  // measure 32
0012
0000
0000
1003
0001
0000
0010
0100
,  // measure 33
0000
0100
1000
0000
0010
0000
0100
0000
,  // measure 34
0002
0000
0000
1003
0001
0000
0010
0100
,  // measure 35
0000
0100
1000
0000
0001
0000
1000
0000
,  // measure 36
0020
0000
0000
0130
0001
0000
1000
0001
,  // measure 37
0000
0001
0100
0000
0010
0000
0100
0000
,  // measure 38
0002
0000
0000
1003
0001
0000
1000
0100
,  // measure 39
0000
0100
0010
0000
0001
0000
1000
0000
,  // measure 40
2001
0000
0000
3010
0100
0000
0001
1000
,  // measure 41
0000
1000
0010
0000
0100
0000
0010
0000
,  // measure 42
2000
0000
0000
3001
1000
0000
0010
0100
,  // measure 43
0000
0100
0001
0000
0010
0000
0100
0000
,  // measure 44
0020
0000
0000
0031
1000
0000
0100
0010
,  // measure 45
0000
0010
0001
0000
1000
0000
0010
0000
,  // measure 46
0200
0000
0000
0301
0010
0000
0100
1000
,  // measure 47
0000
1000
0001
1000
0001
0000
0000
0000
,  // measure 48
0020
0030
0000
0020
0030
0000
0200
0000
,  // measure 49
0000
0000
0000
0000
,  // measure 50
0000
0000
0000
0000
,  // measure 51
0000
0000
1300
0000
,  // measure 52
2100
3000
0000
2000
3000
0000
0002
0000
,  // measure 53
0000
0000
0000
0000
,  // measure 54
0000
0000
0000
0000
,  // measure 55
0000
0000
0103
0000
,  // measure 56
1002
0003
0000
0002
0003
0000
0200
0000
,  // measure 57
0000
0000
0001
0000
,  // measure 58
0000
0000
0001
0000
,  // measure 59
0000
0000
0301
1000
,  // measure 60
1100
0000
0000
1001
0000
0000
0101
0000
,  // measure 61
0000
1010
0000
0000
0021
0000
0000
0000
,  // measure 62
0000
0000
0000
0000
,  // measure 63
0230
0000
0000
0300
,  // measure 64
1001
0000
1000
0000
0010
0000
0100
0002
,  // measure 65
0000
1003
0100
0010
,  // measure 66
0100
0000
1000
0000
0010
0000
1000
0200
,  // measure 67
0000
0310
0001
1000
,  // measure 68
0001
0000
0100
0000
0010
0000
1000
0002
,  // measure 69
0000
0013
0100
1000
,  // measure 70
0010
0000
1000
0000
0001
0000
0010
0200
,  // measure 71
0000
0310
0001
1000
,  // measure 72
0040
0000
0000
0000
0000
0000
0130
0000
0001
0000
0000
1000
0000
0000
0200
0000
,  // measure 73
0000
0000
0310
0000
0100
0000
1000
0001
,  // measure 74
1000
0000
0010
0000
0100
0000
0001
2000
,  // measure 75
0000
0000
3100
0000
0010
0000
0100
1000
,  // measure 76
0100
0000
1000
0000
0010
0000
0100
0002
,  // measure 77
0000
0000
1003
0000
0001
1000
0001
1000
,  // measure 78
0020
0000
0000
0230
0000
0000
0302
0000
,  // measure 79
0000
2003
0000
0000
0000
0000
0000
0000
,  // measure 80
0000
0000
0000
0000
,  // measure 81
0000
0000
0000
0000
3M00
0000
0M00
0000
0M00
0000
0000
0M00
0000
0000
0M00
0000
;

//---------------dance-single - Benpai----------------
#NOTES:
     dance-single:
     Benpai:
     Hard:
     8:
     0.474457,0.522929,0.119755,0.191608,0.203583,416.000000,401.000000,15.000000,24.000000,3.000000,0.000000,0.474457,0.522929,0.119755,0.191608,0.203583,416.000000,401.000000,15.000000,24.000000,3.000000,0.000000:
// measure 0
0000
0000
0000
0000
,  // measure 1
0000
0000
0000
0000
,  // measure 2
0000
0000
0000
0000
,  // measure 3
0000
0000
0000
0000
,  // measure 4
0000
0000
0000
0000
,  // measure 5
0000
0000
0000
0000
,  // measure 6
0000
0000
0000
0000
,  // measure 7
0000
0000
0000
0000
,  // measure 8
1000
0001
1000
0000
0010
1000
0000
0100
,  // measure 9
0000
0000
0010
0000
0000
0001
0000
0000
1000
0000
0000
0010
0000
0000
0100
0000
,  // measure 10
0000
0000
0100
0000
0000
0001
0000
0000
1000
0000
0000
0100
0000
0000
0010
0000
,  // measure 11
0000
0000
0010
0000
0000
0100
0000
0000
1000
0000
0000
0001
0000
0000
1000
0000
,  // measure 12
0010
0100
0001
0000
1000
0000
0100
0010
,  // measure 13
0000
0000
0001
0000
0000
1000
0000
0000
0010
0000
0000
1000
0000
0000
0001
0000
,  // measure 14
0000
0000
0001
0000
0000
0010
0000
0000
0100
0000
0000
1000
0000
0000
0001
0000
,  // measure 15
0100
0000
0001
0000
0000
1000
0000
0000
0100
0000
0000
0010
0000
0000
0100
0000
,  // measure 16
1000
0001
1000
0001
0100
0010
0000
1000
,  // measure 17
0000
0000
1000
0000
0000
0100
0000
0000
0010
0000
0000
0001
0000
0000
0100
0000
,  // measure 18
0000
0000
0100
0000
0000
0001
0000
0000
1000
0000
0000
0100
0000
0000
0010
0000
,  // measure 19
0000
0000
0010
0000
0000
0001
0000
0000
1000
0000
0000
0010
0000
0000
0100
0000
,  // measure 20
0001
1000
0100
0010
0001
1000
0010
0100
,  // measure 21
0000
0000
0100
0000
0000
0001
0000
0000
1000
0000
0000
0100
0000
0000
0010
0000
,  // measure 22
0100
0000
1000
0000
0000
0001
0000
0000
0100
0000
0000
0001
0000
0000
1000
0000
,  // measure 23
0010
0000
0000
0100
0000
0000
0001
0000
1001
0000
0000
0000
0000
0000
0000
0000
,  // measure 24
1000
0001
0001
0000
0100
0010
0100
0001
,  // measure 25
0000
1000
1000
0000
0100
0010
0100
1000
,  // measure 26
0001
0100
0100
0000
0010
1000
0100
1000
,  // measure 27
0000
0001
0001
0000
0010
0100
1000
0001
,  // measure 28
1000
0010
0010
0000
0100
0001
1000
0100
,  // measure 29
0000
0010
0010
0000
0100
1000
0010
0100
,  // measure 30
0001
1000
0100
0010
0000
0100
1000
0001
,  // measure 31
0000
0001
0100
0010
0100
0001
0010
0100
,  // measure 32
1200
0000
0000
1300
0001
0100
0010
2000
,  // measure 33
0000
3100
1000
0001
0100
0010
0100
0001
,  // measure 34
1000
0100
0000
1000
0001
0100
0010
2000
,  // measure 35
0000
3100
0010
0001
0100
0010
1000
0001
,  // measure 36
0010
0100
0000
0010
0001
1000
0010
0200
,  // measure 37
0000
0310
1000
0100
0010
0100
1000
0001
,  // measure 38
0100
0010
0000
0100
0001
0010
0100
2000
,  // measure 39
0000
3001
0100
0001
1000
0100
0010
0100
,  // measure 40
2100
0000
0000
3001
0100
0010
0100
0002
,  // measure 41
0000
1003
0100
0010
0100
1000
0001
0100
,  // measure 42
0020
0000
0000
0130
0001
1000
0100
0010
,  // measure 43
0000
0100
0010
0001
0100
0001
1000
0100
,  // measure 44
0010
0001
0000
0010
0100
1000
0001
0200
,  // measure 45
0000
0310
1000
0001
0010
0100
0010
0001
,  // measure 46
1000
0001
0000
0100
0010
0100
0001
2000
,  // measure 47
0000
3100
0010
0001
1000
0000
0000
0000
,  // measure 48
0020
0030
0100
0020
0030
0000
1000
0000
,  // measure 49
0001
0000
0101
0000
,  // measure 50
1000
0000
1100
0000
,  // measure 51
0001
0000
1001
0000
,  // measure 52
2100
3000
0000
2000
3001
0100
0010
1000
,  // measure 53
0000
1000
0000
0400
1300
0001
0001
0100
,  // measure 54
0001
0000
0000
0000
1001
1000
0000
0100
,  // measure 55
0000
0100
0000
1000
0001
0100
0010
0100
,  // measure 56
0102
0003
0000
0002
1003
0100
1000
0001
,  // measure 57
1000
0010
0100
0001
1000
0100
0010
0100
,  // measure 58
0010
0000
0000
0001
0000
0000
1000
0000
0010
0000
0100
0000
0000
0000
0100
0000
,  // measure 59
0000
0001
1000
0100
0010
0001
1000
0000
,  // measure 60
1010
0000
0000
1001
0000
0000
1100
0000
,  // measure 61
0000
0011
0000
0000
2001
0000
0000
0000
,  // measure 62
0000
0000
0000
0000
,  // measure 63
3020
0000
0000
0030
,  // measure 64
0101
0000
0001
0000
0000
0000
1000
0000
0010
0000
0000
0010
0000
0000
0100
0000
,  // measure 65
0000
0001
0000
0000
1000
0000
0000
0100
0000
0000
0010
0000
0000
0100
0000
0000
,  // measure 66
1000
0000
0002
0000
0000
0000
0103
0000
0010
0000
0000
0010
0000
0000
1000
0000
,  // measure 67
0000
0001
0000
0000
0010
0000
0000
0010
0000
0000
0100
0000
0000
0100
0000
0000
,  // measure 68
1000
0000
0001
0000
0000
0000
0100
0000
0010
0000
0000
0010
0000
0000
1000
0000
,  // measure 69
0000
0001
0000
0000
0010
0000
0000
0100
0000
0000
1000
0000
0001
0000
0100
0000
,  // measure 70
0010
0000
1000
0000
0000
0000
0001
0000
1000
0000
0000
1000
0000
0000
0100
0000
,  // measure 71
0000
0010
0000
0000
0001
0000
0000
0001
0000
0000
1000
0000
0000
0010
0000
0100
,  // measure 72
0002
0000
0000
0000
0000
0000
1003
0000
0100
0000
0000
0100
0000
0000
1000
0000
,  // measure 73
0000
0001
0000
0000
0100
0000
0000
0010
0000
0000
1000
0000
0000
0001
0000
0000
,  // measure 74
1000
0000
0010
0000
0000
0000
1000
0000
0001
0000
0000
0001
0000
0000
0010
0000
,  // measure 75
0000
0100
0000
0000
0010
0000
0000
0010
0000
0000
0001
0000
1000
0000
1000
0000
,  // measure 76
0010
0000
0100
0000
0000
0000
0001
0000
0010
0000
0000
0010
0000
0000
0100
0000
,  // measure 77
0000
1000
0000
0000
0001
0000
0000
1000
0001
0000
0100
0000
0010
0000
1000
0000
,  // measure 78
0002
0000
1003
0200
0000
0310
0002
0000
,  // measure 79
0103
0020
0000
0000
0000
0000
0000
0000
,  // measure 80
0000
0000
0000
0000
,  // measure 81
0000
0000
0000
0000
1030
0000
0001
0000
0M00
0000
0000
0M00
0000
0000
0M00
0000
;

//---------------dance-single - Benpai----------------
#NOTES:
     dance-single:
     Benpai:
     Easy:
     4:
     0.191608,0.294148,0.023951,0.415150,0.003992,168.000000,165.000000,3.000000,52.000000,5.000000,0.000000,0.191608,0.294148,0.023951,0.415150,0.003992,168.000000,165.000000,3.000000,52.000000,5.000000,0.000000:
// measure 0
0000
0000
0000
0000
,  // measure 1
0000
0000
0000
0000
,  // measure 2
0000
0000
0000
0000
,  // measure 3
0000
0000
0000
0000
,  // measure 4
0000
0000
0000
0000
,  // measure 5
0000
0000
0000
0000
,  // measure 6
0000
0000
0000
0000
,  // measure 7
0000
0000
0000
0000
,  // measure 8
1000
0000
0100
0000
1000
0000
0001
0200
,  // measure 9
0000
0000
0310
0000
,  // measure 10
0100
0000
0001
0000
,  // measure 11
1000
0000
0100
0000
,  // measure 12
1000
0000
0001
0000
1000
0000
0010
2000
,  // measure 13
0000
0000
3001
0000
,  // measure 14
0010
0000
0100
0000
,  // measure 15
2000
0000
3001
0000
,  // measure 16
0100
0000
0010
0000
0100
0000
0001
2000
,  // measure 17
0000
0000
3100
0000
,  // measure 18
1000
0000
0001
0000
,  // measure 19
0100
0000
0010
0000
,  // measure 20
1000
0000
0100
0000
1000
0000
0001
0200
,  // measure 21
0000
0000
0310
0000
,  // measure 22
2000
0000
3001
0000
,  // measure 23
0020
0000
0130
0000
,  // measure 24
1001
0000
0000
0000
1000
0000
0000
0010
,  // measure 25
0000
0100
0001
0001
,  // measure 26
1000
0000
0000
0000
0100
0000
0000
1000
,  // measure 27
0000
0001
0100
0100
,  // measure 28
0010
0000
0000
0000
1000
0000
0000
0001
,  // measure 29
0000
1000
0100
0100
,  // measure 30
1000
0000
0000
0001
0000
0000
0000
0100
,  // measure 31
0000
0001
1000
0000
0100
0000
0010
0000
,  // measure 32
0002
0000
0000
0000
1003
0000
0000
0100
,  // measure 33
0000
1000
0001
0000
0100
0000
0100
0000
,  // measure 34
0002
0000
0000
0000
0013
0000
0000
0100
,  // measure 35
0000
1000
0100
0000
1000
0000
0010
0000
,  // measure 36
0200
0000
0000
0000
0301
0000
0000
1000
,  // measure 37
0000
0100
1000
0000
0001
0000
0100
0000
,  // measure 38
0002
0000
0000
0000
0013
0000
0000
0100
,  // measure 39
0000
1000
0001
0000
0100
0000
0001
0000
,  // measure 40
2001
0000
0000
0000
3100
0000
0000
0010
,  // measure 41
0000
0001
0010
0000
0100
0000
1000
0000
,  // measure 42
0002
0000
0000
0000
1003
0000
0000
0010
,  // measure 43
0000
1000
0010
0000
0100
0000
0001
0000
,  // measure 44
2000
0000
0000
0000
3100
0000
0000
0010
,  // measure 45
0000
0001
1000
0000
0010
0000
0100
0000
,  // measure 46
0002
0000
0000
0000
1003
0000
0000
0100
,  // measure 47
0000
1000
0001
0000
0100
0000
0000
0000
,  // measure 48
0020
0030
0000
0020
0030
0000
2000
0000
,  // measure 49
0000
0000
0000
0000
,  // measure 50
0000
0000
0000
0000
,  // measure 51
0000
0000
3000
0000
,  // measure 52
0020
0030
0000
0020
0030
0000
0200
0000
,  // measure 53
0000
0000
0000
0000
,  // measure 54
0000
0000
0000
0000
,  // measure 55
0000
0000
0000
0000
,  // measure 56
0302
0003
0000
0002
0003
0000
0020
0000
,  // measure 57
0000
0000
0000
0000
,  // measure 58
0000
0000
0000
0000
,  // measure 59
0000
0000
0000
0030
,  // measure 60
0100
0000
0000
0100
0000
0000
1000
0000
,  // measure 61
0000
0010
0000
0000
0200
0000
0000
0000
,  // measure 62
0000
0000
0000
0000
,  // measure 63
0302
0000
0000
0003
,  // measure 64
1001
0000
0000
2000
0000
0000
3200
0000
,  // measure 65
0000
0000
0000
0000
,  // measure 66
0320
0000
0000
0230
0000
0000
2300
0000
,  // measure 67
0000
3002
0000
0000
0000
0000
0000
0000
,  // measure 68
0203
0000
0000
0320
0000
0000
2030
0000
,  // measure 69
0000
0000
0000
0000
,  // measure 70
3200
0000
0000
2300
0000
0000
3002
0000
,  // measure 71
0000
0023
0000
0000
0000
0000
0000
0000
,  // measure 72
0430
0000
0300
2000
0000
0000
3002
0000
,  // measure 73
0000
0000
0000
0000
,  // measure 74
0203
0000
0000
0320
0000
0000
2030
0000
,  // measure 75
0000
3200
0000
0000
0000
0000
0000
0000
,  // measure 76
2300
0000
0000
3002
0000
0000
0203
0000
,  // measure 77
0000
0000
0301
0001
,  // measure 78
2000
0000
0000
3200
0000
0000
2300
0000
,  // measure 79
0000
3020
0000
0000
0000
0000
0000
0000
,  // measure 80
0000
0000
0000
0000
,  // measure 81
0000
0000
0000
0000
0M30
0000
0M00
0000
0M00
0000
0000
0M00
0000
0000
0M00
0000
;

//---------------dance-single - Benpai----------------
#NOTES:
     dance-single:
     Benpai:
     Beginner:
     3:
     0.153970,0.221097,0.015967,0.271444,0.000000,135.000000,133.000000,2.000000,34.000000,0.000000,0.000000,0.153970,0.221097,0.015967,0.271444,0.000000,135.000000,133.000000,2.000000,34.000000,0.000000,0.000000:
// measure 0
0000
0000
0000
0000
,  // measure 1
0000
0000
0000
0000
,  // measure 2
0000
0000
0000
0000
,  // measure 3
0000
0000
0000
0000
,  // measure 4
0000
0000
0000
0000
,  // measure 5
0000
0000
0000
0000
,  // measure 6
0000
0000
0000
0000
,  // measure 7
0000
0000
0000
0000
,  // measure 8
2000
0000
3100
0100
,  // measure 9
0000
0000
1000
0000
,  // measure 10
0001
0000
0100
0000
,  // measure 11
0001
0000
0100
0000
,  // measure 12
0020
0000
1030
1000
,  // measure 13
0000
0000
0100
0000
,  // measure 14
1000
0000
0001
0000
,  // measure 15
0200
0000
0301
0000
,  // measure 16
2000
0000
3010
0010
,  // measure 17
0000
0000
0100
0000
,  // measure 18
0001
0000
1000
0000
,  // measure 19
0100
0000
0010
0000
,  // measure 20
0200
0000
1300
1000
,  // measure 21
0000
0000
0001
0000
,  // measure 22
0200
0000
0000
0000
,  // measure 23
0320
0000
0030
0000
,  // measure 24
1001
0000
1000
0000
,  // measure 25
0100
0000
1000
0001
,  // measure 26
1000
0000
0010
0000
,  // measure 27
0100
0000
0001
0100
,  // measure 28
0001
0000
1000
0000
,  // measure 29
0100
0000
0010
0001
,  // measure 30
0010
0000
0100
0000
,  // measure 31
1000
0000
0010
0100
,  // measure 32
0020
0000
0000
0000
1030
0000
0000
0002
,  // measure 33
0000
0000
1003
0100
,  // measure 34
2000
0000
0000
0000
3010
0000
0000
0200
,  // measure 35
0000
0000
0301
1000
,  // measure 36
0002
0000
0000
0000
0013
0000
0000
0200
,  // measure 37
0000
0000
1300
0010
,  // measure 38
2000
0000
0000
0000
3001
0000
0000
0020
,  // measure 39
0000
0000
0130
1000
,  // measure 40
0002
0000
0000
0000
0103
0000
0000
0020
,  // measure 41
0000
0000
1030
0001
,  // measure 42
2000
0000
0000
0000
3100
0000
0000
0020
,  // measure 43
0000
0000
0130
1000
,  // measure 44
0200
0000
0000
0000
0310
0000
0000
0002
,  // measure 45
0000
0000
0103
0010
,  // measure 46
0200
0000
0000
0000
0301
0000
0000
2000
,  // measure 47
0000
0000
3001
0000
,  // measure 48
0020
0030
0000
0020
0030
0000
0200
0000
,  // measure 49
0000
0000
0000
0000
,  // measure 50
0000
0000
0000
0000
,  // measure 51
0000
0000
0300
0000
,  // measure 52
2000
3000
0000
2000
3000
0000
0002
0000
,  // measure 53
0000
0000
0000
0000
,  // measure 54
0000
0000
0000
0000
,  // measure 55
0000
0000
0003
0000
,  // measure 56
0200
0300
0000
0200
0300
0000
0020
0000
,  // measure 57
0000
0000
0000
0000
,  // measure 58
0000
0000
0000
0000
,  // measure 59
0000
0000
0000
0030
,  // measure 60
1000
0000
0000
0001
,  // measure 61
0000
0010
0000
0000
0200
0000
0000
0000
,  // measure 62
0000
0000
0000
0000
,  // measure 63
2300
0000
0000
3000
,  // measure 64
1001
0000
0000
0001
0000
0000
0100
0000
,  // measure 65
0000
0000
0000
0000
,  // measure 66
0010
0000
0000
1000
0000
0000
0100
0000
,  // measure 67
0000
0010
0000
0000
0000
0000
0000
0000
,  // measure 68
0001
0000
0000
1000
0000
0000
0100
0000
,  // measure 69
0000
0000
0000
0000
,  // measure 70
0010
0000
0000
0100
0000
0000
0010
0000
,  // measure 71
0000
0001
0000
0000
0000
0000
0000
0000
,  // measure 72
1000
0000
0000
0010
0000
0000
1000
0000
,  // measure 73
0000
0000
0000
0000
,  // measure 74
0001
0000
0000
0010
0000
0000
0100
0000
,  // measure 75
0000
0010
0000
0000
0000
0000
0000
0000
,  // measure 76
0001
0000
0000
1000
0000
0000
0010
0000
,  // measure 77
0000
0000
1000
1000
,  // measure 78
0001
0000
0000
0100
0000
0000
0010
0000
,  // measure 79
0000
1000
0000
0000
0000
0000
0000
0000
;
