#VERSION:0.83;
#TITLE:Into UR Heart;
#SUBTITLE:;
#ARTIST:Sota Fujimori;
#TITLETRANSLIT:;
#SUBTITLETRANSLIT:;
#ARTISTTRANSLIT:;
#GENRE:;
#ORIGIN:;
#CREDIT:thanks for the sex homie;
#BANNER:Into UR Heart-bn.png;
#BACKGROUND:Into UR Heart-bg-wide.png;
#PREVIEWVID:;
#JACKET:Into UR Heart-jacket.png;
#CDIMAGE:;
#DISCIMAGE:;
#LYRICSPATH:;
#CDTITLE:loodeecdtitle.png;
#MUSIC:Into UR Heart.ogg;
#OFFSET:-0.017000;
#SAMPLESTART:54.874001;
#SAMPLELENGTH:18.885000;
#SELECTABLE:YES;
#DISPLAYBPM:140.000000;
#BPMS:0.000=140.000,
223.000=280.000,
223.125=140.000,
223.188=70.000,
223.250=280.000,
223.375=140.000,
223.438=70.000,
223.500=280.000,
223.625=140.000,
223.688=70.000,
223.750=280.000,
223.875=140.000,
223.938=70.000,
224.000=140.000,
236.500=70.000,
236.563=140.000,
236.625=280.000,
236.750=70.000,
236.813=140.000,
236.875=280.000,
237.000=70.000,
237.063=140.000,
237.125=280.000,
237.500=140.000,
237.625=70.000,
237.750=210.000,
238.250=140.000,
238.500=280.000,
238.625=140.000,
238.688=70.000,
238.750=280.000,
238.875=140.000,
238.938=70.000,
239.000=280.000,
239.125=140.000,
239.188=70.000,
239.250=280.000,
239.375=140.000,
239.438=70.000,
239.500=210.000,
240.000=140.000;
#STOPS:237.750=0.018,
237.875=0.018,
238.000=0.017,
238.125=0.018,
239.500=0.018,
239.625=0.018,
239.750=0.018,
239.875=0.018;
#DELAYS:;
#WARPS:;
#TIMESIGNATURES:0.000=4=4;
#TICKCOUNTS:0.000=4;
#COMBOS:0.000=1;
#SPEEDS:0.000=1.000=0.000=0;
#SCROLLS:0.000=1.000;
#FAKES:;
#LABELS:0.000=Song Start;
#BGCHANGES:;
#KEYSOUNDS:;
#ATTACKS:
;

//---------------dance-single - Loodee----------------
#NOTEDATA:;
#CHARTNAME:Loodee;
#STEPSTYPE:dance-single;
#DESCRIPTION:Loodee;
#CHARTSTYLE:;
#DIFFICULTY:Challenge;
#METER:11;
#RADARVALUES:0.854806,0.996688,0.478129,0.372659,0.935164,851.000000,783.000000,68.000000,53.000000,10.000000,0.000000,1.000000,0.000000,0.000000,0.854806,0.996688,0.478129,0.372659,0.935164,851.000000,783.000000,68.000000,53.000000,10.000000,0.000000,1.000000,0.000000,0.000000;
#CREDIT:Loodee;
#DISPLAYBPM:140.000000;
#NOTES:
0000
0000
0000
0000
,
0000
0000
0000
0000
,
0000
0000
0000
0000
,
0000
0000
0000
0000
0000
0000
0000
0000
0000
0000
0000
0000
0000
0000
0000
0001
,
0010
0001
1001
1000
0010
0100
0101
0001
,
0010
0000
000M
0010
1000
0000
0000
0100
M000
0200
0000
0300
0101
0000
0001
0000
,
2000
0000
0000
0000
3001
0000
0010
0100
0010
0001
1000
0010
1000
0100
0010
0100
,
1000
0000
0010
0100
1000
0000
0100
0000
0010
1000
0001
1000
0100
0010
0001
0010
,
0000
0100
1100
1000
0010
1000
1100
0100
,
0020
0000
0000
0000
0000
0000
0000
0000
0031
0000
0000
0000
0000
0000
0100
0000
0001
0000
1000
0000
0000
0000
0400
0300
0010
0000
0100
0000
1000
0000
0001
0000
,
0200
0000
0000
0310
0100
0000
0000
0001
1000
0000
0001
0000
0011
0000
0010
0000
,
0220
0000
0000
0000
0000
0000
0000
0000
0000
0330
0000
0000
2002
0000
0000
0000
0000
0000
0000
0000
0000
3003
0000
0000
1000
0000
0001
0000
1000
0000
0010
0000
0100
0000
0001
0000
0010
0000
0100
0000
1000
0000
0001
0000
0000
2000
0000
0000
,
0000
3010
0110
0100
0001
0010
0011
0001
,
0100
0000
000M
0100
1000
0000
0000
0010
M000
0020
0000
0030
0011
0000
0001
0000
,
2000
0000
0000
0000
3001
0000
0100
0010
1000
0100
0010
0001
0011
0000
0000
0000
,
0101
0000
0100
0010
0001
0000
0010
0000
1000
0100
1000
0100
0010
0001
0100
0000
,
0010
0000
1000
0000
1001
0000
0001
0001
0010
0000
0100
0000
1000
0000
0020
0000
,
1000
0130
0101
0002
0000
0013
0001
1000
,
1100
0000
0100
0000
0010
0100
00M0
0100
0001
1000
0010
0000
0100
0000
0002
0000
,
0000
0103
0210
0000
0301
0010
1000
0010
,
0200
0000
0000
0300
1100
0000
1000
1000
0001
0000
0100
0000
0010
0000
2000
0000
,
0001
3100
0110
0020
0000
0031
1000
0010
,
0101
0000
0001
1000
0001
0100
000M
0100
1000
0100
0010
0000
0100
0000
0020
0000
,
0000
0000
0031
0000
2010
0000
0000
0000
3010
0000
0100
0000
1000
0100
0010
0000
,
0101
0000
0000
0000
1001
0000
0000
1000
0100
0000
0010
0000
0001
0000
0100
0000
,
0101
0000
0000
0000
0011
0000
0000
0010
0100
0000
1000
0000
0010
0000
1000
0000
,
1100
0000
0000
0000
0011
0000
0000
0001
1000
0000
0010
0000
0100
0000
0001
0000
,
1001
0000
0000
0000
1010
0000
0010
0100
0001
0000
0100
0000
1001
0000
0001
0000
,
0010
0000
0000
0100
0010
0000
0100
1000
0010
0000
1000
0000
0001
0000
0010
0000
,
0001
0000
0000
1000
0001
0000
1000
0010
0100
0000
0010
0000
0100
0000
2000
0000
,
3100
0000
0010
0100
0001
0000
0000
0010
0100
0000
1000
0000
0010
0000
1000
0000
,
0100
0010
0100
0010
0001
0000
0100
0010
0100
0010
1000
0000
1001
0000
0000
0000
,
1000
0100
0010
0000
0002
0000
0000
1003
0010
1000
0100
0000
0010
0000
0100
0000
,
0010
0000
0001
0000
1001
0000
1000
0000
0010
0100
0001
0000
0001
0000
0100
0010
,
1000
0000
0100
0000
1000
0000
0001
0010
0001
1000
0010
0000
1000
0000
0100
0000
,
1002
0000
0000
0000
0100
0000
0000
0000
0010
0000
0013
0000
0100
1000
0100
0010
,
0001
0000
0100
0000
0001
0000
1000
0100
1000
0010
1000
0000
0001
0000
0100
0000
,
0001
0010
0100
0000
0010
0000
0100
1000
0100
0010
0100
0000
0100
0000
1000
0001
,
0100
0000
0010
0000
1001
0000
1000
0010
0100
0001
0100
0000
0001
0000
1000
0000
,
2100
0000
0000
0000
0010
0000
0000
0000
3001
0000
1000
0000
0001
0010
0100
1000
,
0010
0000
0000
0000
0100
0000
0001
0000
0000
0000
1000
0000
0100
0000
1000
0000
0010
0000
1000
0000
0001
0000
0010
0000
0001
0000
0010
0000
0100
0000
1000
0100
,
0020
0000
0000
0000
0000
0000
0000
0000
0001
0000
0000
0000
0030
0000
0001
0000
0100
000M
0100
0000
1000
0000
0000
0000
0100
0000
1000
0000
0100
0000
0010
0000
,
0001
0000
0100
0000
0001
0000
2000
0000
0000
0000
3100
0000
0010
0000
0100
0000
0001
0000
0100
0000
0010
0000
0002
0000
0000
0003
0100
0000
0010
0000
1000
0000
,
2020
0000
0000
3030
2200
0000
0000
3300
0022
0000
0000
0033
0010
0100
0010
0001
,
0200
0000
0000
0000
0000
0000
0000
0000
0310
0000
0000
0000
1000
0000
0001
0000
1000
0000
0100
0000
0010
0000
0001
0000
0010
0000
0000
0000
0001
1000
0001
1000
,
0010
0000
0000
0000
1000
0001
1000
0001
0010
0000
0000
0000
0100
1000
0100
1000
0002
0000
0000
0000
0000
0000
0000
0000
0203
0000
0000
0000
0000
0000
0000
0000
,
0300
0000
0000
0000
0010
0000
1000
0001
1000
0000
0000
0000
0100
0000
0010
0000
0001
0000
0100
0000
0010
0000
1000
0000
0100
0000
0010
0000
0100
0000
1000
0000
,
0001
0100
0010
1000
0100
0010
0100
0010
0001
0010
0100
1000
0010
1000
0100
1000
,
0000
0010
M000
0010
0000
0001
0100
0001
1000
0100
M000
0100
0000
0010
1000
0001
,
0010
0000
0000
0000
0000
0000
0000
0000
0100
0000
0000
0000
0000
0000
0000
0000
1000
0000
0000
0000
0000
0000
0000
0000
0001
0000
0000
0000
0000
0000
0000
0000
0100
0000
0000
0000
0000
0000
0000
0000
0010
0000
0000
0000
0000
0000
0000
0000
1000
0000
0000
0000
0000
0000
0000
0000
0001
0000
0000
0000
0000
0000
0000
0000
0010
0000
0000
0000
0000
0000
0000
0000
0100
0000
0000
0000
0000
0000
0000
0000
0010
0000
0000
0000
0000
0000
0000
0000
0001
0000
0000
0000
0000
0000
0000
0000
2000
0000
0000
0000
0000
0000
0000
0000
0000
0000
0000
0000
0000
0000
0000
0000
0000
0000
0000
0000
0000
0000
0000
0000
0000
0000
0000
0000
0000
0000
0000
0000
0000
0000
0000
0000
3001
0000
0000
0000
0000
0000
0100
0000
0000
0000
0000
0000
0002
0000
0000
0000
0000
0000
0000
0000
0000
0000
0000
0000
0000
0000
0000
0000
0000
0000
0000
0000
0000
0000
0000
0000
0000
0000
0000
0000
0000
0000
0000
0000
0000
0000
0000
0000
0000
0000
0000
0000
0000
0000
0000
0000
0000
0000
0000
0000
,
1003
0010
0100
0000
0100
1000
0100
0010
0100
0001
1000
0100
0000
0010
0001
0010
,
0200
0000
0000
0000
0000
0000
0310
0000
0000
0001
0000
0000
0200
0000
0000
0000
0000
0000
0310
0000
0000
1000
0000
0000
0010
0000
0100
0000
0001
0000
1000
0000
0100
0000
0010
0000
0001
0000
0010
0000
0100
0000
1000
0000
0000
0020
0000
0000
,
0000
0000
0000
0000
0130
0000
0001
0000
1000
0000
0010
0000
1000
0000
0100
0000
0010
0000
0001
0000
0100
0000
0010
0000
1000
0000
0001
0000
1000
0100
1000
0000
,
0001
0100
0010
1000
0001
0010
0100
0010
0001
0100
0010
1000
0001
0100
0010
1000
,
0200
0000
0000
0000
2300
0000
3010
0100
0001
0010
0100
1000
1100
0000
0000
0000
,
0011
0000
0010
0100
0001
0000
0100
0000
0010
0001
0100
0001
1000
0100
1000
0100
,
1000
0010
0000
0000
0101
0000
0010
0000
1000
0100
0000
0000
0011
0000
0100
0000
,
1000
0010
0000
0000
0101
0000
0010
0000
1000
0100
0000
0000
0110
0000
0010
0000
,
0001
0100
0000
0000
0010
1000
0000
0000
0100
0010
0000
0000
0100
1000
0000
0000
,
0010
0000
0100
0000
0001
0000
1000
0000
0001
0000
2000
0000
0000
0000
3100
0010
0100
0010
0001
0000
1000
0000
0010
0000
0100
0000
0010
0000
1000
0001
1000
0001
,
0010
0100
1000
0100
1000
0000
0010
0100
0001
0100
0001
0000
1001
0000
0000
0000
,
0001
0000
0100
0000
0010
0000
0000
1000
0100
0010
0100
0000
1100
0000
1000
0000
,
0001
0000
0100
0000
0110
0000
0010
0000
1000
0100
0010
0000
0010
0000
0100
1000
,
0010
0000
0100
0000
0101
0000
0001
1000
0001
1000
0100
0000
0010
0000
0001
0000
,
0012
0000
0000
0000
1000
0000
0000
0000
0103
0000
0010
0100
0001
1000
0001
0010
,
0100
0000
0010
0000
0011
0000
0001
1000
0010
1000
0100
0000
0110
0000
0010
0000
,
0100
1000
0001
0000
0100
0000
0010
1000
0100
1000
0010
0000
0010
0000
0100
0001
,
0010
0000
0100
0000
1100
0000
1000
0010
0100
0001
1000
0000
1001
0000
1000
0000
,
1010
0000
0000
0000
0110
0000
0000
0000
0101
0000
0000
0000
0001
0010
0001
1000
,
0010
0000
1000
0000
0100
0000
0010
0001
0100
0001
1000
0000
0010
0000
0100
0000
,
0001
0000
0010
0000
0010
0000
0001
0010
0100
1000
0010
0000
0010
1000
0100
0010
,
0001
0000
1000
0000
0010
0000
0100
0001
0010
0100
0010
0000
0010
0000
0001
0000
,
1000
0020
0000
0000
0230
0000
0000
0000
0302
0000
1003
0010
1000
1000
0001
0010
,
0100
0000
0010
0000
0100
0000
1000
0010
1000
0001
0100
0000
0100
0000
0002
0000
,
0013
0001
0100
0000
0100
0000
0010
1000
0100
0010
0100
0000
0100
0000
1000
0010
,
0100
0000
0000
0000
0000
0000
0001
0000
0000
0000
0000
0000
0100
0000
0000
0000
0000
0000
0010
0000
0000
0000
0000
0000
1000
0000
0000
0100
0000
0000
0010
0000
0000
0000
0000
0000
0010
0000
0000
0000
0000
0000
0001
0000
1000
0000
0001
0000
,
2000
0000
0000
3000
0220
0000
0000
0330
1002
0000
1003
0010
0100
0001
1000
0001
,
1001
0000
0000
0000
0011
0000
0000
0000
0101
0000
0000
1010
0000
0000
1100
0000
,
0000
0100
0010
0000
0011
0000
0001
0000
0100
0000
0100
0010
1000
0000
1000
0001
,
1001
0000
0000
0000
0101
0000
0000
0000
0110
0000
0000
1010
0000
0000
1000
0100
,
0000
0100
0010
0000
0010
0001
1000
0001
1000
0000
0010
0100
0001
0000
0010
0000
,
00M0
0000
0000
0000
;

//---------------dance-single - Loodee----------------
#NOTEDATA:;
#CHARTNAME:Loodee;
#STEPSTYPE:dance-single;
#DESCRIPTION:Loodee;
#CHARTSTYLE:;
#DIFFICULTY:Hard;
#METER:9;
#RADARVALUES:0.618755,0.682389,0.351566,0.428910,0.386722,616.000000,566.000000,50.000000,61.000000,0.000000,0.000000,2.000000,0.000000,0.000000,0.618755,0.682389,0.351566,0.428910,0.386722,616.000000,566.000000,50.000000,61.000000,0.000000,0.000000,2.000000,0.000000,0.000000;
#CREDIT:Loodee;
#DISPLAYBPM:140.000000;
#NOTES:
// measure 0
0000
0000
0000
0000
,  // measure 1
0000
0000
0000
0000
,  // measure 2
0000
0000
0000
0000
,  // measure 3
0000
0000
0000
0000
,  // measure 4
1000
0100
0010
0100
1000
0001
0100
0001
,  // measure 5
1000
0000
0000
1000
0010
0000
0000
0100
0000
0100
0000
0000
0001
0000
0010
0000
,  // measure 6
0200
0000
0000
0000
1300
0000
0001
1000
0010
0100
0010
0100
0001
0000
1000
0000
,  // measure 7
0100
0000
1000
0001
1000
0000
0010
0000
0100
0001
0100
0001
1000
0100
1000
0100
,  // measure 8
0000
0010
0001
1000
0001
1000
0010
1000
,  // measure 9
0002
0000
0000
0000
0013
0000
0000
0100
0020
0000
0000
0000
0031
0000
0000
0000
,  // measure 10
1001
0000
0000
0000
1000
0000
0000
1000
0010
0000
0100
0000
0001
0000
1000
0000
,  // measure 11
2002
0000
0000
3003
0220
0000
0000
0330
2002
0000
0000
3003
0022
0000
0033
2200
,  // measure 12
0000
0000
0000
3300
1000
0000
0001
0000
0100
0000
0010
0000
0100
0000
0001
0000
,  // measure 13
1000
0000
0000
1000
0001
0000
0000
0010
0000
0010
0000
0000
0100
0000
0010
0000
,  // measure 14
0002
0000
0000
0000
1003
0000
0100
0010
0100
0010
0001
1000
0001
0000
0000
0000
,  // measure 15
0100
0000
0010
1000
0010
0000
0100
0000
0001
1000
0001
0000
1000
0100
1000
0000
,  // measure 16
0200
0000
0000
0000
0310
0000
0001
0010
0001
0000
1000
0000
0010
0000
0200
0000
,  // measure 17
0000
0301
1000
0002
0000
0013
0100
1000
,  // measure 18
0010
0000
1000
0000
0100
0010
0000
0010
0002
0000
0000
0000
0103
0000
0020
0000
,  // measure 19
0000
1030
0200
0000
0310
0100
0001
0100
,  // measure 20
2000
0000
0000
0000
3001
0000
0100
0010
0100
0000
0001
0000
1000
0000
0020
0000
,  // measure 21
0000
0130
0001
2000
0000
3100
0010
0100
,  // measure 22
1000
0000
1000
0000
0010
0100
0000
0100
0002
0000
0000
0000
1003
0000
0200
0000
,  // measure 23
0000
1300
0020
0000
0130
0010
0001
0010
,  // measure 24
1000
0000
0000
0000
1001
0000
0000
0001
0100
0000
0001
0000
0010
0000
0100
0000
,  // measure 25
1000
0000
0000
0000
1100
0000
0000
0100
0010
0000
0001
0000
1000
0000
0010
0000
,  // measure 26
0100
0000
0000
0000
0101
0000
0000
0001
1000
0000
0100
0000
1000
0000
0010
0000
,  // measure 27
0200
0000
0302
0000
0013
0100
1000
1000
,  // measure 28
0100
0000
0000
0010
0100
0000
0000
1000
0001
0000
0100
0000
0010
0000
1000
0000
,  // measure 29
0001
0000
0000
0010
0001
0000
0000
1000
0010
0000
0100
0000
0001
0000
2000
0000
,  // measure 30
0000
0000
3100
0020
0000
0031
0100
0001
,  // measure 31
1000
0100
1000
0100
1000
0000
0001
0100
0001
0100
0001
0000
1000
0000
0000
0000
,  // measure 32
0010
0000
0000
0000
0110
0000
0000
0100
0001
0000
1000
0000
0100
0000
0010
0000
,  // measure 33
0100
0000
0010
0000
0010
0000
0001
1000
0002
0000
0000
0000
0203
0000
0000
0000
,  // measure 34
0310
0000
0000
0000
1010
0000
1000
0001
0000
0000
1000
0000
0100
0000
0010
0000
,  // measure 35
0002
0000
0000
0000
0203
0000
0000
0000
0310
0000
1000
0000
0001
0010
0100
0010
,  // measure 36
0001
0000
0000
0000
1001
0000
0000
1000
0010
0000
0100
0000
0010
0000
1000
0000
,  // measure 37
0001
0000
0001
0010
0100
0010
0001
1000
,  // measure 38
0010
0000
0000
0000
0110
0000
0100
0001
0000
0000
1000
0000
0100
0000
0010
0000
,  // measure 39
0002
0000
0000
0000
0023
0000
0000
0000
0230
0000
0000
0000
1300
0001
1000
0000
,  // measure 40
0010
0000
0100
0010
0000
1000
0010
0000
0100
0000
0001
0000
0010
0000
0100
0000
,  // measure 41
0002
0000
0000
0000
0103
0000
0000
1000
0100
0000
1000
0000
0001
0100
0001
0100
,  // measure 42
0010
0000
1000
0000
0001
0000
1000
0000
0100
0010
0100
0000
1000
0000
0001
0000
,  // measure 43
0202
0000
0000
0303
0220
0000
0000
0330
2020
0000
0000
3030
1010
0000
0000
1000
,  // measure 44
0002
0000
0000
0000
0013
0000
0100
0000
1000
0100
1000
0000
0001
0000
0100
0000
,  // measure 45
0010
0000
0000
0010
1000
0000
0000
1000
0002
0000
0000
0000
0023
0000
0000
0000
,  // measure 46
0130
0000
0000
0000
0010
0000
0001
0000
1000
0010
0100
0010
1000
0000
0001
0000
,  // measure 47
1001
0000
0000
0000
1100
0000
0000
0000
0110
0000
0000
0000
0011
0000
0000
0001
,  // measure 48
0000
1000
0000
0001
0000
0000
0100
0000
0010
1000
0000
0001
0000
1000
0000
0000
,  // measure 49
0200
0320
0032
0203
,  // measure 50
0310
0000
1000
0000
0001
0010
0001
0010
0100
0000
1000
0000
0001
0000
0100
0000
,  // measure 51
0101
0000
0000
0000
1001
0000
0000
0000
1100
0000
0000
0000
0110
0000
0000
0011
,  // measure 52
0000
0000
0001
0000
1000
0000
0010
0000
0100
0001
0100
0000
0010
0000
1000
0000
,  // measure 53
0100
0000
0000
0100
0010
0000
0000
0001
0000
0001
0000
0000
1000
0000
0010
0000
,  // measure 54
0200
0302
2003
3001
,  // measure 55
1001
0000
0001
0100
0001
0000
1000
0000
0100
0010
0100
0000
1000
0001
1000
0001
,  // measure 56
1000
0000
1010
0010
1000
0000
1001
0001
,  // measure 57
0010
0000
0110
0100
1000
0000
1000
0001
,  // measure 58
0101
0101
0101
0101
,  // measure 59
0001
0000
1000
0100
1000
0000
0000
0040
0000
0130
0001
0000
0000
0000
4000
0000
,  // measure 60
3100
0010
0100
0010
0100
0000
1000
0001
1000
0001
1000
0000
0010
0000
0000
0000
,  // measure 61
0100
0000
0000
0000
0101
0000
0000
0001
1000
0000
0100
0000
0010
0000
0001
0000
,  // measure 62
0100
0000
0001
0000
0001
0000
1000
0100
2000
0000
0000
0000
3020
0000
0000
0000
,  // measure 63
0130
0000
0000
0000
0110
0000
0010
1000
0000
0000
0001
0000
0010
0000
0100
0000
,  // measure 64
0020
0000
0000
0000
0032
0000
0000
0000
0103
0000
0010
0000
1000
0001
0100
0001
,  // measure 65
1000
0000
0000
0000
1100
0000
0000
0100
0010
0000
0100
0000
1000
0000
0001
0000
,  // measure 66
0100
0000
0010
0100
0001
0100
0010
1000
,  // measure 67
0001
0000
0000
0000
0011
0000
0010
0100
0000
0000
0010
0000
0001
0000
1000
0000
,  // measure 68
1010
0000
0000
0000
0110
0000
0000
0000
0101
0000
0000
0000
0001
1000
0001
0000
,  // measure 69
0010
0000
0100
0000
0010
0000
0010
0001
0000
0000
0001
0000
1000
0000
0010
0000
,  // measure 70
0100
0000
0010
0000
0010
0000
1000
0001
0000
0000
0001
0000
0001
0000
0010
0100
,  // measure 71
1000
0000
0001
0000
1000
0000
1000
0010
0000
0000
0010
0000
0100
0000
0001
0000
,  // measure 72
1000
0002
0000
0000
2003
0000
0000
0000
3200
0000
0000
0000
0310
0001
0010
0000
,  // measure 73
0100
0000
1000
0000
0001
0000
0001
0100
0000
0000
0100
0000
0010
0000
1000
0000
,  // measure 74
0001
0000
0010
0000
0010
0000
0001
1000
0000
0000
1000
0000
1000
0000
0010
0100
,  // measure 75
0001
0000
1000
0000
0001
0000
0001
0010
0000
0000
0010
0000
0100
0000
1000
0000
,  // measure 76
0001
0000
0000
0000
0110
0000
0000
0000
1001
0000
0000
0000
1000
0010
1000
0010
,  // measure 77
1000
0000
0000
0000
1001
0000
0000
0000
0011
0000
0000
0011
0000
0000
1001
0000
,  // measure 78
0000
1000
0001
0000
1000
0000
0010
0000
0100
0000
0100
0001
0100
0000
0010
0000
,  // measure 79
0100
0000
0000
0000
0110
0000
0000
0000
0101
0000
0000
0101
0000
0000
0100
0000
,  // measure 80
0000
0010
1000
0000
0001
0000
1000
0000
0100
0000
0100
0010
0001
0000
1000
0000
;

//---------------dance-single - Loodee----------------
#NOTEDATA:;
#CHARTNAME:Loodee;
#STEPSTYPE:dance-single;
#DESCRIPTION:Loodee;
#CHARTSTYLE:;
#DIFFICULTY:Medium;
#METER:7;
#RADARVALUES:0.464067,0.454926,0.210939,0.569536,0.045704,462.000000,432.000000,30.000000,81.000000,0.000000,0.000000,0.000000,0.000000,0.000000,0.464067,0.454926,0.210939,0.569536,0.045704,462.000000,432.000000,30.000000,81.000000,0.000000,0.000000,0.000000,0.000000,0.000000;
#CREDIT:Loodee;
#DISPLAYBPM:140.000000;
#NOTES:
0000
0000
0000
0000
,
0000
0000
0000
0000
,
0000
0000
0000
0000
,
0000
0000
0000
0000
,
0001
1000
0010
1000
0001
1000
0100
0000
,
0010
0000
0000
0000
0010
0000
0000
0001
0000
0001
0000
0000
1000
0000
0010
0000
,
0200
0000
0301
1000
0100
0010
0001
0010
,
0100
0000
0000
0000
1100
0000
0000
0000
1000
0000
0010
0000
1000
0000
0000
0100
,
0000
0010
0001
1000
0001
0100
0001
1000
,
0020
0000
0130
0000
0002
0000
1003
0100
,
0010
0000
0110
0000
0100
1000
0001
1000
,
0020
0000
0000
0030
0200
0000
0000
0300
0020
0000
0000
0030
0002
0000
0003
0020
,
0000
0000
0000
0030
1000
0000
0001
0000
0010
0000
0100
0000
0010
0000
0000
0000
,
0001
0000
0000
0000
0001
0000
0000
1000
0000
1000
0000
0000
0010
0000
0100
0000
,
0002
0000
1003
0100
1000
0001
0100
0000
,
0110
0000
0010
1000
0001
0010
0100
1000
,
0100
0000
1100
0000
1000
0001
1000
0020
,
0000
0130
0001
0200
0000
0310
1000
0001
,
0010
0100
0010
0001
2000
0000
3010
0200
,
0000
0301
0020
0000
0130
1000
0010
0000
,
2000
0000
3002
0000
0013
0100
0010
0002
,
0000
1003
0010
2000
0000
3001
0010
0100
,
0010
0001
0001
1000
0002
0000
0103
0020
,
0000
0130
0002
0000
1003
1000
0100
0000
,
0010
0000
0011
0000
0001
1000
0010
1000
,
0100
0000
1100
0000
1000
0010
1000
0001
,
0100
0000
0110
0000
0010
1000
0100
1000
,
0001
0000
0101
0000
0100
0010
0100
0100
,
0001
0000
1001
0000
1000
0100
0010
0001
,
0010
0000
0110
0000
0100
0010
0001
1000
,
0020
0000
0130
0001
0000
1000
0001
1000
,
0200
0000
0300
0020
0000
0030
0001
0000
,
1000
0000
0000
0000
1010
0000
0000
0020
0000
0000
0130
0000
0001
0000
1000
0000
,
0100
0000
0010
0001
0020
0000
0230
0000
,
1300
0001
1000
0010
0100
0000
0001
0000
,
0020
0000
0230
0000
2300
0000
3010
0100
,
0001
0000
0000
0000
1000
0000
0000
0002
0000
0000
0013
0000
0100
0000
0010
0000
,
0001
0000
0100
0010
1000
0010
0100
0000
,
0002
0000
1003
0000
0100
0010
0100
1000
,
0020
0230
0302
0003
,
1000
0000
1000
0100
0010
0100
1000
0010
,
0200
0000
0301
0000
0001
1000
0001
0100
,
0020
2030
3002
0013
,
0110
0000
1001
0000
0110
0000
1000
0001
,
0200
0000
0310
0000
1000
0001
1000
0010
,
0200
0302
0023
0032
,
1003
0100
0010
0000
0001
0100
0010
1000
,
0002
2003
3200
0320
,
0130
1000
0100
0000
0100
0010
0001
0000
,
0002
0203
0320
2030
,
3001
0000
0100
0010
0100
0001
1000
0001
,
0020
0230
2300
3200
,
0300
0010
0001
1000
0010
1000
0001
0100
,
0020
0000
1030
0001
1000
0100
0010
0001
,
0200
0320
2030
3001
,
1001
0000
0001
0010
0100
1000
0100
0100
,
1000
1001
0001
0101
,
0100
0110
0010
1000
,
1001
0110
1001
0110
,
1002
0000
0000
0000
0003
0000
0000
0020
0000
0030
0000
0000
0000
0000
0001
0000
,
2000
0000
3010
0200
0000
0301
1000
0000
,
0100
0000
0000
0000
0110
0000
0000
0020
0000
0000
0031
0000
1000
0000
0001
0000
,
0100
0000
0010
1000
0002
0000
0023
0000
,
0130
0010
0001
0010
0001
0000
1000
0000
,
0020
0000
0230
0000
0302
0000
1003
0100
,
1000
0000
0000
0000
0100
0000
0000
0020
0000
0000
0031
0000
1000
0000
0001
0000
,
0100
0000
0010
1000
0001
1000
0010
0000
,
0200
0000
0301
0010
0100
1000
0100
1000
,
0002
0203
0320
1030
,
0100
0010
0100
0000
1000
0001
0100
0001
,
1000
0100
0100
0000
0010
0001
1000
0001
,
0100
0000
0100
0000
0001
0010
0100
1000
,
0200
0000
0320
0000
0032
0000
0103
0010
,
0100
0001
0100
0000
0010
1000
0100
0010
,
0100
1000
1000
0001
1000
0010
0100
0001
,
1000
0000
1000
0000
0100
0010
0001
0010
,
0002
0203
0320
0030
,
1010
0000
0000
0000
0110
0000
0000
0000
1001
0000
0000
0001
0000
0000
1000
0000
,
0000
0000
0100
0010
0100
0000
1000
0000
,
1001
0000
0000
0000
0110
0000
0000
0000
1001
0000
0000
1000
0000
0000
0100
0000
,
0000
0000
0010
0001
0100
0100
0010
1000
;

//---------------dance-single - Loodee----------------
#NOTEDATA:;
#CHARTNAME:Loodee;
#STEPSTYPE:dance-single;
#DESCRIPTION:Loodee;
#CHARTSTYLE:;
#DIFFICULTY:Easy;
#METER:5;
#RADARVALUES:0.361610,0.369627,0.014063,0.077344,0.000000,360.000000,358.000000,2.000000,11.000000,0.000000,0.000000,0.000000,0.000000,0.000000,0.361610,0.369627,0.014063,0.077344,0.000000,360.000000,358.000000,2.000000,11.000000,0.000000,0.000000,0.000000,0.000000,0.000000;
#CREDIT:Loodee;
#DISPLAYBPM:140.000000;
#NOTES:
0000
0000
0000
0000
,
0000
0000
0000
0000
,
0000
0000
0000
0000
,
0000
0000
0000
0000
,
0001
1000
0001
0000
0010
0100
0010
0000
,
0100
0100
1000
0001
,
0100
0000
0010
0000
1000
0001
1000
0000
,
0100
0000
0010
0001
0010
0000
0100
0000
,
0000
1000
0100
0000
1000
0001
1000
0000
,
0010
0000
0100
0000
0001
0010
0001
0000
,
1000
0100
0010
0100
,
2000
0000
0000
3000
0002
0000
0000
0003
2000
0000
0000
3000
0010
0000
0000
0000
,
0000
0000
0100
0001
0100
0000
0010
0000
,
1000
1000
0001
0010
,
0100
0000
0010
0000
0001
1000
0001
0000
,
0100
0000
0010
0000
1000
0000
1000
0100
,
1000
0000
0001
0000
0100
0000
0100
0020
,
0000
0000
1030
0010
0000
0100
0001
0000
,
1000
0100
1000
0100
1000
0000
0001
0100
,
0000
0100
0001
0000
0010
0100
1000
0000
,
0100
0000
0010
0000
0001
0000
0001
0100
,
0000
0000
0100
0010
0000
1000
0010
0000
,
0100
0001
0100
0001
0100
0000
0010
0000
,
0000
1000
0001
0000
0010
0100
0010
0000
,
0001
0000
0001
0000
0100
0010
1000
0000
,
0100
0000
0100
0000
0010
0001
1000
0000
,
0010
0000
0010
0000
0100
0001
1000
0000
,
0100
0000
0100
0000
1000
0100
0010
0000
,
0100
0000
0100
0000
1000
0001
0100
0000
,
0010
0000
0010
0000
0100
0001
0100
0000
,
0001
0000
0001
0000
0010
0100
1000
0000
,
0200
0000
0300
2000
0000
3000
0001
0000
,
0100
0000
0010
0000
0100
0010
1000
0000
,
0001
0000
0010
0100
0010
0000
0001
0000
,
1000
0000
0010
0000
0100
0001
1000
0000
,
0100
0000
0010
0000
0001
0000
1000
0001
,
1000
0000
0010
0000
0100
0001
1000
0000
,
0100
0000
0010
0001
0010
0000
0100
0000
,
0010
0000
0001
0000
1000
0010
0100
0000
,
0001
1000
0100
0000
,
0010
0000
0001
0000
0010
0001
0010
0100
,
1000
0000
0010
0000
1000
0000
0100
0010
,
0001
0100
0010
1000
,
0002
0000
0000
0003
0020
0000
0000
0030
0200
0000
0000
0300
1000
0000
0000
0000
,
1000
0000
0010
0000
0100
0001
0100
0010
,
0100
0001
2000
0000
,
3100
0000
0000
0000
0010
0001
0100
0001
,
1000
0010
0100
0001
,
1000
1000
1000
1000
,
1000
0100
0010
0001
0100
0000
0001
0000
,
0000
0000
0100
0010
0100
0000
0001
0000
,
0010
0100
1000
0010
,
0000
0000
0100
0001
0100
0000
0010
0000
,
1000
0000
0001
0000
0010
0100
1000
0100
,
0010
0001
0100
0010
,
0110
0000
1001
0000
,
0001
1000
0001
1000
,
0100
0010
0100
0010
,
0001
0001
0001
0001
,
0200
0000
0000
0300
0000
0000
0000
0000
,
0010
0000
0000
1000
0000
0000
0001
0000
,
0010
0000
0100
0000
1000
0001
0100
0000
,
0010
0000
1000
0100
1000
0000
0001
0000
,
0100
0000
0010
0000
1000
0100
0010
0000
,
0001
0000
0100
0000
0001
0000
0010
0001
,
1000
0000
0010
0000
0100
0001
1000
0000
,
0100
0000
0010
0100
1000
0000
0010
0000
,
0100
0000
0001
0000
0100
0010
1000
0000
,
0100
0010
0001
0000
,
0100
0000
0100
0000
0100
0010
1000
0001
,
0010
0000
0010
0000
0010
0100
1000
0100
,
0010
0000
0010
0000
0001
0100
0001
0100
,
0010
1000
0001
0000
,
1000
0000
1000
0000
1000
0100
0010
0001
,
0010
0000
0010
0000
0010
0001
1000
0001
,
0100
0000
0100
0000
0100
0010
1000
0010
,
0100
0001
0010
0000
,
0001
0000
0001
0000
1000
0000
0000
1000
,
0000
0010
0100
0000
0010
0000
0010
0000
,
0100
0000
0100
0000
0001
0000
0000
0001
,
0000
0010
0100
0000
0010
0010
0001
1000
;

//---------------dance-single - Loodee----------------
#NOTEDATA:;
#CHARTNAME:Loodee;
#STEPSTYPE:dance-single;
#DESCRIPTION:Loodee;
#CHARTSTYLE:;
#DIFFICULTY:Beginner;
#METER:2;
#RADARVALUES:0.076340,0.141505,0.007031,0.000000,0.000000,76.000000,75.000000,1.000000,0.000000,0.000000,0.000000,0.000000,0.000000,0.000000,0.076340,0.141505,0.007031,0.000000,0.000000,76.000000,75.000000,1.000000,0.000000,0.000000,0.000000,0.000000,0.000000,0.000000;
#CREDIT:Loodee;
#DISPLAYBPM:140.000000;
#NOTES:
0000
0000
0000
0000
,
0000
0000
0000
0000
,
0000
0000
0000
0000
,
0000
0000
0000
0000
,
0001
0000
0000
0000
,
0000
0000
0000
0000
,
0001
0000
0000
0000
,
1000
0000
0000
0000
,
0000
0000
0000
0000
,
1000
0000
0000
0000
,
0100
0000
0000
0000
,
1000
0000
0000
0000
,
0000
0000
0000
0000
,
0001
0000
0000
0000
,
0010
0000
0000
0000
,
0001
0000
0001
0000
,
0001
0000
0000
0000
,
1000
0000
0000
0000
,
0001
0000
0000
0000
,
0000
1000
0000
0000
,
1000
0000
0000
0000
,
0100
0000
0000
0000
,
1000
0000
0000
0000
,
0000
0001
0000
0000
,
0001
0000
0000
0000
,
0010
0000
0000
0000
,
0100
0000
0000
0000
,
1000
0000
0000
0000
,
0100
0000
0000
0000
,
0010
0000
0000
0000
,
0001
0000
0000
0000
,
1000
0000
0000
0000
,
1000
0000
0000
0000
,
0010
0000
0000
0000
,
1000
0000
0000
0000
,
0001
0000
0000
0000
,
0001
0000
0000
0000
,
0100
0000
0000
0000
,
0001
0000
0000
0000
,
1000
0000
0000
0000
,
1000
0000
0000
0000
,
0100
0000
0000
0000
,
1000
0000
0000
0000
,
0010
0000
0010
0000
,
0000
0000
0000
0000
,
0100
0000
0000
0000
,
0001
0000
0000
0000
,
1000
0000
1000
0000
,
0000
0000
0100
0000
,
0000
0000
0010
0000
,
0000
0000
0000
0000
,
0001
0000
0001
0000
,
0000
0000
0000
0000
,
0100
0000
0000
0000
,
0010
0000
0000
0000
,
1000
0000
0000
0000
,
1000
0000
1000
0000
,
1000
0000
1000
0000
,
0001
0000
1000
0000
,
0001
0000
0000
0000
,
0000
0000
0000
0000
,
0001
0000
0000
0000
,
0100
0000
0000
0000
,
0010
0000
0000
0000
,
1000
0000
0000
0000
,
1000
0000
0000
0000
,
0010
0000
0000
0000
,
0100
0000
0000
0000
,
0001
0000
0000
0000
,
1000
0000
0000
0000
,
0000
0100
0000
0000
,
1000
0000
0000
0000
,
0000
0000
0000
0000
,
0001
0000
0000
0000
,
0000
0000
0000
0000
,
0010
0000
0000
0000
,
0001
0000
1000
0000
,
0001
0000
0000
0000
,
0000
0000
0000
0000
,
1001
0000
0000
0000
,
0000
0000
0100
0000
;
