#VERSION:0.83;
#TITLE:Headshot;
#SUBTITLE:;
#ARTIST:she;
#TITLETRANSLIT:;
#SUBTITLETRANSLIT:;
#ARTISTTRANSLIT:;
#GENRE:;
#ORIGIN:;
#CREDIT:Loodee;
#BANNER:Headshot-bn.png;
#BACKGROUND:Headshot-bg-wide.png;
#PREVIEWVID:;
#JACKET:Headshot-jacket.png;
#CDIMAGE:;
#DISCIMAGE:;
#LYRICSPATH:;
#CDTITLE:loodeecdtitle.png;
#MUSIC:Headshot.ogg;
#OFFSET:-0.083000;
#SAMPLESTART:52.839001;
#SAMPLELENGTH:16.879000;
#SELECTABLE:YES;
#DISPLAYBPM:114.000000;
#BPMS:0.000=113.752,
74.000=227.504,
74.125=113.752,
74.188=56.876,
74.250=113.752,
74.500=227.504,
74.625=113.752,
74.688=56.876,
74.750=113.752,
130.000=227.504,
130.125=113.752,
130.188=56.876,
130.250=227.504,
130.375=113.752,
130.438=56.876,
130.500=227.504,
130.625=113.752,
130.688=56.876,
130.750=113.752,
250.000=227.504,
250.125=113.752,
250.188=56.876,
250.250=113.752,
250.500=227.504,
250.625=113.752,
250.688=56.876,
250.750=113.752;
#STOPS:32.000=0.923;
#DELAYS:;
#WARPS:32.000=17.750;
#TIMESIGNATURES:0.000=4=4;
#TICKCOUNTS:0.000=4;
#COMBOS:0.000=1;
#SPEEDS:0.000=1.000=0.000=0;
#SCROLLS:0.000=1.000;
#FAKES:;
#LABELS:0.000=Song Start;
#BGCHANGES:;
#KEYSOUNDS:;
#ATTACKS:
;

//---------------dance-single - Loodee----------------
#NOTEDATA:;
#CHARTNAME:Loodee;
#STEPSTYPE:dance-single;
#DESCRIPTION:Loodee;
#CHARTSTYLE:;
#DIFFICULTY:Challenge;
#METER:10;
#RADARVALUES:0.670330,0.774627,0.330769,0.646154,0.780769,610.000000,567.000000,43.000000,84.000000,10.000000,0.000000,3.000000,0.000000,14.000000,0.670330,0.774627,0.330769,0.646154,0.780769,610.000000,567.000000,43.000000,84.000000,10.000000,0.000000,3.000000,0.000000,14.000000;
#CREDIT:Loodee;
#DISPLAYBPM:114.000000;
#NOTES:
0000
0000
0000
0000
,
0000
0000
0000
0000
,
0000
0000
0000
0000
,
0000
0000
0000
0000
0000
0000
0001
0010
,
0001
1000
0010
0000
0100
0000
0000
0000
0001
0000
0000
0000
1000
0000
0100
0000
,
1000
0010
0100
0000
0001
0000
0000
0000
1000
0000
0000
0000
0001
0000
0100
0000
,
0001
0010
0100
0000
1000
0000
0000
0000
0001
0000
0000
0000
0100
0000
0010
0000
,
1000
0100
0010
0000
0001
0000
0000
0000
0020
0000
0000
0000
0100
0000
0000
0000
,
0030
M00M
M00M
0MM0
0MM0
M00M
M00M
0000
0000
0000
0000
0000
0000
0000
0000
0000
0000
0000
0000
0000
0000
0000
0000
0000
0000
0000
0000
0000
0000
0000
0000
0000
,
0000
0000
0000
0000
,
0000
0000
0000
0000
,
0000
0000
0000
0000
,
0000
0000
0000
0000
0000
0000
0000
0000
0000
0000
0000
0000
0000
0MM0
M00M
M00M
M00M
M00M
0MM0
0000
0000
0000
0000
0000
1001
0000
0000
0000
0000
0000
0000
0000
,
0001
1000
0000
1000
1100
0000
0100
0010
0001
0100
0010
0000
1010
1000
0002
0000
,
0013
0100
0010
0001
1000
0010
0400
0000
0310
1000
0001
0000
0011
0010
2000
0000
,
3010
0000
0001
1000
0010
1000
0001
0010
0100
1000
0010
1000
0001
0000
0010
0000
,
1001
0000
1000
0010
0100
0000
1000
0100
0010
0000
0002
0000
0013
0100
0002
0000
,
1003
0100
0000
0100
0110
0000
0010
0001
1000
0001
0100
0000
0110
0010
2000
0000
,
3100
0010
0001
0100
1000
0100
0010
0010
1000
0001
1000
0001
0010
0100
0002
0000
,
0103
0000
1000
0001
0100
0001
0010
0100
0010
0001
0100
0000
0110
0000
0010
0000
,
1001
0000
1000
0100
0010
0000
0100
0010
0001
1000
0010
0100
0001
0010
0001
0000
,
0201
0000
0320
0000
0100
0000
1030
0100
0000
0010
0100
1000
0002
0000
0013
0000
,
0201
0000
0320
0000
0100
0000
1030
0100
0000
0010
0100
1000
0002
0000
0013
0000
,
1200
0000
0320
0000
0001
0000
0031
0100
0000
0010
1000
0001
0200
0000
0301
0000
,
1200
0000
0320
0000
0001
0000
0031
0100
0000
0010
1000
0001
0200
0000
0301
0000
,
2001
0000
3020
0000
0100
0000
0130
0001
0000
1000
0001
1000
0200
0000
0310
0000
,
2001
0000
3020
0000
0100
0000
0130
0001
0000
1000
0001
1000
0200
0000
0310
0000
,
0021
0000
0230
0000
0010
0000
0310
0001
0000
1000
0010
1000
0200
0000
0310
0000
,
0021
0000
0230
0000
0010
0000
0310
0001
0100
0010
1000
0000
0020
0000
0230
0000
,
0302
0000
0000
0003
1001
0000
0000
1000
0010
0100
0001
0010
0000
0100
0020
0000
,
0031
1000
0010
0100
0000
0001
0000
0010
0200
0000
0000
1300
0010
1000
0002
0000
,
0023
0000
0000
0030
0011
0000
0001
1000
0010
1000
0001
0010
0000
0100
0020
0000
,
0031
1000
0010
0100
0010
1000
0000
1000
0001
0100
0001
0100
0010
0002
0000
0000
,
0023
0000
0000
0000
1030
0001
0010
0100
1000
0001
1000
0100
1000
0010
0200
0000
,
0301
0010
0100
1000
0000
0100
0000
0010
0100
0010
0002
0000
0103
0010
2000
0000
,
3001
0010
0001
0100
0010
1000
0100
0010
0001
0010
0100
1000
0010
0100
0002
0000
,
0103
0010
1000
0001
0100
0000
0000
0000
0200
0000
0000
0000
0310
1000
0001
0000
,
0010
0001
0100
0000
0010
1000
0000
2000
0000
3000
0000
0000
0101
0000
0100
0000
,
0001
1000
0001
0000
0020
0000
0000
0000
0230
0000
0000
0000
1300
0000
0010
0000
,
0100
0001
1000
0000
1100
0000
0100
0010
0001
0000
0000
0000
0101
0000
0100
0000
,
0010
1000
0001
0010
0000
0100
1000
0001
1000
0000
0010
0000
0210
0000
0000
0000
,
0301
1000
0100
0000
0010
0001
0000
0000
0200
0000
0000
0000
0310
0000
1000
0000
,
0001
0010
0001
0000
0200
0000
0000
0000
0320
0000
0000
0000
1030
0000
0001
0000
,
1000
0100
0010
0000
0110
0000
0100
1000
0001
0000
0000
0000
1001
0000
1000
0000
,
0010
0100
0001
0010
0000
0100
0000
0010
0001
0000
1000
0000
1020
0000
0030
0000
,
0200
0000
0000
0000
0000
0000
0302
0000
0000
0000
0000
0000
0013
0100
1000
0000
,
0020
0000
0000
0000
0000
0000
0230
0000
0000
0000
0000
0000
0301
1000
0100
0000
,
0020
0000
0000
0230
0000
0000
1300
0001
,
2000
0000
0000
0000
0000
0000
3002
0000
0000
0000
0000
0000
0203
0000
0000
0300
,
0101
0000
0001
1000
0100
0000
0100
0001
0000
0100
1000
0001
0100
0010
1000
0000
,
1001
0000
0001
0100
0010
0000
0010
0001
0000
0010
1000
0001
0010
0100
1000
0000
,
1100
0000
1000
0001
0100
0000
0100
1000
0000
0100
0001
1000
0001
0010
0100
0000
,
0110
0000
0010
0001
0010
0000
0010
1000
0000
0010
0001
0100
0020
0000
0031
0000
,
0021
0000
2030
0000
0001
0000
3001
0020
0000
0000
0130
0000
0020
0000
1030
0000
,
1020
0000
0230
0000
1000
0000
1300
0002
0000
0000
0103
0000
0020
0000
0031
0000
,
0021
0000
0230
0000
0001
0000
0301
2000
0000
0000
3010
0000
0200
0000
1300
0000
,
1200
0000
0302
0000
1000
0000
1003
0100
0010
0001
0000
0001
0100
0010
2000
0000
,
3001
0100
0000
0010
0110
0000
0100
0001
1000
0100
0010
0000
0011
0001
0200
0000
,
0310
1000
0001
0010
0100
0001
0400
0000
1300
0001
1000
0000
1010
0010
0002
0000
,
0013
0000
0100
0001
1000
0010
1000
0100
0010
0001
0100
0000
0110
0000
0010
0000
,
1001
0000
0001
0010
0100
0000
0001
0100
0010
0000
2000
0000
3010
0100
2000
0000
,
3001
0000
0100
0001
0000
0000
1000
0000
1010
0000
0000
0000
0010
0000
0100
0000
0001
0000
0010
0000
0100
0000
0000
0000
1100
0000
1000
0000
0020
0000
0000
0000
,
1030
0001
0010
0100
0001
0100
0010
0010
0001
1000
0001
1000
0010
0100
2000
0000
,
3100
0000
0010
0100
0001
1000
0100
0010
0100
1000
0001
0000
0101
0000
0100
0000
,
1010
0000
0000
0000
0010
0000
0100
0000
0001
0000
0000
0000
0010
0000
0100
0000
0001
0000
0100
0000
1000
0000
0010
0000
0400
0000
0000
0000
0000
0000
0000
0300
;

//---------------dance-single - Loodee----------------
#NOTEDATA:;
#CHARTNAME:Loodee;
#STEPSTYPE:dance-single;
#DESCRIPTION:Loodee;
#CHARTSTYLE:;
#DIFFICULTY:Hard;
#METER:8;
#RADARVALUES:0.474725,0.550000,0.100000,0.784615,0.284615,432.000000,419.000000,13.000000,102.000000,8.000000,0.000000,0.000000,0.000000,10.000000,0.474725,0.550000,0.100000,0.784615,0.284615,432.000000,419.000000,13.000000,102.000000,8.000000,0.000000,0.000000,0.000000,10.000000;
#CREDIT:Loodee;
#DISPLAYBPM:114.000000;
#NOTES:
0000
0000
0000
0000
,
0000
0000
0000
0000
,
0000
0000
0000
0000
,
0000
0000
0000
0000
,
0001
1000
0100
0020
0000
0031
0100
0010
,
1000
0001
0010
0200
0000
1300
0010
1000
,
0001
0100
0010
2000
0000
3001
1000
0100
,
0010
0000
0001
0000
0100
0000
0020
0000
0000
0000
0100
0000
0100
0000
0000
0030
,
0000
0000
0000
0000
0000
0000
M00M
0000
0000
0000
0000
0000
M0M0
0000
0000
0000
0M00
0000
M000
0000
0000
0000
0000
0000
M0M0
0000
0000
0000
0000
0000
0M0M
0000
0000
0000
0000
0000
0000
0000
0000
0000
0000
0000
0000
0000
0000
0000
0000
0000
0000
0000
0000
0000
0000
0000
0000
0000
0000
0000
0000
0000
0000
0000
0000
0000
0000
0000
0000
0000
0000
0000
0000
0000
0000
0000
0000
0000
0000
0000
0000
0000
0000
0000
0000
0000
0000
0000
0000
0000
0000
0000
0000
0000
0000
0000
0000
0000
0000
0000
0000
0000
0000
0000
0000
0000
0000
0000
0000
0000
0000
0000
0000
0000
0000
0000
0000
0000
0000
0000
0000
0000
0000
0000
0000
0000
0000
0000
0000
0000
0000
0000
0000
0000
0000
0000
0000
0000
0000
0000
0000
0000
0000
0000
0000
0000
0000
0000
0000
0000
0000
0000
0000
0000
0000
0000
0000
0000
0000
0000
0000
0000
0000
0000
0000
0000
0000
0000
0000
0000
0000
0000
0000
0000
0000
0000
0000
0000
0000
0000
0000
0000
0000
0000
0000
0000
0000
0000
0000
0000
0000
0000
0000
0000
,
0000
0000
0000
0000
,
0000
0000
0000
0000
,
0000
0000
0000
0000
,
0000
0000
0000
0000
0000
0000
0000
0000
0000
0000
0000
0000
0000
0000
M00M
M00M
M00M
M00M
0000
0000
0000
0000
0000
0000
1001
0000
0000
0000
0000
0000
0000
0000
,
0001
0100
0000
0001
1000
0000
0010
0100
0010
0000
1000
0000
0002
0000
0023
0000
,
0130
1000
0100
0000
1000
0000
0001
0000
0100
0001
0000
0000
2002
0000
3003
0000
,
0001
0010
1000
0010
0100
1000
0001
0100
,
0010
0000
1000
0001
1000
0000
0100
0000
0010
0000
0002
0000
2003
0000
3020
0000
,
0130
0001
0000
1000
0001
0000
0010
0100
0010
0000
0001
0000
0200
0000
0302
0000
,
1003
0000
0100
0000
1000
0000
0001
1000
0000
0100
0000
0100
2000
0000
0000
0000
,
3010
0100
1000
0100
0001
1000
0100
0010
,
0001
0000
1000
0010
1000
0000
0001
0000
0010
0000
0100
0000
0020
0000
0032
0000
,
2003
0000
0010
0000
0010
0000
0000
3001
0000
0001
0100
0000
0020
0000
2030
0000
,
3002
0000
0010
0000
0010
0000
0000
1003
0000
1000
0100
0000
2000
0000
3020
0000
,
0230
0000
0001
0000
0001
0000
0000
0310
0000
0010
1000
0000
0002
0000
0203
0000
,
0320
0000
1000
0000
1000
0000
0000
0130
0000
0100
0001
0000
0020
0000
0230
0000
,
2300
0000
3100
0000
0100
0000
0010
0001
0000
0000
0001
0000
2000
0000
3020
0000
,
0230
0000
0301
0000
0001
0000
1000
0100
0000
0000
0100
0000
2000
0000
3002
0000
,
0023
0000
0130
0000
0100
0000
1000
0001
0000
0000
0001
0000
0200
0000
0302
0000
,
0023
0000
0031
0000
0001
0000
1000
0010
0000
0000
0010
0000
0200
0000
0302
0000
,
2003
0000
0000
3000
1100
0000
0000
0000
0100
0000
0010
0001
0000
0010
0001
0000
,
1000
0000
0010
0100
0000
0010
0000
0200
0000
0000
0000
0000
0301
0000
0010
0000
,
0200
0000
0000
0300
0110
0000
0000
0000
0010
0000
0001
1000
0000
0001
1000
0000
,
0010
0000
0100
0000
0001
0000
0010
0000
0100
1000
0100
1000
0200
0000
0000
0000
,
0320
0000
0031
0100
1000
0100
0001
0010
,
0100
0000
1000
0100
0000
1000
0000
0200
0000
0000
0000
0000
0310
0000
0001
0000
,
0200
0000
0310
0100
1000
0100
0001
0010
,
1000
0010
0100
1000
0002
0000
0203
0000
,
0301
1000
0001
0000
0101
0000
0000
0000
0001
0000
0100
0000
0010
0000
1000
0000
,
0200
0320
0032
0203
,
0310
1000
0010
0000
1001
0000
0000
0000
1000
0000
0100
0000
0010
0000
0100
0000
,
0020
0000
0032
0203
0000
0320
0000
2030
,
3001
0010
0001
0000
0011
0000
0000
0000
0001
0000
1000
0000
0010
0000
0100
0000
,
0002
2003
3200
2300
,
3010
0100
0010
0000
1001
0000
0000
0000
0001
0000
0010
0000
0100
0000
0010
0000
,
0002
0000
0203
0320
0000
2030
0000
3002
,
0010
0000
2003
3020
,
0230
0000
0302
0023
,
0230
0000
2300
3020
,
0230
0000
0302
0013
,
1100
0000
1000
0000
0001
0000
1000
0010
0000
1000
0010
0000
0100
0000
0001
0000
,
0011
0000
0010
0000
0100
0000
1000
0100
0000
1000
0100
0000
0010
0000
0001
0000
,
1001
0000
1000
0000
0010
0000
0100
0001
0000
0100
0001
0000
0010
0000
0100
0000
,
1100
0000
1000
0000
0001
0000
0100
0010
0000
0100
0010
0000
1000
0000
0001
0000
,
0020
0000
0100
0000
0130
0000
1000
0002
0000
0000
0203
0000
2300
0000
3100
0000
,
0020
0000
1000
0000
1030
0000
0001
0020
0000
0000
0230
0000
0302
0000
0103
0000
,
2000
0000
0001
0000
3001
0000
0100
0020
0000
0000
0230
0000
2300
0000
3200
0000
,
0302
0000
0010
0000
0013
0000
0100
1000
0100
0000
0010
0000
0001
0000
0100
0000
,
0010
1000
0000
1000
0010
0000
0100
0001
0100
0000
0010
0000
2000
0000
3200
0000
,
0310
0001
0010
0000
0100
0000
1000
0000
0001
1000
0000
0000
2020
0000
3030
0000
,
0010
0100
0001
0010
0100
0001
0100
1000
,
0010
0000
1000
0001
1000
0000
0010
0000
0100
0000
0002
0000
0023
0000
0230
0000
,
1300
0001
0000
0001
1000
0000
0010
0100
0010
0000
0100
0000
0002
0000
0023
0000
,
0130
0000
1000
0000
0001
0000
0100
0010
0000
1000
0000
1000
0002
0000
0000
0000
,
0013
0100
0001
0100
1000
0010
0100
0010
,
1000
0000
0001
0010
0001
0000
1000
0000
0010
0000
0100
0000
2000
0000
0000
0000
,
3000
0000
0000
0000
;

//---------------dance-single - Loodee----------------
#NOTEDATA:;
#CHARTNAME:Loodee;
#STEPSTYPE:dance-single;
#DESCRIPTION:Loodee;
#CHARTSTYLE:;
#DIFFICULTY:Medium;
#METER:5;
#RADARVALUES:0.315385,0.374639,0.092308,0.153846,0.000000,287.000000,275.000000,12.000000,20.000000,0.000000,0.000000,0.000000,0.000000,0.000000,0.315385,0.374639,0.092308,0.153846,0.000000,287.000000,275.000000,12.000000,20.000000,0.000000,0.000000,0.000000,0.000000,0.000000;
#CREDIT:Loodee;
#DISPLAYBPM:114.000000;
#NOTES:
0000
0000
0000
0000
,
0000
0000
0000
0000
,
0000
0000
0000
0000
,
0000
0000
0000
0000
,
0001
0010
0001
0010
0000
0000
0001
0000
,
1000
0010
1000
0010
0000
0000
0100
0000
,
0001
1000
0001
1000
0000
0000
0100
0000
,
0010
0000
0100
0000
0010
0000
0200
0000
0000
0000
0000
0000
0000
0000
0000
0300
,
0000
0000
0000
0000
,
0000
0000
0000
0000
,
0000
0000
0000
0000
,
0000
0000
0000
0000
,
0000
0000
0000
0000
,
1000
0000
1010
0000
0010
0100
0001
0100
,
0010
0000
1001
0000
1000
0100
0020
0000
,
0130
0000
1000
0000
0001
0100
0010
1000
,
0001
0000
0010
0000
0100
0010
0001
0000
,
1000
0000
1100
0000
0100
1000
0100
0010
,
0100
0000
0110
0000
0010
0010
0002
0000
,
0103
0000
0010
1000
0001
1000
0100
0000
,
0010
0000
0100
0000
1000
0001
1000
0000
,
0020
0000
0100
0000
0000
1000
1030
0000
,
0020
0000
0100
0000
0000
1000
1030
0000
,
0002
0000
0010
0000
0000
1000
1003
0000
,
0002
0000
0010
0000
0000
1000
1003
0000
,
0010
0000
0100
0001
1000
0000
0100
1000
,
0010
0000
0100
0001
1000
0000
0100
1000
,
0001
0000
0100
0010
1000
0000
0100
0010
,
0001
0000
0100
0010
1000
0000
0100
0010
,
0200
0000
1300
0000
0001
0100
0001
0000
,
0010
0100
0010
0001
0010
0000
0001
0000
,
0200
0000
0310
0000
1000
0010
1000
0000
,
0001
0100
0001
1000
0200
0000
0320
0000
,
0230
0000
1300
0001
1000
0010
1000
0001
,
1000
0010
0100
0001
,
0020
0000
0130
1000
0100
0010
0100
1000
,
0100
0010
0001
0100
,
0020
0000
1030
0000
1000
0000
0100
0010
,
0001
1000
0001
0100
,
0001
0000
0010
0000
0100
0000
1000
0001
,
0100
0000
0010
1000
0000
0010
0000
0000
,
1000
0000
0001
0000
0010
0000
0100
0010
,
0001
1000
0010
1000
,
0001
0000
0100
0000
0010
0000
1000
0100
,
1000
0000
0001
0010
0000
0100
0000
1000
,
0200
0000
0000
0000
,
0320
0000
0000
0000
,
0032
0000
0000
0000
,
0003
0000
0000
0000
,
1000
0000
1001
0000
0000
0001
0010
0100
,
1000
0000
1001
0000
0000
0001
0010
0100
,
0010
0000
1001
0000
0000
1000
0010
0100
,
0010
0000
1001
0000
0000
1000
0010
0100
,
0001
0100
0000
0000
0010
1000
0100
1000
,
0001
0100
0000
0000
0010
1000
0100
1000
,
0001
0010
0000
0000
0100
1000
0100
0010
,
0001
0010
0000
0000
0100
1000
0100
0010
,
0100
0000
1100
0000
1000
0001
0100
0001
,
1000
0000
1010
0000
0010
0100
0020
0000
,
1030
0000
0001
0000
0010
0100
1000
0100
,
0010
0000
0001
0000
1000
0010
0100
0000
,
0010
0000
0110
0000
0100
0001
0100
0001
,
1000
0000
1001
0000
0001
0001
0020
0000
,
0130
0000
1000
0100
0010
0100
1000
0000
,
0010
0000
0000
0000
0100
0000
0000
0000
0001
0000
1000
0000
0020
0000
0000
0030
;

//---------------dance-single - Loodee----------------
#NOTEDATA:;
#CHARTNAME:Loodee;
#STEPSTYPE:dance-single;
#DESCRIPTION:Loodee;
#CHARTSTYLE:;
#DIFFICULTY:Easy;
#METER:3;
#RADARVALUES:0.171429,0.225000,0.000000,0.115385,0.000000,156.000000,156.000000,0.000000,15.000000,0.000000,0.000000,0.000000,0.000000,0.000000,0.171429,0.225000,0.000000,0.115385,0.000000,156.000000,156.000000,0.000000,15.000000,0.000000,0.000000,0.000000,0.000000,0.000000;
#CREDIT:Loodee;
#DISPLAYBPM:114.000000;
#NOTES:
0000
0000
0000
0000
,
0000
0000
0000
0000
,
0000
0000
0000
0000
,
0000
0000
0000
0000
,
0001
1000
0001
0000
,
0010
0100
0010
0000
,
0001
1000
0001
0000
,
0100
0000
0010
0000
0200
0000
0000
0300
,
0000
0000
0000
0000
,
0000
0000
0000
0000
,
0000
0000
0000
0000
,
0000
0000
0000
0000
,
0000
0000
0000
0000
,
1000
0100
1000
1000
,
0001
0100
0001
0020
,
0030
0100
0000
1000
,
0001
0000
0100
0000
,
0010
1000
0010
0010
,
0100
0001
1000
1000
,
0100
0000
0100
0010
,
0001
0000
0100
0000
,
0020
0000
0000
1030
,
0020
0000
0000
1030
,
0002
0000
0000
0013
,
0002
0000
0000
0013
,
0100
1000
0000
1000
,
0100
1000
0000
1000
,
0001
0100
0000
0100
,
0001
0100
0000
0100
,
0001
1000
0001
0010
,
0010
0100
0100
0000
,
1000
0001
0100
0010
,
0010
1000
1000
0000
,
0100
0010
0001
0010
,
0100
0000
1000
0000
,
0001
0100
0010
0100
,
0001
0000
1000
0000
,
0100
0000
0000
0000
,
0010
0001
0010
0100
,
1000
0000
0000
0000
,
0010
0100
0001
0100
,
0010
0000
0000
0000
,
1000
0100
0010
0100
,
1000
0000
0000
0000
,
0001
0100
0010
1000
,
0002
0000
0000
0003
,
0002
0000
0000
0003
,
0002
0000
0000
0003
,
0000
0000
0000
0000
,
1000
0100
0000
0100
,
1000
0100
0000
0100
,
0010
0001
0000
0001
,
0010
0001
0000
0001
,
0200
0300
0010
1000
,
0200
0300
0010
0001
,
0200
0300
0010
1000
,
0200
0300
0010
0100
,
1000
0001
1000
1000
,
0010
0100
0010
0200
,
0300
0001
0000
1000
,
0001
0000
0010
0000
,
0100
1000
0100
0100
,
1000
0001
1000
1000
,
0001
0000
0100
0010
,
0100
0000
0001
0002
,
0003
0000
0000
0000
;

//---------------dance-single - Loodee----------------
#NOTEDATA:;
#CHARTNAME:Loodee;
#STEPSTYPE:dance-single;
#DESCRIPTION:Loodee;
#CHARTSTYLE:;
#DIFFICULTY:Beginner;
#METER:1;
#RADARVALUES:0.057143,0.150000,0.030769,0.046154,0.000000,52.000000,48.000000,4.000000,6.000000,0.000000,0.000000,0.000000,0.000000,0.000000,0.057143,0.150000,0.030769,0.046154,0.000000,52.000000,48.000000,4.000000,6.000000,0.000000,0.000000,0.000000,0.000000,0.000000;
#CREDIT:Loodee;
#DISPLAYBPM:114.000000;
#NOTES:
// measure 0
0000
0000
0000
0000
,  // measure 1
0000
0000
0000
0000
,  // measure 2
0000
0000
0000
0000
,  // measure 3
0000
0000
0000
0000
,  // measure 4
0001
0000
0000
0000
,  // measure 5
0000
0000
0000
0000
,  // measure 6
0001
0000
0000
0000
,  // measure 7
0000
0000
0000
0000
,  // measure 8
0000
0000
0000
0000
,  // measure 9
0000
0000
0000
0000
,  // measure 10
0000
0000
0000
0000
,  // measure 11
0000
0000
0000
0000
,  // measure 12
0000
0000
0000
0000
,  // measure 13
1000
0000
0000
0000
,  // measure 14
1000
0000
0000
0000
,  // measure 15
0001
0000
0000
0000
,  // measure 16
0001
0000
0000
0000
,  // measure 17
0100
0000
0000
0000
,  // measure 18
0100
0000
0000
0000
,  // measure 19
0010
0000
0000
0000
,  // measure 20
0010
0000
0000
0000
,  // measure 21
2000
0000
3000
0000
,  // measure 22
0002
0000
0003
0000
,  // measure 23
2000
0000
3000
0000
,  // measure 24
0002
0000
0003
0000
,  // measure 25
0010
0000
0000
0000
,  // measure 26
0010
0000
0000
0000
,  // measure 27
0100
0000
0000
0000
,  // measure 28
0100
0000
0000
0000
,  // measure 29
1000
0000
0000
0000
,  // measure 30
0000
0000
0000
0000
,  // measure 31
0010
0000
0000
0000
,  // measure 32
0000
0000
0000
0000
,  // measure 33
0100
0000
0000
0000
,  // measure 34
0000
0000
0000
0000
,  // measure 35
0001
0000
0000
0000
,  // measure 36
0000
0000
0000
0000
,  // measure 37
0010
0000
0000
0000
,  // measure 38
0010
0000
0000
0000
,  // measure 39
0010
0000
0000
0000
,  // measure 40
0010
0000
0000
0000
,  // measure 41
0001
0000
0000
0000
,  // measure 42
0001
0000
0000
0000
,  // measure 43
0001
0000
0000
0000
,  // measure 44
0001
0000
0000
0000
,  // measure 45
2000
0000
0000
0000
,  // measure 46
0000
0000
0000
0000
,  // measure 47
0000
0000
0000
0000
,  // measure 48
3000
0000
0000
0000
,  // measure 49
1001
0000
0000
0000
,  // measure 50
0110
0000
0000
0000
,  // measure 51
1001
0000
0000
0000
,  // measure 52
0110
0000
0000
0000
,  // measure 53
0001
0000
0000
0000
,  // measure 54
0001
0000
0000
0000
,  // measure 55
1000
0000
0000
0000
,  // measure 56
1000
0000
0000
0000
,  // measure 57
0010
0000
0000
0000
,  // measure 58
0010
0000
0000
0000
,  // measure 59
0100
0000
0000
0000
,  // measure 60
0100
0000
0000
0000
,  // measure 61
0001
0000
0000
0000
,  // measure 62
0001
0000
0000
0000
,  // measure 63
1000
0000
0000
0000
,  // measure 64
1000
0000
0000
0200
,  // measure 65
0300
0000
0000
0000
;
