#TITLE:Glimmer;
#SUBTITLE:;
#ARTIST:92elm;
#TITLETRANSLIT:;
#SUBTITLETRANSLIT:;
#ARTISTTRANSLIT:;
#GENRE:Future;
#CREDIT:Feraligatr;
#BANNER:Glimmer.png;
#BACKGROUND:Glimmer-bg.png;
#LYRICSPATH:;
#CDTITLE:cdtitle.png;
#MUSIC:Glimmer.ogg;
#OFFSET:0.012000;
#SAMPLESTART:14.644000;
#SAMPLELENGTH:14.656000;
#SELECTABLE:YES;
#DISPLAYBPM:66.000000:131.000000;
#BPMS:0.000000=131.000000
,35.000000=163.750000
,35.750000=81.875000
,36.000000=131.000000
,37.250000=163.750000
,37.625000=81.875000
,37.750000=131.000000
,38.000000=196.500000
,38.500000=98.250000
,39.000000=131.000000
,45.000000=65.500000
,46.000000=131.000000
,49.000000=196.500000
,49.250000=98.250000
,49.500000=131.000000
,62.000000=196.500000
,62.250000=98.250000
,62.500000=131.000000
,63.000000=196.500000
,63.250000=98.250000
,63.500000=131.000000
,66.250000=163.750000
,66.625000=81.875000
,66.750000=131.000000
,67.000000=196.500000
,67.250000=98.250000
,67.500000=131.000000
,82.500000=163.750000
,82.875000=81.875000
,83.000000=163.750000
,83.375000=81.875000
,83.500000=163.750000
,83.875000=81.875000
,84.000000=131.000000
,124.000000=196.500000
,124.250000=98.250000
,124.500000=131.000000
,130.000000=196.500000
,130.250000=98.250000
,130.500000=131.000000
,188.000000=196.500000
,188.250000=98.250000
,188.500000=131.000000
,190.000000=196.500000
,190.250000=98.250000
,190.500000=131.000000
,191.000000=196.500000
,191.250000=98.250000
,191.500000=131.000000
,194.000000=196.500000
,194.250000=98.250000
,194.500000=131.000000
,220.000000=65.500000
;
#STOPS:34.000000=0.458000,
48.000000=0.458000,
60.000000=0.458000
;
#BGCHANGES:;
#KEYSOUNDS:;
#ATTACKS:;

//---------------dance-single - Feraligatr----------------
#NOTES:
     dance-single:
     Feraligatr:
     Challenge:
     11:
     0.713075,0.748411,0.474576,0.686441,0.724576,452.000000,56.000000,81.000000,23.000000,0.000000,15.000000,0.713075,0.748411,0.474576,0.686441,0.724576,452.000000,56.000000,81.000000,23.000000,0.000000,15.000000:
0000
0000
0000
0000
,
0000
0000
0000
0000
,
0000
0000
0000
0000
,
0000
0000
0000
0000
,
0001
0000
0000
0000
0000
0000
0000
0000
0000
0000
0000
0000
0000
0000
0000
0000
0000
0000
0000
0000
0000
0000
0000
0000
0000
0000
0000
0000
0000
0000
0000
0000
0000
0000
0000
0000
0000
0000
0000
0000
0000
0000
0000
0000
0000
0000
0000
0000
0001
0000
0000
0000
0000
0000
0000
0000
0000
0000
0000
0000
0000
0000
0000
0000
0000
0000
0000
0000
0000
0000
1000
0000
0000
0000
0000
0000
0000
0000
0000
0000
0000
0000
0000
0000
0000
0000
0000
0000
0000
0000
0000
0000
0000
0000
0000
0000
0001
0000
0000
0000
0000
0000
0010
0000
0000
0000
0000
0000
0000
0000
0000
0000
0000
0000
0000
0000
0000
0000
0000
0000
0000
0000
0000
0000
0000
0000
0000
0000
0000
0000
0000
0000
0000
0000
0000
0000
0000
0000
0000
0000
0000
0000
0000
0000
0100
0000
0000
0000
0000
0000
0000
0000
0000
0000
0000
0000
0000
0000
0000
0000
0000
0000
0000
0000
0000
0000
0000
0000
0000
0000
0000
0000
0000
0000
0000
0000
0000
0000
0000
0000
0000
0000
0000
0000
0000
0000
0000
0000
0000
0000
0000
0000
,
4000
0000
0000
0000
0000
0000
0000
0000
0000
0000
0000
0000
3000
0000
0000
0000
0000
0000
0000
0000
0000
0000
0000
0000
0000
0000
0000
0000
0000
0000
0000
0000
0000
0000
0000
0000
0040
0000
0000
0000
0000
0000
0000
0000
0000
0000
0000
0000
1030
0000
0000
0000
0000
0000
0000
0000
0000
0000
0000
0000
0000
0000
0000
0000
0000
0000
0000
0000
0000
0000
0001
0000
0000
0000
0000
0000
0000
0000
0000
0000
0000
0000
0000
0000
0000
0000
0000
0000
0000
0000
0000
0000
0000
0000
0000
0000
1000
0000
0000
0000
0000
0000
0100
0000
0000
0000
0000
0000
0000
0000
0000
0000
0000
0000
0000
0000
0000
0000
0000
0000
0000
0000
0000
0000
0000
0000
0000
0000
0000
0000
0000
0000
0000
0000
0000
0000
0000
0000
0000
0000
0000
0000
0000
0000
1000
0000
0000
0000
0000
0000
0000
0000
0001
0000
0000
0000
0000
0000
0000
0000
1000
0000
0000
0000
0000
0000
0000
0000
0000
0000
0000
0000
0000
0000
0000
0000
0000
0000
0000
0000
0000
0000
0000
0000
0000
0000
0000
0000
0000
0000
0000
0000
,
0010
0000
0000
0000
0000
0000
0000
0000
0000
0000
0000
0000
0000
0000
0000
0000
0000
0000
0000
0000
0000
0000
0000
0000
0000
0000
0000
0000
0000
0000
0000
0000
0000
0000
0000
0000
0000
0000
0000
0000
0000
0000
0000
0000
0000
0000
0000
0000
0010
0000
0000
0000
0000
0000
0000
0000
0000
0000
0000
0000
0000
0000
0000
0000
0000
0000
0000
0000
0000
0000
1000
0000
0000
0000
0000
0000
0000
0000
0000
0000
0000
0000
0000
0000
0000
0000
0000
0000
0000
0000
0000
0000
0000
0000
0000
0000
0001
0000
0000
0000
0000
0000
0000
0000
0000
0000
0000
0000
0000
0000
0000
0000
0000
0000
0000
0000
0000
0000
0000
0000
0000
0000
0000
0000
0000
0000
0000
0000
0000
0000
0000
0000
0000
0000
0000
0000
0000
0000
0000
0000
0000
0000
0000
0000
0100
0000
0000
0000
0000
0000
0000
0000
0000
0000
0000
0000
0000
0000
0000
0000
0000
0000
0000
0000
0000
0000
0000
0000
0000
0000
0000
0000
0000
0000
0000
0000
0000
0000
0000
0000
0000
0000
0000
0000
0000
0000
0000
0000
0000
0000
0000
0000
,
0001
0000
0000
0000
0000
0000
0000
0000
0000
1000
0000
0000
0000
0000
0000
0000
0000
0000
0001
0000
0000
0000
0000
0000
0010
0000
0000
0000
0000
0000
0004
0000
0000
0003
0000
0000
0100
0000
0000
0000
0100
0000
0000
0000
0100
0000
0000
0000
,
2010
0000
0002
3000
0013
0000
0200
0000
,
0301
0000
0000
0000
0100
0000
0000
0000
1000
0000
0000
0000
0002
0000
0000
0000
0000
0000
0000
0000
0000
0000
0000
0000
0203
0000
0000
0000
0000
0000
0000
0000
0000
0300
0000
0000
2010
0000
0000
0000
0000
0000
0000
0000
0000
0000
0000
0000
,
0000
3000
2010
0000
0001
0000
0000
3000
2010
0000
0000
0000
0000
0000
3000
0000
,
1000
0000
0000
0000
0000
0000
0000
0000
0001
0000
0000
0000
0000
0000
0000
0000
0010
0000
0000
0000
0000
0000
0000
0000
0100
0000
0000
0000
0000
0000
0000
0000
0010
0000
0000
0000
0000
0000
0000
0000
0001
0000
0000
0000
0000
0000
0000
0000
1MM0
0000
0000
0000
0000
0000
0000
0000
0000
0000
0000
0000
0000
0000
0000
0000
0000
0000
0000
0000
0000
0000
0000
0000
0020
0000
0000
0000
0000
0000
0000
0000
0000
0000
0000
0000
0000
0000
0000
0000
0000
0000
0030
0000
0000
0000
0000
0000
M1M2
0000
0000
0000
0000
0000
0000
0000
0000
0000
0000
0000
0000
0000
0000
0000
0000
0000
0000
0000
0000
0000
0000
0000
0000
0000
0000
0000
0000
0000
0000
0000
0000
0000
0000
0000
0000
0000
0000
0000
0000
0000
0000
0000
0000
0000
0000
0000
2000
0000
0000
0000
0000
0000
0000
0000
0000
0000
0000
0000
0000
0000
0000
0000
0000
0000
0000
0000
0000
0000
0000
0000
0003
0000
0000
0000
0000
0000
0000
0000
0000
0000
0000
0000
0000
0000
0000
0000
0000
0000
0000
0000
0000
0000
0000
0000
,
3100
0000
0000
0000
0000
0000
0000
0000
0020
0000
0000
0000
0000
0000
0030
0000
0012
0000
0000
0000
0013
0M00
0010
0000
1000
0000
0000
0000
0010
0000
0000
0000
,
0001
0000
0010
0000
0000
0000
0100
0000
0100
0100
0000
0100
0001
0000
1000
0000
,
0100
0000
0000
0000
0000
0000
0100
0000
0000
0100
0000
0000
0010
0000
0000
0000
0000
0000
0000
0000
0000
0010
0001
0000
0000
0000
0000
0000
0000
0000
1000
0001
0000
0000
0000
0000
0100
0000
0000
0010
0000
0000
0000
0000
0000
1000
0000
0000
,
0MMM
0000
0000
0000
0002
0000
0023
0000
0230
0000
0000
0000
0000
0300
0000
0000
2100
0000
0000
0000
3000
0000
0000
0000
0002
0000
0000
0000
0003
0000
0000
0000
,
0200
0000
0000
0310
0000
0000
0001
0000
0010
0000
1000
0000
0002
0000
0000
0000
0000
0000
0023
0000
0000
0030
0001
1000
,
0001
0010
0100
1000
0010
0100
0001
0000
0000
2001
0000
0000
,
3200
0000
0000
0000
0310
0100
1000
0001
0100
0000
0000
0010
0000
0000
1000
0000
,
1002
0000
0000
0000
0000
0000
0000
0000
0023
0000
0000
0000
0031
0000
0000
0000
2000
0000
0000
0000
3010
0000
0100
0001
2000
0000
0000
0000
0000
0000
0000
0000
,
0000
3000
1100
0000
0120
0000
0000
0030
0011
0000
0001
0000
1000
0000
0010
0000
,
0210
0000
0000
0001
0000
0000
0301
0000
1000
0001
0001
0000
0200
0320
1030
1000
,
0001
0000
0000
0000
0000
0000
0000
0000
0000
0000
0000
0000
0000
0000
0000
0000
0000
0000
0000
0000
0000
0000
0000
0000
1000
0000
0000
0000
0000
0000
0100
0000
0000
0000
0000
0000
1000
0000
0000
0000
0000
0000
0100
0000
0000
0000
0000
0000
0010
0000
0000
0000
0000
0000
0000
0000
0000
0000
0000
0000
0000
0000
0000
0000
0000
0000
0000
0000
0000
0000
0000
0000
0001
0000
0000
0000
0000
0000
0000
0000
0000
0000
0000
0000
0000
0000
0000
0000
0000
0000
0000
0000
0000
0000
0000
0000
0011
0000
0000
0000
0000
0000
0000
0000
0000
0000
0000
0000
0000
0000
0000
0000
0000
0000
0000
0000
0000
0000
0000
0000
1000
0000
0000
0000
0000
0000
0000
0000
0000
0000
0000
0000
0000
0000
0000
0000
0000
0000
0000
0000
0000
0000
0000
0000
0001
0000
0000
0000
1000
0000
0000
0000
0000
0000
0000
0000
0000
0000
0000
0000
0000
0000
0000
0000
0000
0000
0000
0000
0001
0000
0000
0000
0100
0000
0000
0000
0000
0000
0000
0000
0000
0000
0000
0000
0000
0000
0000
0000
0000
0000
0000
0000
,
2010
0000
0000
0000
0000
0000
0000
0000
0000
0000
0000
0000
0000
0000
0000
0000
0004
0000
0000
0000
0003
0000
0000
0000
0004
0000
0000
0000
3003
0000
0000
0000
0101
0000
0000
0000
0000
0000
0000
1000
0000
0000
0000
0000
0000
0000
0000
0000
0000
0000
0000
0000
0000
0000
0000
0000
0010
0000
0000
0000
0000
0000
0000
0000
,
1000
0001
0010
0000
0100
0000
0000
0000
2100
0000
0000
0000
3001
0000
0000
0000
2100
0000
0000
0000
3100
00M0
0100
0000
0001
0000
1000
0000
0100
0000
0000
0000
,
0110
0000
0000
0000
0010
0000
0000
0000
0001
0000
0000
0000
1000
0000
0000
0000
0010
0000
0000
0000
0100
0000
0000
0000
0001
0000
0000
0000
0000
0000
0000
0000
0000
0000
0000
0000
1002
0000
0000
0000
0000
0000
0010
0000
0000
0003
0000
0000
,
0001
0000
0000
0000
0000
0000
0000
0000
0000
0000
0000
0000
0000
0000
0000
0000
0000
0000
0000
0000
0000
0000
0000
0000
1000
0000
0000
0000
0000
0000
0000
0000
0000
0000
0000
0000
0000
0000
0000
0000
0000
0000
0000
0000
0000
0000
0000
0000
0010
0000
0000
0000
0000
0000
0000
0000
0000
1000
0000
0000
0000
0000
0000
0000
0000
0000
0000
0000
0000
0000
0000
0000
0000
0000
0000
0000
0000
0000
0000
0000
0000
0000
0000
0000
0001
0000
0000
0000
0000
0000
0000
0000
0000
0000
0000
0000
1000
0000
0000
0000
0000
0000
0000
0000
0000
0000
0000
0000
0000
0000
0000
0000
0000
0000
0000
0000
0000
0000
0000
0000
0100
0000
0000
0000
0000
0000
0000
0000
0000
0000
0000
0000
0000
0000
0000
0000
0000
0000
0000
0000
0000
0000
0000
0000
0000
0000
0000
0000
0000
0000
0000
0000
0000
0000
0000
0000
0000
0000
0000
0000
0000
0000
0000
0000
0000
0000
0000
0000
0000
0000
0000
0000
0000
0000
0000
0000
1000
0000
0000
0000
0000
0000
0000
0000
0001
0000
0000
0000
0000
0000
0000
0000
,
0100
0000
0000
0000
0000
0000
0000
0000
0000
0000
0000
0000
0000
0000
0000
0000
0010
0000
0000
0000
0000
0000
0000
0000
1000
0000
0000
0000
0000
0000
0000
0000
0100
0000
0000
0000
0000
0000
0000
0000
0040
0030
0000
0000
0000
0000
0000
0000
0001
0000
0000
0000
0000
0000
0000
0000
0000
0000
0000
0000
0000
0000
0000
0000
,
1000
0000
0000
0000
0000
0000
0000
0000
0000
0000
0000
0000
0000
0000
0000
0000
0000
0000
0000
0000
0000
0000
0000
0000
0001
0000
0000
0000
0000
0000
0000
0000
0000
0000
0000
0000
0000
0000
0000
0000
0000
0000
0000
0000
0000
0000
0000
0000
0102
0000
0000
0000
0000
0000
0000
0000
0000
0000
0000
0000
0000
0000
0000
0000
0000
0000
0000
0000
0000
0000
0000
0000
1000
0000
0000
0000
0000
0000
0000
0000
0000
0000
0000
0000
0000
0000
0000
0000
0000
0000
0000
0000
0000
0000
0000
0000
0013
0000
0000
0000
0000
0000
0000
0000
0000
0000
0000
0000
0000
0000
0000
0000
0000
0000
0000
0000
0000
0000
0000
0000
0001
0000
0000
0000
0000
0000
0000
0000
0000
0000
0000
0000
1000
0000
0000
0000
0000
0000
0001
0000
0000
0000
0000
0000
0010
0000
0000
0000
0000
0000
0000
0000
0100
0000
0000
0000
0000
0000
0000
0000
1000
0000
0000
0000
0000
0000
0000
0000
0001
0000
0000
0000
0000
0000
0000
0000
0100
0000
0000
0000
0000
0000
0000
0000
0010
0000
0000
0000
0000
0000
0000
0000
,
1000
0000
0000
0000
0001
0000
0000
0000
0010
0000
0000
0000
0100
0000
0000
0000
0000
0000
1200
0000
0000
0000
0000
0000
0010
0000
0000
0000
0000
0000
0000
0000
0000
0300
0000
0000
1200
0000
0000
0000
0000
0000
1000
0000
0000
0000
0000
0000
,
0000
0000
1000
0000
1300
0000
0001
1000
0010
0000
0100
0000
0100
0001
0010
0100
,
1000
0000
0000
0000
0002
0000
0203
0000
0320
0000
0000
0000
1000
0030
0000
0000
1010
0000
0000
0000
1000
0000
0000
0000
0004
0000
0003
0000
0004
0000
0003
0000
,
1000
0000
0001
0000
0010
0000
0000
0000
0100
0000
0000
0000
0000
0000
0000
0000
2100
0000
0000
0000
0000
0000
0000
0000
0001
0000
0000
0000
3000
0000
0000
0000
0102
0000
0000
0000
0000
0000
0000
0000
0103
0000
0000
0001
0000
0000
0000
0000
1000
0000
0000
0000
0100
0000
0000
0000
M100
0000
0000
0000
0000
0000
0000
0000
,
0101
0001
1000
1100
0100
0010
0001
0000
0000
1002
0000
0000
,
0000
0000
0000
0000
0000
0000
0000
0000
0000
0000
0000
0000
0000
0000
0000
0000
0000
0000
0000
0000
0000
0000
0000
0000
0013
0000
0000
0000
0000
0000
0000
0000
0000
0000
0000
0000
0000
0000
0000
0000
0000
0000
0000
0000
0000
0000
0000
0000
0001
0000
0000
0000
0000
0000
0000
0000
0000
1000
0000
0000
0000
0000
0000
0000
0000
0000
0000
0000
0000
0000
0000
0000
0000
0000
0000
0000
0000
0000
0000
0000
0000
0000
0000
0000
0001
0000
0000
0000
0000
0000
0000
0000
0000
0000
0000
0000
0100
0000
0000
0000
0000
0000
0000
0000
0000
0000
0000
0000
0000
0000
0000
0000
0000
0000
0000
0000
0000
0000
0000
0000
0001
0000
0000
0000
0000
0000
0000
1000
0000
0000
0000
0000
0000
0000
0000
0000
0000
0000
0000
0000
0000
0000
0000
0000
0020
0000
0000
0000
0000
0000
0000
0000
0000
0000
0000
0000
0000
0000
0000
0000
0000
0000
0000
0000
0000
0000
0000
0000
0000
0000
0000
0000
0000
0000
0000
0000
0000
0000
0000
0000
0030
0000
0000
0000
0000
0000
0000
0000
0000
0000
0000
0000
,
0210
0000
0000
0000
0000
0000
0000
0000
0000
0000
0000
0000
0001
0000
0000
0000
0000
0000
0000
0000
0000
0000
0000
0000
0010
0000
0000
0000
0300
0000
0000
0000
1010
0000
0000
0000
0000
0000
0000
0000
4000
3000
0000
0000
0000
0000
0000
0000
0001
0000
0000
0000
0000
0000
0000
0000
0010
0000
0000
0000
0000
0000
0000
0000
,
0210
0000
0000
0300
0010
0001
0010
0000
0011
0000
0000
0000
0210
0000
0000
0300
,
2100
0000
0000
0001
0000
0000
3001
0000
1000
0001
0001
0000
0000
0000
0001
0000
,
0100
0000
0000
0000
0000
0000
0000
0000
0000
0001
0000
0000
0000
0000
0000
0000
0000
0000
0001
0000
0000
0001
0000
0000
0100
0000
0000
0000
0000
0000
0040
0000
0000
0030
0000
0000
1000
0000
0000
0000
1000
0000
0000
0000
1000
0000
0000
0000
,
1200
0000
0000
0000
0000
0000
0000
0000
0000
000M
00M0
000M
00M0
000M
00M0
000M
03M0
000M
M000
0M00
0000
0000
0000
0000
0000
0000
0000
0000
0001
0000
0000
0000
,
1000
0000
0000
0000
0000
0000
0001
0000
0000
0000
0000
0000
0100
0000
0000
0000
0000
0000
0000
0000
0000
0000
0000
0000
0010
0000
0000
0000
0000
0000
0000
0000
0000
0000
0000
0000
0000
0000
0000
0000
0000
0000
0000
0000
0000
0000
0000
0000
2010
0000
0000
0000
0000
0000
0000
0000
0000
0000
0000
0000
0000
0000
0000
0000
0000
0000
0000
0000
0000
0000
0000
0000
0001
0000
0000
0000
0000
0000
0000
0000
0000
0000
0000
0000
3000
0000
0000
0000
0000
0000
0000
0000
0000
0000
0000
0000
2001
0000
0000
0000
0000
0000
0000
0000
0000
0000
0000
0000
0000
0000
0000
0000
0000
0000
0000
0000
3000
0000
0000
0000
0010
0000
0000
0000
0000
0000
0000
0000
0000
1000
0000
0000
0000
0000
0000
0000
0000
0000
0000
0000
0000
0000
0000
0000
0001
0000
0000
0000
0000
0000
0000
0000
0000
0000
0000
0000
0100
0000
0000
0000
0000
0000
0000
0000
0000
0000
0000
0000
010M
0000
0000
0000
0000
0000
0000
0000
0000
0000
0000
0000
0000
0000
0000
0000
0000
0000
0000
0000
0000
0000
0000
0000
,
1200
0000
0310
0001
0010
1000
0010
0100
1000
1100
0001
0100
,
0010
0000
0000
0000
0000
0000
0000
0000
0100
0000
0000
0000
0002
0000
0000
0000
1000
0000
0003
0000
0000
0001
0000
0000
0010
0000
0000
0000
0000
0000
0200
0000
0000
0000
0000
0000
1000
0000
0000
0300
0000
0000
0000
0000
0100
0000
1000
0000
,
0001
0000
0000
0000
0000
0000
0000
0000
0000
0000
0000
0000
0000
0000
0000
0000
0100
0000
0000
0000
0000
0000
0000
0000
0001
0000
0000
0000
0000
0000
0000
0000
0010
0000
0000
0000
0000
0000
0000
0000
0400
0300
0000
0000
0000
0000
0000
0000
1000
0000
0000
0000
0000
0000
0000
0000
0000
0000
0000
0000
0000
0000
0000
0000
,
0001
0000
0000
0000
0000
0000
0000
0000
0000
0000
0000
0000
0000
0000
0000
0000
0000
0000
0000
0000
0000
0000
0000
0000
0100
0000
0000
0000
0000
0000
0000
0000
0000
0000
0000
0000
0000
0000
0000
0000
0000
0000
0000
0000
0000
0000
0000
0000
0210
0000
0000
0000
0000
0000
0000
0000
0000
0000
0000
0000
0000
0000
0000
0000
0000
0000
0000
0000
0000
0000
0000
0000
0001
0000
0000
0000
0000
0000
0000
0000
0000
0000
0000
0000
0000
0000
0000
0000
0000
0000
0000
0000
0000
0000
0000
0000
0310
0000
0000
0000
0000
0000
0000
0000
0000
0000
0000
0000
0000
0000
0000
0000
0000
0000
0000
0000
0000
0000
0000
0000
1000
0000
0000
0000
0000
0000
0000
0000
0000
0000
0000
0000
0001
0000
0000
0000
0000
0000
1000
0000
0000
0000
0000
0000
0010
0000
0000
0000
0000
0000
0000
0000
0100
0000
0000
0000
0000
0000
0000
0000
0001
0000
0000
0000
0000
0000
0000
0000
1000
0000
0000
0000
0000
0000
0000
0000
0100
0000
0000
0000
0000
0000
0000
0000
0010
0000
0000
0000
0000
0000
0000
0000
,
0001
0000
1000
0000
0001
0000
0100
0000
0000
0120
0000
0000
1030
0000
0001
0000
0010
0000
0110
0000
0100
0000
1000
0000
,
0001
0000
0000
0000
0000
0000
0000
0000
0100
0000
0000
0000
0000
0000
0000
0000
0010
0000
1000
0000
0000
0001
0000
0000
0010
0000
0000
0000
0000
0000
0100
0000
0000
0000
0000
0000
0100
0000
0000
1000
0000
0000
0010
0000
0000
0100
0000
0000
,
0001
0000
0000
0000
2000
0000
3002
0000
0023
0000
0000
0000
0000
0030
0000
0000
0210
0000
0000
0000
1300
0000
0000
0000
0004
0000
0003
0000
0004
0000
0003
0000
,
0001
0000
1000
0000
0010
0000
0000
0000
0100
0000
0000
0000
0000
0000
0000
0000
0102
0000
0000
0000
0000
0000
0000
0000
1000
0000
0000
0000
0003
0000
0000
0000
2001
0000
0000
0000
0000
0000
0000
0000
3100
0000
0000
1000
0000
0000
0000
0000
0001
0000
0000
0000
0100
0000
0000
0000
010M
0000
0000
0000
0000
0000
0000
0000
,
1100
1000
0001
1001
1000
0010
0100
0000
0000
0201
0000
0000
,
0000
0000
0000
0000
0000
0000
0000
0000
0000
0000
0000
0000
0000
0000
0000
0000
0000
0000
0000
0000
0000
0000
0000
0000
0310
0000
0000
0000
0000
0000
0000
0000
0000
0000
0000
0000
0000
0000
0000
0000
0000
0000
0000
0000
0000
0000
0000
0000
1000
0000
0000
0000
0000
0000
0000
0000
0000
0001
0000
0000
0000
0000
0000
0000
0000
0000
0000
0000
0000
0000
0000
0000
0000
0000
0000
0000
0000
0000
0000
0000
0000
0000
0000
0000
0010
0000
0000
0000
0000
0000
0000
0000
0000
0000
0000
0000
0001
0000
0000
0000
0000
0000
0000
0000
0000
0000
0000
0000
0000
0000
0000
0000
0000
0000
0000
0000
0000
0000
0000
0000
1000
0000
0000
0000
0000
0000
0000
0001
0000
0000
0000
0000
0000
0000
0000
0000
0000
0000
0000
0000
0000
0000
0000
0000
0200
0000
0000
0000
0000
0000
0000
0000
0000
0000
0000
0000
0000
0000
0000
0000
0000
0000
0000
0000
0000
0000
0000
0000
0000
0000
0000
0000
0000
0000
0000
0000
0000
0000
0000
0000
0300
0000
0000
0000
0000
0000
0000
0000
0000
0000
0000
0000
,
0102
0000
0000
0000
0000
0000
0000
0000
0000
0000
0000
0000
0000
0000
0000
0000
0000
0000
0000
0000
0000
0000
0000
0000
0000
0000
0000
0000
0000
0000
0000
0000
1003
0000
0000
0000
0000
0000
0000
0000
0000
0000
0000
0000
0000
0000
0000
0000
0001
0000
0000
0000
0000
0000
0000
0000
0000
0000
0000
0000
0000
0000
0000
0000
0000
0000
0000
0000
0000
0000
0010
0000
0000
0000
0000
0000
0000
0000
0000
0000
0000
0000
0000
0000
0000
0000
0000
0000
0000
0000
0000
0000
0000
0000
0000
0000
0100
0000
0000
0000
0000
0000
0000
0000
0000
0000
0000
0000
0000
0000
0000
0000
0000
0000
0000
0000
0000
0000
0000
0000
4000
0000
0000
3000
0000
0000
0000
0000
0000
0000
0000
0000
0000
0000
0000
0000
0000
0000
0000
0000
0000
0000
0000
0000
0001
0000
0000
0000
0000
0000
0000
0000
0000
0000
0000
0000
0000
0000
0000
0000
0000
0000
0000
0000
0000
0000
0000
0000
0100
0000
0000
0000
0000
0000
0000
0000
0000
0000
0000
0000
0000
0000
0000
0000
0000
0000
0000
0000
0000
0000
0000
0000
,
0120
0000
0000
0000
0000
0000
0000
0000
0000
0000
0000
0000
0130
0000
0000
0001
0000
0000
0100
0000
0000
0000
0000
0000
0101
0000
0000
0000
0000
0000
0000
0000
0000
0000
0000
0000
0001
0000
1000
0000
0001
0000
0000
0000
0000
0000
0000
0000
,
2100
0000
3001
0100
,
0001
0000
0000
0000
0000
0000
0000
0000
0000
1000
0000
0000
0000
0000
0000
0000
0000
0000
0001
0000
0000
0000
0000
0000
0010
0000
0000
0000
0000
0000
0400
0000
0000
0300
0000
0000
1000
0000
0000
0000
1000
0000
0000
0000
1000
0000
0000
0000
,
1020
0000
0000
0000
0000
0000
0000
0000
0000
0000
0000
0000
0000
0000
0000
0000
0000
0000
0000
0000
0000
0000
0000
0000
0000
0000
0000
0000
0000
0000
0000
0000
0000
0000
0000
0000
0000
0000
0000
0000
0000
0000
0000
0000
0000
0000
0000
0000
0100
0000
0000
0000
0000
0000
0000
0000
0000
0000
0000
0000
0000
0000
0000
0000
0000
0000
0000
0000
0000
0000
0000
0000
1000
0000
0000
0000
0000
0000
0000
0000
0000
0000
0000
0000
0000
0000
0000
0000
0000
0000
0000
0000
0000
0000
0000
0000
0001
0000
0000
0000
0000
0000
0000
0000
0000
0000
0000
0000
0000
0000
0000
0000
0000
0000
0000
0000
0000
0000
0000
0000
0100
0000
0000
0000
0000
0000
0000
0000
0000
0000
0000
0000
0000
0000
0000
0000
0030
0000
0000
0000
0000
0000
0000
0000
2010
0000
0000
0000
0000
0000
0000
0000
0000
0000
0000
0000
0000
0000
0000
0000
0000
0000
0000
0000
0000
0000
0000
0000
0000
0000
0000
0000
0000
0000
0000
0000
0000
0000
0000
0000
0000
0000
0000
0000
0000
0000
3000
0000
0000
0000
0000
0000
,
1002
0000
0000
0000
0000
0000
0000
0000
0000
0000
0000
0000
0000
0000
0000
0000
0010
0000
0000
0000
0000
0000
0000
0000
1003
0001
0200
0000
0000
0000
0000
0000
0000
0000
0000
0000
0000
0000
0000
0000
0000
0000
0000
0000
0000
0000
0000
0000
0000
0000
0000
0000
0000
0000
0000
0000
0020
0000
0000
0000
0300
0000
0000
0000
,
0130
0001
2000
0000
0000
0000
0000
0000
0000
0000
0000
0000
0000
0000
0000
0000
3001
0020
0000
0000
0000
0000
0000
0000
0000
0000
0000
0000
0000
0000
0000
0000
0130
2000
0000
0000
0000
0000
0000
0000
0000
0000
0000
0000
0000
0000
0000
0000
3100
1000
0002
0000
0000
0000
0000
0000
0000
0000
0000
0000
0000
0000
0000
0000
,
0000
0000
0203
0000
0000
0000
0000
0320
0000
0000
0000
0000
2030
0000
0000
0000
0000
0000
0000
0000
3001
0010
0200
0000
0000
0000
0000
0000
0000
0000
0000
0000
0000
0000
0000
0000
0000
0000
0000
0000
0000
0000
0000
0000
0000
0000
0000
0000
0000
0000
0000
0000
0000
0000
0000
0000
0300
0000
0000
0000
0000
0000
0000
0000
;

//---------------dance-single - Feraligatr----------------
#NOTES:
     dance-single:
     :
     Hard:
     9:
     0.567797,0.598729,0.279661,0.584746,0.423729,367.000000,33.000000,69.000000,0.000000,0.000000,5.000000,0.567797,0.598729,0.279661,0.584746,0.423729,367.000000,33.000000,69.000000,0.000000,0.000000,5.000000:
0000
0000
0000
0000
,
0000
0000
0000
0000
,
0000
0000
0000
0000
,
0000
0000
0000
0000
,
0001
0001
0010
0100
,
4000
0000
0000
3000
0000
0000
0000
0000
0000
0004
0000
0000
1003
0000
0000
0000
0000
0000
0000
0000
0000
0000
0000
0000
1000
0000
0000
0000
0000
0000
0000
0000
0000
0000
0000
0000
0001
0000
0100
0000
0001
0000
0000
0000
0000
0000
0000
0000
,
0010
0010
0100
1000
,
0001
0000
0000
0000
0000
0000
0000
0000
0000
1000
0000
0000
0000
0000
0000
0000
0000
0000
0001
0000
0000
0000
0000
0000
0010
0000
0000
0000
0000
0000
0001
0000
0000
0000
0000
0000
0100
0000
0000
0000
0100
0000
0000
0000
0100
0000
0000
0000
,
0210
0000
0002
0300
1003
0000
0002
0000
,
0013
0000
0000
0000
0100
0000
0000
0000
1000
0000
0000
0000
0002
0000
0000
0000
0000
0000
0000
0000
0000
0000
0000
0000
0203
0000
0000
0000
0000
0000
0000
0000
0000
0300
0000
0000
2010
0000
0000
0000
0000
0000
0000
0000
0000
0000
0000
0000
,
0000
3000
2010
0000
0000
0000
0000
3000
2010
0000
0000
0000
0000
0000
3000
0000
,
0004
0000
0000
0000
0000
0000
0000
0000
0013
0000
0000
0000
0200
0000
0000
0300
2100
0000
0000
0000
0000
0000
0000
0000
3002
0000
0000
0000
0000
0000
0000
0000
,
0103
0000
0000
0000
0020
0000
0000
0000
1030
0000
0001
1000
0001
0000
0010
0000
,
1000
0000
0010
0000
0000
0000
0100
0000
1000
0001
0000
0001
1000
0000
0010
0000
,
0100
0000
0100
0001
1000
0000
0000
1100
0000
0000
0011
0000
0001
1000
0000
0100
,
0000
0000
0000
0000
1000
0000
0001
0000
0200
0000
0000
0000
0000
0300
0000
0000
0002
0000
0000
0000
0003
0000
0000
0000
0002
0000
0000
0000
0003
0000
0000
0000
,
0200
0000
0000
0310
0000
0000
1000
0000
0100
0000
0010
0000
0002
0000
0000
0000
0000
0000
2003
0000
0000
3000
0000
0000
,
0001
0010
0001
1000
0001
0100
0010
0000
0000
2010
0000
0000
,
3002
0000
0000
0000
0013
0001
1000
0001
0100
0000
0000
0010
0000
0000
1000
0000
,
1002
0000
0023
0130
2000
3001
2000
0000
,
0000
3000
1100
0000
0120
0000
0000
0000
0031
0000
1000
0000
0001
0000
0100
0000
,
0110
0000
0000
0010
0000
0000
1000
0000
0001
1000
0001
0000
0010
0100
1000
0001
,
1000
0040
0130
0001
1000
0100
0110
0011
,
2001
0000
0001
0001
3010
0000
0000
1000
,
0001
0010
0100
0000
2100
0000
3000
0000
2100
0000
3001
1000
0001
0100
0010
0000
,
1000
0000
0100
0000
0010
0000
0100
0000
1000
0000
0001
0000
0100
0000
0000
0000
0000
0000
0010
0000
0000
1000
0000
0000
,
0001
0000
0000
0000
0000
0000
0010
0000
0000
0000
0000
0000
0100
0000
0000
0000
0000
0000
0000
0000
0000
1000
0000
0000
0001
0000
0000
0000
0000
0000
0100
0000
0000
0000
0000
0000
0000
0000
0000
0000
0000
0000
0000
0000
0001
0000
0100
0000
,
0001
0000
0000
1000
0100
0010
0000
0000
,
0001
0000
1000
0000
0020
0000
0000
0000
0130
0000
0001
1000
0100
0000
0010
0000
,
0002
0000
0000
0000
0003
0000
0012
0000
0000
0000
0000
0003
0012
0000
0000
0000
,
0000
0000
1000
0000
1003
0000
0001
1000
0010
0000
0100
0000
0100
0001
0100
0001
,
1000
0000
0001
1000
0200
0000
0000
0300
0010
0000
0001
0000
1000
0000
1000
0000
,
0010
0100
0001
0000
2000
0000
3001
0000
0020
0000
0130
0000
1000
0100
1000
0000
,
0001
1000
0001
0100
0001
1000
0100
0000
0000
0210
0000
0000
,
0000
0000
0310
0000
0001
0000
0000
1000
0001
0000
0100
0000
0000
0000
0000
0000
,
2010
0000
0000
0000
3001
0010
0100
0010
,
0002
0000
0000
0003
0010
0001
0010
0000
0100
0000
0000
0000
0210
0000
0000
0300
,
2100
0000
0000
3001
0000
0000
1000
0000
0001
0100
0001
0000
0000
0000
1000
0000
,
0010
0000
0000
0000
0000
0000
0000
0000
0000
0100
0000
0000
0000
0000
0000
0000
0000
0000
0001
0000
0000
1000
0000
0000
0001
0000
0000
0000
0000
0000
0010
0000
0000
0000
0000
0000
0100
0000
0000
0000
0100
0000
0000
0000
0100
0000
0000
0000
,
1200
0000
0000
0000
0300
0000
0000
1000
,
0001
0000
0000
0100
0000
0000
0010
0000
0000
0000
0000
0000
2000
0000
0000
0000
0000
0000
0000
0000
0000
3000
0000
0000
2000
0000
0000
0000
0000
3000
0010
0000
0000
0000
0000
0000
0100
0000
0000
0001
0000
0000
1000
0000
0000
0000
0000
0000
,
1002
0000
0000
0003
0100
0000
0010
0000
0100
0000
0001
0000
0100
0000
0010
0000
1000
0000
0001
0000
1000
0000
0001
0000
,
0010
0000
0000
0000
0000
0000
0000
0000
0100
0000
0000
0000
0000
0000
0000
0000
1000
0000
0000
0000
0000
0001
0000
0000
1000
0000
0000
0000
0000
0000
0010
0000
0000
0000
0000
0000
0100
0000
0000
0000
0000
0000
0000
0000
0001
0000
0100
0000
,
0001
0000
0000
1000
0100
0010
0000
0000
,
0001
0000
0100
0000
0020
0000
0000
0000
1030
0000
0001
1000
0100
0000
0010
0000
,
0002
0000
0000
0000
0000
0000
0000
0000
0000
0000
0000
0000
0000
0000
0000
0003
0000
0000
0012
0000
0000
0000
0000
0000
0003
0000
0000
0000
0001
0000
0000
0000
0010
0000
0000
0000
0000
0000
0000
0000
0001
0000
0000
0000
0010
0000
0000
0000
,
0100
0000
0000
0000
0000
0000
0000
0000
1000
0000
0000
0000
0000
0000
0000
0000
0000
0000
0001
0000
0000
1000
0000
0000
0010
0000
0000
0000
0000
0000
0100
0000
0000
0000
0000
0000
0100
0000
0000
0001
0000
0000
1000
0000
0000
0001
0000
0000
,
0010
0000
0100
1000
0002
0000
0000
0003
2001
0000
3000
0000
2000
0000
3000
0000
,
0001
0010
0100
0000
2000
0000
0000
0000
3002
0000
0103
0010
1000
0001
0100
0000
,
0001
1000
0001
0010
0100
1000
0001
0000
0000
0201
0000
0000
,
0000
0000
0310
0000
1000
0000
0000
0001
1000
0000
0100
0000
0000
0000
0000
0000
,
0012
0000
0000
0000
1003
0001
1000
0010
,
0200
0000
0000
0000
0000
0000
0000
0000
0000
0000
0000
0000
0301
0000
0000
0100
0000
0000
0001
0000
0000
0000
0000
0000
1000
0000
0000
0000
0000
0000
0000
0000
0000
0000
0000
0000
0001
0000
1000
0000
0001
0000
0000
0000
0000
0000
0000
0000
,
2100
0000
3001
0100
,
0001
0000
0000
0000
0000
0000
0000
0000
0000
1000
0000
0000
0000
0000
0000
0000
0000
0000
0001
0000
0000
0000
0000
0000
0010
0000
0000
0000
0000
0000
0400
0000
0000
0300
0000
0000
1000
0000
0000
0000
1000
0000
0000
0000
1000
0000
0000
0000
,
1002
0000
0000
0000
0000
0000
0000
0000
0100
0000
0000
0000
1000
0000
0000
0000
0010
0000
0000
0000
0100
0000
0000
0003
2001
0000
0000
0000
0000
0000
0000
3000
,
1200
0000
0000
0000
0010
0000
2300
0000
0000
0000
0000
0000
0000
0000
0002
3000
,
0203
0320
2030
3002
,
0000
0000
0023
0000
0000
0000
0000
0230
0000
0000
0000
0000
2300
0000
0000
0000
0000
0000
0000
0000
3002
0000
0000
0000
0000
0000
0000
0000
0000
0000
0000
0000
0000
0000
0000
0000
0000
0000
0000
0000
0000
0000
0000
0000
0000
0000
0000
0000
0000
0000
0000
0000
0000
0000
0000
0000
0003
0000
0000
0000
0000
0000
0000
0000
;

//---------------dance-single - Feraligatr----------------
#NOTES:
     dance-single:
     :
     Medium:
     7:
     0.428571,0.449047,0.254237,0.694915,0.059322,242.000000,30.000000,82.000000,0.000000,0.000000,0.000000,0.428571,0.449047,0.254237,0.694915,0.059322,242.000000,30.000000,82.000000,0.000000,0.000000,0.000000:
0000
0000
0000
0000
,
0000
0000
0000
0000
,
0000
0000
0000
0000
,
0000
0000
0000
0000
,
0001
0001
0010
0100
,
1000
0001
0100
0010
,
1000
1000
0100
0010
,
0001
0000
0000
1000
0000
0000
0001
0000
0000
1000
0000
0000
0020
0000
0000
0030
,
2010
0000
0002
3000
1003
0000
0002
0000
,
0013
0000
0000
0000
0100
0000
0000
0000
2000
0000
0000
3000
2001
0000
0000
0000
,
0000
3000
2001
0000
0000
0000
0000
3000
2001
0000
0000
0000
0000
0000
3000
0000
,
0002
0000
0013
0100
2100
0000
3002
0000
,
1003
0000
0002
0000
1003
0010
0100
0001
,
1000
0001
0000
0010
0100
0000
1000
0010
,
0100
0000
0100
0000
0001
0000
0000
1000
0000
0000
0100
0000
0010
0000
0000
0001
,
0000
0000
0000
0000
0000
0000
0000
0000
2000
0000
0000
0000
0000
3000
0000
0000
0002
0000
0000
0000
0003
0000
0000
0000
0002
0000
0000
0000
0003
0000
0000
0000
,
0020
0030
0100
0000
1000
0000
0002
0003
,
2001
0000
0000
0000
0000
3000
2001
0000
0000
0000
0000
3000
2001
0000
0000
0000
,
3200
0000
0000
0000
0310
0000
0001
0000
1000
0000
0000
0010
0000
0000
0100
0000
,
0002
0000
1003
0000
2000
3000
2000
0000
,
0000
3001
0002
0000
1003
0010
0100
0001
,
1000
0000
0000
0010
0000
0000
0100
0000
0001
0000
1000
0000
0100
0000
0010
0000
,
0001
1000
0010
0100
0001
1000
0100
0010
,
0002
0000
0000
0000
0013
0000
0000
0001
,
1000
0010
0200
0300
0200
0301
1000
0001
,
2000
0000
0000
0000
0000
3000
2001
0000
0000
0000
0000
3000
2001
0000
0000
0000
,
0000
0000
3100
0000
0010
0001
0000
0000
,
1000
0000
0000
1000
0100
0010
0000
0000
,
0001
0000
2000
0000
3010
0100
0001
1000
,
0200
0000
0000
0000
0300
0000
1200
0000
0000
0000
0000
0300
1200
0000
0000
0000
,
0000
0000
0300
1000
1000
0001
0100
0010
,
1000
0000
0001
0000
0020
0000
0000
0030
0100
0000
1000
0000
0001
0000
0001
0000
,
0100
0010
2000
0000
3002
0003
0010
0100
,
2000
0000
0000
3000
2100
0000
0000
0000
0000
0000
0000
3000
2100
0000
0000
0000
,
0000
0000
3001
0000
0000
0100
0000
0000
,
2010
0000
3001
1000
,
0200
0000
0000
0300
0010
0000
0001
0000
1000
0000
0000
0000
0002
0000
0000
0003
,
2001
0000
0000
3001
0000
0000
1000
0000
0010
0000
0100
0000
0000
0000
0001
0000
,
1000
0000
0000
0100
0000
0000
0010
0000
0001
0000
1000
0000
0020
0000
0000
0030
,
0210
0000
0300
0000
,
0000
0000
0000
0000
0000
0000
0000
0000
0000
0000
0000
0000
2010
0000
0000
0000
0000
0000
0000
0000
0000
3000
0000
0000
2000
0000
0000
0000
0000
3000
0010
0000
0000
0000
0000
0000
0100
0000
0000
0000
0000
0000
0001
0000
0000
0000
0000
0000
,
2000
0000
0000
0000
0000
3000
2001
0000
0000
0000
0000
3000
2001
0000
0000
0000
,
0000
3000
0010
0000
0000
0100
0000
0000
,
0001
0000
0000
0001
1000
0100
0000
0000
,
0010
0000
0002
0000
1003
0001
0100
0010
,
2000
0000
0000
0000
0000
3000
2010
0000
0000
0000
0000
3000
2010
0000
0000
0000
,
0000
0000
3000
0001
1000
0100
0010
0100
,
1000
0001
0200
0000
0320
0030
0020
0030
,
1000
0001
0020
0000
0230
1300
0001
0100
,
0020
0000
0000
0030
0120
0000
0000
0000
1030
0000
0000
0000
0120
0000
0000
0000
,
0000
0030
1000
0000
0000
0100
0000
0000
,
0012
0000
0000
0000
1003
0001
0100
0010
,
2000
0000
0000
0000
3001
0000
1000
0000
0100
0000
0000
0000
1200
0000
0000
0300
,
2100
0000
3001
0100
,
0001
0000
0000
1000
0000
0000
0001
0000
0000
1000
0000
0000
0020
0000
0000
0030
,
0102
0000
0000
0000
0000
0000
0000
0000
0000
0000
0000
0000
0000
0000
0000
0000
0000
0000
0000
0000
0000
0000
0000
0003
2001
0000
0000
0000
0000
0000
0000
3000
,
1200
0000
0000
0000
0000
0000
2300
0000
0000
0000
0000
0000
0000
0000
0002
3000
,
0203
0320
2030
3002
,
0000
0000
0023
0000
0000
0000
0000
0230
0000
0000
0000
0000
2300
0000
0000
0000
0000
0000
0000
0000
3002
0000
0000
0000
0000
0000
0000
0000
0000
0000
0000
0000
0000
0000
0000
0000
0000
0000
0000
0000
0000
0000
0000
0000
0000
0000
0000
0000
0000
0000
0000
0000
0000
0000
0000
0000
0003
0000
0000
0000
0000
0000
0000
0000
;

//---------------dance-single - Feraligatr----------------
#NOTES:
     dance-single:
     :
     Easy:
     4:
     0.193705,0.224523,0.093220,0.118644,0.004237,135.000000,11.000000,14.000000,0.000000,0.000000,0.000000,0.193705,0.224523,0.093220,0.118644,0.004237,135.000000,11.000000,14.000000,0.000000,0.000000,0.000000:
// measure 0
0000
0000
0000
0000
,  // measure 1
0000
0000
0000
0000
,  // measure 2
0000
0000
0000
0000
,  // measure 3
0000
0000
0000
0000
,  // measure 4
1000
1000
0010
0100
,  // measure 5
0001
1000
0100
0010
,  // measure 6
0001
0001
1000
0010
,  // measure 7
0100
0000
0000
0000
,  // measure 8
2001
0000
3100
1000
,  // measure 9
0001
0100
0010
1000
,  // measure 10
0000
0001
0000
0000
,  // measure 11
2000
3000
1200
0000
,  // measure 12
0310
0001
1000
0010
,  // measure 13
0100
0000
0000
0001
,  // measure 14
0000
0010
0100
1000
,  // measure 15
0001
0000
1000
1000
,  // measure 16
0001
0100
0010
0000
,  // measure 17
1000
0000
0001
0000
,  // measure 18
0020
0130
1000
0000
,  // measure 19
1001
0000
1000
1000
,  // measure 20
0000
0001
0010
0100
,  // measure 21
2000
0000
3001
1000
,  // measure 22
0010
0100
0001
1000
,  // measure 23
2001
0000
3001
0000
,  // measure 24
0000
0010
0010
0000
,  // measure 25
0100
1000
0001
0100
,  // measure 26
0000
0010
0000
0000
,  // measure 27
1000
0000
0001
0000
,  // measure 28
0010
0100
1000
0001
,  // measure 29
0100
0000
0010
1000
,  // measure 30
0000
0000
0001
0000
,  // measure 31
0010
0000
0100
1000
,  // measure 32
0001
0100
0010
0000
,  // measure 33
1000
1000
0001
1000
,  // measure 34
0000
0000
0001
0000
,  // measure 35
0010
0000
0100
0000
,  // measure 36
1000
0000
0001
0000
,  // measure 37
0200
0000
0000
0000
,  // measure 38
0310
0000
0000
0000
,  // measure 39
1001
0000
0000
0000
,  // measure 40
0000
1000
1000
0000
,  // measure 41
0001
0010
0100
0010
,  // measure 42
0001
1000
0010
0100
,  // measure 43
0001
0000
1000
0000
,  // measure 44
0100
0010
0001
1000
,  // measure 45
0010
0000
0100
0001
,  // measure 46
0000
0000
1000
0000
,  // measure 47
1100
0000
0001
0001
,  // measure 48
1000
0010
0100
0000
,  // measure 49
0001
0001
1000
0001
,  // measure 50
0000
1000
0000
0000
,  // measure 51
0100
0000
0010
0000
,  // measure 52
0001
0000
1000
0000
,  // measure 53
1020
0000
0000
0000
,  // measure 54
0230
0000
0000
0000
0000
0000
0000
0000
0000
0000
0000
0000
0000
0000
0000
0300
,  // measure 55
0102
0000
0000
0000
0000
0003
0000
0000
,  // measure 56
2001
0000
0000
3000
0000
0000
0000
0000
,  // measure 57
0201
0000
0000
0000
0000
0000
0000
0000
0000
0000
0000
0300
0120
0000
0000
0000
,  // measure 58
0000
0000
0000
0000
0000
2030
0000
0000
0000
0000
0000
0000
0000
0000
3000
0000
;

//---------------dance-single - Feraligatr----------------
#NOTES:
     dance-single:
     :
     Beginner:
     1:
     0.093220,0.222378,0.101695,0.084746,0.000000,55.000000,12.000000,10.000000,0.000000,0.000000,0.000000,0.093220,0.222378,0.101695,0.084746,0.000000,55.000000,12.000000,10.000000,0.000000,0.000000,0.000000:
// measure 0
0000
0000
0000
0000
,  // measure 1
0000
0000
0000
0000
,  // measure 2
0000
0000
0000
0000
,  // measure 3
0000
0000
0000
0000
,  // measure 4
1000
0000
0000
0000
,  // measure 5
0010
0000
0000
0000
,  // measure 6
0100
0000
0000
0000
,  // measure 7
1000
0000
0000
0000
,  // measure 8
1002
0000
0003
1000
,  // measure 9
0000
0000
0000
0001
,  // measure 10
0000
0000
0000
0000
,  // measure 11
0000
0100
2001
0000
,  // measure 12
3000
0001
0000
0100
,  // measure 13
0000
0000
0000
0000
,  // measure 14
0000
0010
0000
0000
,  // measure 15
0000
0000
1000
1000
,  // measure 16
0000
0000
0001
0000
,  // measure 17
0010
0000
0000
0000
,  // measure 18
0000
0000
0000
0000
,  // measure 19
0100
0000
0000
0000
,  // measure 20
0000
1000
0000
0000
,  // measure 21
1001
0000
0000
0000
,  // measure 22
0000
0000
0000
0000
,  // measure 23
1001
0000
0000
0000
,  // measure 24
0000
1000
1000
0000
,  // measure 25
0010
0000
0000
0000
,  // measure 26
0000
0000
0000
0000
,  // measure 27
0100
0000
0000
0000
,  // measure 28
0000
0000
0001
0000
,  // measure 29
1000
0000
0000
0000
,  // measure 30
0000
0000
0100
0000
,  // measure 31
0110
0000
0000
0000
,  // measure 32
0000
0000
0000
0000
0002
0003
0000
0000
,  // measure 33
1000
1000
0000
0000
,  // measure 34
0000
0000
0000
0000
,  // measure 35
0001
0000
0000
0000
,  // measure 36
0100
0000
0000
0000
,  // measure 37
0020
0000
0000
0000
,  // measure 38
0030
0000
0000
0000
,  // measure 39
1001
0000
0000
0000
,  // measure 40
0000
1000
1000
0000
,  // measure 41
1001
0000
0000
0000
,  // measure 42
0000
0000
0001
0000
,  // measure 43
0010
0000
0000
0000
,  // measure 44
0000
0000
1000
0000
,  // measure 45
0001
0000
0000
0000
,  // measure 46
0000
0000
0000
0000
,  // measure 47
0100
0000
0010
0010
,  // measure 48
0000
0000
0000
0000
2000
3000
0000
0000
,  // measure 49
0001
0001
0000
0000
,  // measure 50
0000
0000
0000
0000
,  // measure 51
0100
0000
0000
0000
,  // measure 52
0001
0000
0000
0000
,  // measure 53
2001
0000
0000
0000
,  // measure 54
3000
0000
0000
0000
,  // measure 55
1002
0000
0000
0000
0000
0003
0000
0000
,  // measure 56
0210
0000
0000
0300
0000
0000
0000
0000
,  // measure 57
2001
0000
3000
1002
,  // measure 58
0000
0000
0000
0000
0000
0003
0000
0000
0000
0000
0000
0000
0000
0000
0000
0000
;
