#TITLE:Get off my lawn;
#SUBTITLE:;
#ARTIST:USAO;
#TITLETRANSLIT:;
#SUBTITLETRANSLIT:;
#ARTISTTRANSLIT:;
#GENRE:;
#CREDIT:;
#BANNER:Get off my lawn-bn.png;
#BACKGROUND:Get off my lawn-bg.png;
#LYRICSPATH:;
#CDTITLE:guys-cdtitle.png;
#MUSIC:Get off my lawn.ogg;
#OFFSET:0.009000;
#SAMPLESTART:85.199997;
#SAMPLELENGTH:20.400000;
#SELECTABLE:YES;
#DISPLAYBPM:100.000000;
#BPMS:0.000000=100.000000
,63.500000=150.000000
,63.875000=50.000000
,64.000000=100.000000
,143.500000=150.000000
,143.875000=50.000000
,144.000000=100.000000
;
#STOPS:
;
#BGCHANGES:7.500=Get off my lawn-bg-wide-hey1.png=1.000=0=0=1=====,
7.875=Get off my lawn-bg.png=1.000=0=0=1=====,
15.500=Get off my lawn-bg-wide-hey2.png=1.000=0=0=1=====,
15.875=Get off my lawn-bg.png=1.000=0=0=1=====,
47.500=Get off my lawn-bg-wide-hey3.png=1.000=0=0=1=====,
47.875=Get off my lawn-bg.png=1.000=0=0=1=====,
80.500=Get off my lawn-bg-wide-hey4.png=1.000=0=0=1=====,
80.875=Get off my lawn-bg.png=1.000=0=0=1=====,
88.500=Get off my lawn-bg-wide-hey1.png=1.000=0=0=1=====,
88.875=Get off my lawn-bg.png=1.000=0=0=1=====,
89.500=Get off my lawn-bg-wide-hey2.png=1.000=0=0=1=====,
89.875=Get off my lawn-bg.png=1.000=0=0=1=====,
90.500=Get off my lawn-bg-wide-hey3.png=1.000=0=0=1=====,
90.875=Get off my lawn-bg.png=1.000=0=0=1=====,
91.500=Get off my lawn-bg-wide-hey4.png=1.000=0=0=1=====,
91.875=Get off my lawn-bg.png=1.000=0=0=1=====,
92.500=Get off my lawn-bg-wide-hey5.png=1.000=0=0=1=====,
92.875=Get off my lawn-bg.png=1.000=0=0=1=====,
93.500=Get off my lawn-bg-wide-hey6.png=1.000=0=0=1=====,
93.875=Get off my lawn-bg.png=1.000=0=0=1=====,
111.500=Get off my lawn-bg-wide-hey5.png=1.000=0=0=1=====,
111.875=Get off my lawn-bg.png=1.000=0=0=1=====,
129.000=Get off my lawn-bg-wide-hey1.png=1.000=0=0=1=====,
129.375=Get off my lawn-bg.png=1.000=0=0=1=====,
131.000=Get off my lawn-bg-wide-hey2.png=1.000=0=0=1=====,
131.375=Get off my lawn-bg.png=1.000=0=0=1=====,
133.000=Get off my lawn-bg-wide-hey3.png=1.000=0=0=1=====,
133.375=Get off my lawn-bg.png=1.000=0=0=1=====,
135.000=Get off my lawn-bg-wide-hey4.png=1.000=0=0=1=====,
135.375=Get off my lawn-bg.png=1.000=0=0=1=====,
136.500=Get off my lawn-bg-wide-hey5.png=1.000=0=0=1=====,
136.875=Get off my lawn-bg.png=1.000=0=0=1=====,
137.500=Get off my lawn-bg-wide-hey5.png=1.000=0=0=1=====,
137.875=Get off my lawn-bg.png=1.000=0=0=1=====,
138.500=Get off my lawn-bg-wide-hey5.png=1.000=0=0=1=====,
138.875=Get off my lawn-bg.png=1.000=0=0=1=====,
139.500=Get off my lawn-bg-wide-hey5.png=1.000=0=0=1=====,
139.875=Get off my lawn-bg.png=1.000=0=0=1=====,
152.500=Get off my lawn-bg-wide-hey1.png=1.000=0=0=1=====,
152.875=Get off my lawn-bg.png=1.000=0=0=1=====,
168.500=Get off my lawn-bg-wide-hey6.png=1.000=0=0=1=====,
168.875=Get off my lawn-bg.png=1.000=0=0=1=====,
175.500=Get off my lawn-bg-wide-heyfinal.png=1.000=0=0=1=====,
176.000=Get off my lawn-bg.png=1.000=0=0=1=====,
99999=-nosongbg-=1.000=0=0=0 // don't automatically add -songbackground-
;
#KEYSOUNDS:;
#ATTACKS:;

//---------------dance-single - 3guys1pack + 1----------------
#NOTES:
     dance-single:
     3guys1pack + 1:
     Challenge:
     12:
     0.806488,0.972194,0.148999,0.132444,1.411354,682.000000,664.000000,18.000000,16.000000,25.000000,0.000000,0.806488,0.972194,0.148999,0.132444,1.411354,682.000000,664.000000,18.000000,16.000000,25.000000,0.000000:
// measure 0
0000
0000
0000
0000
,  // measure 1
0000
0000
0000
0000
0000
0000
0000
000M
,  // measure 2
1000
0000
0001
0010
0000
0100
0000
0000
1000
0000
0001
0010
0000
0100
0000
0100
,  // measure 3
2000
0000
3020
0000
0031
0010
0100
0010
1000
0000
0001
0010
0000
0001
000M
0000
,  // measure 4
1020
0000
0000
0000
1030
0000
0000
0000
1000
0000
0100
0000
0010
0000
0001
0000
1000
0000
0000
0000
0001
1000
0001
1000
0100
0000
0010
0000
0001
1000
0001
1000
,  // measure 5
0010
0000
0000
0000
0100
0000
0000
0000
0100
0000
0010
0000
1000
0000
0001
0000
1000
0000
0000
0000
0100
0010
0001
1000
0001
0000
1000
0000
0001
0100
0001
0100
,  // measure 6
0010
0000
1000
0000
0100
0000
0010
0000
0001
0000
1000
0000
0001
0000
1000
0100
1000
0000
0001
0000
0100
0010
1000
0010
0100
0000
0001
0000
1000
0001
1000
0001
,  // measure 7
0010
0100
1000
0001
0100
0010
0100
0001
1000
0010
0100
0001
1000
0100
0010
0001
4000
0000
0000
0000
0000
0000
0000
0000
3020
0000
0000
0000
0M30
0000
0000
0000
,  // measure 8
1001
0000
0000
1000
0000
0000
1000
0000
0010
0000
0000
0010
0000
0000
0010
0000
,  // measure 9
0100
0000
0000
0000
0000
0000
0100
0000
0000
0000
0100
0000
0001
1000
0001
1000
0100
0000
0000
0000
0010
0000
0000
0000
0001
0000
1000
0000
0010
0000
0100
0000
,  // measure 10
1001
0000
0001
1000
0001
1000
0001
1000
0200
0300
1000
0001
1000
0001
1000
0001
,  // measure 11
0100
0100
0010
0010
2000
0002
3003
M00M
,  // measure 12
1001
0000
1000
0100
1000
0010
0010
0010
0100
0000
0001
0010
0001
0100
0100
0100
,  // measure 13
0010
0000
0000
0000
1000
0000
0100
0000
1000
0000
0010
0000
0010
0000
0010
0100
0001
0000
0000
0000
1000
0000
0100
0000
0001
0000
0100
0000
0010
0000
0100
0000
,  // measure 14
1000
0001
1000
0001
0100
0010
1000
0001
0011
0010
0100
0010
0100
1000
0010
1000
,  // measure 15
0001
0010
0100
1000
0001
0100
0001
1000
0001
0010
0100
1000
0001
0100
0001
1000
0020
0000
0000
0000
0000
0000
0000
0000
0230
0000
0000
0000
030M
0000
0000
0000
,  // measure 16
0140
0000
0000
0000
0000
0000
0000
0000
1030
0000
0010
0000
1000
0000
0001
0000
1000
0100
1000
0001
0010
0000
0100
0000
0010
0000
0001
0000
1000
0000
0010
0000
,  // measure 17
0100
0000
0000
0000
0100
0000
0001
0000
0010
0000
0000
0000
0100
0000
1000
0100
1000
0000
0001
0000
0100
0000
0010
0000
0001
0000
0010
0000
1000
0000
0001
1000
,  // measure 18
0200
0000
0000
0000
1300
0000
0001
0000
0010
0000
0100
0000
0000
0000
1000
0000
0001
0100
0001
0000
1000
0000
0100
0000
0001
0000
0100
0000
0010
0000
0001
0000
,  // measure 19
2000
0000
0000
0000
3010
0000
0100
0000
0001
0000
1000
0000
1000
0000
0100
0010
0100
0000
0010
0000
0001
0000
1000
0000
0010
0000
0100
0001
0100
0000
0010
0000
,  // measure 20
1000
0000
0000
0000
M000
0000
0000
0000
0011
0000
0001
0000
1000
0000
0010
0000
0100
0010
0100
0001
1000
0000
0100
0000
0010
0000
0001
0000
0100
0000
0010
0000
,  // measure 21
0100
0000
0001
0000
1000
0000
0100
0000
0010
0000
0001
0000
0001
0000
1000
0010
0100
0000
0001
0000
0100
0000
0001
0000
0100
0000
0010
0000
1000
0000
0001
1000
,  // measure 22
0001
0000
0010
0000
M100
0000
1000
0000
0001
0000
0100
0000
001M
0000
1000
0001
1000
0000
0100
0000
M010
0000
0001
0000
1000
0000
0010
0000
010M
0000
0001
0000
,  // measure 23
0010
0100
1000
0001
1000
0010
0100
0001
1000
0100
0010
0001
1000
0100
1000
0001
0400
0000
0000
0000
00M0
0000
0000
0000
M300
0000
0000
0000
0000
0000
0000
0000
,  // measure 24
0104
0000
0000
1003
0001
1000
0100
0100
0100
0000
1000
0010
0100
0001
1000
1000
,  // measure 25
1000
0000
0100
0010
0001
1000
0010
0010
0010
0000
0100
0001
1000
0100
0100
0100
,  // measure 26
4100
0000
3001
0100
0010
1000
0001
0001
0001
0000
0100
0010
1000
0001
0010
0010
,  // measure 27
0010
0000
0100
1000
0001
0100
0010
0010
0010
0000
0200
0000
0301
0000
000M
0000
,  // measure 28
1100
0000
0000
0000
0001
0000
1000
0000
0010
0000
0100
0000
M00M
0000
0100
0000
1000
0000
0001
0000
0010
0000
0100
1000
0001
0000
1000
0000
0001
0000
0100
0000
,  // measure 29
0010
0000
0000
0000
0100
0000
0001
0000
1000
0000
0100
0000
0010
0000
0001
0000
0100
0000
0000
0000
0001
1000
0010
1000
0001
0000
0010
0000
0100
0000
1000
0000
,  // measure 30
1100
0000
0000
0000
1000
0000
0001
0000
0100
0000
0010
0000
M00M
0000
0010
0000
0001
0000
1000
0000
0010
0000
1000
0001
1000
0000
0100
0000
0010
0000
0001
0000
,  // measure 31
1000
0000
0000
0000
0010
0000
0100
0000
0001
0000
1000
0000
1000
0000
0100
0000
0010
0000
0000
0000
0100
1000
0001
1000
0010
0000
0100
0000
0001
0000
1000
0000
,  // measure 32
1001
0000
0000
0000
1000
0000
0000
0000
0100
0000
0000
0000
0010
0000
0000
0000
0001
0000
0000
0000
1000
0001
1000
0001
0100
0000
0000
0000
0001
0000
0000
0000
,  // measure 33
0100
0000
0000
0000
0010
0000
0000
0000
1000
0000
0000
0000
0001
0000
0000
0000
0010
0000
0000
0000
0100
1000
0100
1000
0001
0000
0000
0000
1000
0000
0000
0000
,  // measure 34
0001
0100
0010
1000
0001
0010
0100
1000
0001
0100
0010
0100
0001
1000
0100
0010
,  // measure 35
0100
0010
0001
1000
0001
0100
0010
0100
0001
1000
0100
0010
0001
1000
0010
1000
0001
0000
0000
0000
0000
0000
0000
0000
0000
0000
0000
0000
M000
0000
0000
0000
,  // measure 36
0104
0000
0000
0000
0000
0000
1003
0000
0100
0000
1000
0000
0001
0000
0100
0000
0010
0000
0010
0000
0100
0010
1000
0001
1000
0000
0000
0000
0100
0000
0000
0000
,  // measure 37
0110
0000
0000
0000
0010
0000
0001
0000
1000
0000
1000
0000
0001
0000
0100
0000
0010
0000
0100
0000
0001
1000
0001
1000
0100
0000
0000
0000
1000
0000
0000
0000
,  // measure 38
10M1
0000
0000
0000
0001
0000
1000
0000
0010
0000
0000
0000
0100
0000
0010
0000
0010
0000
1000
0000
0001
0010
0100
1000
0001
0000
0100
0000
0000
0000
0100
0000
,  // measure 39
0010
0000
0000
0000
1000
0000
0100
0000
0010
0000
0001
0000
0001
0000
1000
0000
0010
0000
0000
0000
0100
0001
1000
0100
0010
0000
0000
0000
0100
0000
0000
0000
,  // measure 40
1100
0000
0000
0000
0001
0000
0001
0000
1000
0000
0010
0000
0100
0000
0001
0000
1000
0000
0000
0000
0100
0010
0001
1000
0010
0000
0000
0000
0100
0000
0000
0000
,  // measure 41
0001
0000
0100
0000
0001
0000
1000
0000
0100
0000
0100
0000
0010
0000
0001
0000
1000
0000
0010
0000
0100
0010
0100
0000
0001
1000
0001
0000
1000
0000
0100
0000
,  // measure 42
1100
0000
1000
0000
0001
0000
0100
0000
0010
0000
1000
0000
0001
0000
0010
0100
0010
0000
0001
0000
1000
0000
0001
0100
0001
0000
1000
0000
0100
0000
0010
0100
,  // measure 43
1000
0001
1000
0001
0100
0010
1000
0001
0010
0001
1000
0100
0010
0001
1000
0010
0100
0000
0001
0000
1000
0000
0001
0000
1000
0000
0000
0000
000M
0000
0000
0000
,  // measure 44
1100
0000
1000
0010
0000
0100
0000
0000
0001
0000
1000
0010
0000
0100
0000
0100
,  // measure 45
0002
0000
0000
0000
0023
0000
0000
0000
1030
0000
0010
0000
0100
0000
0010
0000
0001
0000
0000
0000
1000
0000
0001
0000
0000
0000
0100
000M
0100
0000
0100
0000
,  // measure 46
0100
0000
1000
0100
0000
0010
0000
0000
0001
0000
1000
0100
0000
0010
0000
0010
,  // measure 47
0002
0000
0203
0000
1300
0100
0010
0100
0001
0000
1000
0100
0000
1000
1MMM
1000
;

//---------------dance-single - Loodee----------------
#NOTES:
     dance-single:
     Loodee:
     Hard:
     10:
     0.721345,0.775469,0.140721,0.289721,1.150605,610.000000,593.000000,17.000000,35.000000,8.000000,0.000000,0.721345,0.775469,0.140721,0.289721,1.150605,610.000000,593.000000,17.000000,35.000000,8.000000,0.000000:
0000
0000
0000
0000
,
0000
0000
0000
0000
,
0001
0000
1000
0100
0000
1000
0000
0000
0001
0000
1000
0100
0000
1000
0000
1000
,
0020
0000
0230
0000
0301
1000
0010
1000
0001
0000
1000
0100
0000
1000
0010
0000
,
0101
0000
0000
0000
0000
0000
0001
0000
0000
0000
0000
0000
0001
0000
0000
0010
0000
0000
0100
0000
0000
0010
0000
0000
0001
0000
0000
0000
0000
0000
1000
0000
0010
0000
1000
0000
0001
0000
0000
0010
0000
0000
0200
0000
0000
0000
0000
0000
,
1300
0000
0000
0000
0000
0000
0001
0000
0000
0000
0000
0000
1000
0000
0000
0000
0000
0000
0010
0000
0000
0100
0000
0000
0001
0000
0000
0000
0000
0000
1000
0000
0100
0000
0010
0000
0100
0000
0000
1000
0000
0000
0001
0000
0000
1000
0000
0000
,
0010
0000
0100
0000
0010
0000
0100
0000
0001
0000
1000
0000
0001
0000
1000
0100
0010
0000
0001
0000
0010
0000
0001
1000
0001
0000
0100
0000
0001
0000
1000
0000
,
0001
0100
0010
0100
0001
1000
0100
0010
0001
1000
0010
1000
0004
0000
0000
0000
0000
0000
0013
0000
0000
0000
0000
0000
,
0110
0000
0000
0100
0000
0000
0100
0000
1000
0000
0000
1000
0000
0000
1000
0000
,
0001
0000
0000
0000
0000
0000
0000
0000
0000
0001
0000
0000
0000
0000
0000
0001
0000
0000
1000
0000
0001
0000
0010
0000
0100
0000
0000
0000
0000
0000
0010
0000
0000
0000
0000
0000
1000
0000
0000
0010
0000
0000
0100
0000
0000
0010
0000
0000
,
0001
0000
1000
0001
0000
0001
0000
0001
0100
0000
0010
0100
0000
0100
0000
0100
,
0001
1000
0001
1000
0200
0320
0000
0031
,
1001
0000
1000
0010
0000
0100
0001
0100
0010
0000
1000
0001
0000
0010
0100
0010
,
0001
0000
0010
0100
0000
1000
0010
0100
0001
0000
0100
0000
1000
0100
0010
0100
,
0001
1000
0001
1000
0100
0010
0001
0010
0100
1000
0100
1000
0001
0100
0010
1000
,
0001
0010
0100
1000
0001
0100
0010
1000
0001
1000
0100
0010
0002
0000
0000
0000
0000
0000
MM03
0000
0000
MM00
0000
0000
,
2001
0000
0000
0000
0000
0000
0000
0000
0000
0000
0000
0000
3010
0000
0000
0100
0000
0000
0000
0000
0000
0100
0000
0000
0001
0000
1000
0000
0001
0000
1000
0000
0000
0100
0000
0000
0010
0000
0000
0001
0000
0000
0100
0000
0000
0001
0000
0000
,
0020
0000
0000
0000
0000
0000
0000
0000
0000
0130
0000
0000
2000
0000
0000
0000
0000
0000
3001
0000
0000
0010
0000
0000
0001
0000
0000
0000
0000
0000
0100
0000
0000
0000
0000
0000
0010
0000
0000
1000
0000
0000
0100
0000
0010
0000
0100
0000
,
2000
0000
0000
3001
0100
0010
0100
0001
1000
0100
0010
0100
1000
0010
0100
0001
,
2000
0000
0000
0000
3100
0010
0010
0001
0010
0001
0100
0001
0010
0100
1000
0010
,
0100
0000
0000
0001
0000
0000
1000
0000
0000
0000
0000
0000
0100
0000
0000
0010
0000
0000
0001
0000
0000
1000
0000
0000
0100
0000
0010
0000
0100
0000
1000
0000
0000
0001
0000
0000
1000
0000
0000
0010
0000
0000
0100
0000
0000
0010
0000
0000
,
2000
0000
0000
0000
3001
0000
0100
0000
0001
0000
0010
0000
0100
0000
1000
0001
1000
0000
0010
0000
0100
0000
0001
0000
1000
0000
0100
0000
0010
0000
0100
0000
,
0010
0000
0001
0000
0100
0000
0001
0000
0010
0000
0001
0000
1000
0000
0010
0100
0010
0000
1000
0000
0001
0000
1000
0000
0001
0000
0010
0000
0100
0000
0010
0000
,
0001
0000
1000
0000
0010
0000
0100
0000
0001
0000
1000
0000
0100
0000
0010
0000
0100
0000
0010
0000
0001
0000
1000
0000
0040
0000
0000
0000
0000
0000
0230
0000
0000
0300
0000
0000
0002
0000
0000
0000
0000
0000
0003
0000
0000
0000
0000
0000
,
0021
0000
0000
0000
0031
1000
0100
1000
0100
0000
0010
0100
1000
0001
0100
0001
,
0100
0000
0010
1000
0001
0010
0100
0010
0100
0000
0010
0001
1000
0010
1000
0010
,
0200
0000
0000
0301
1000
0100
0010
0100
1000
0000
0001
1000
0010
0100
0001
0100
,
0010
0000
1000
0001
0010
0100
0010
0001
0010
0100
0000
0100
1000
0000
0010
0000
,
0101
0000
0100
0010
0000
0100
0001
1000
0100
0010
1000
0010
0100
0010
0001
1000
,
0010
0000
0100
0001
1000
0100
0010
0100
1000
0000
0010
1000
0001
0100
0010
0100
,
0001
0000
0010
0100
0000
0010
0001
1000
0010
0100
0010
1000
0001
0010
0001
0010
,
0100
0000
0010
0000
0001
1000
0010
1000
0001
0000
0100
0010
1000
0001
1000
0001
,
0020
0000
0000
0000
0000
0000
0130
0000
0000
0000
0000
0000
1000
0000
0000
0001
0000
0000
0000
0000
0000
0100
0000
0000
0020
0000
0000
0000
0000
0000
1030
0000
0001
0000
1000
0000
0100
0000
0000
0000
0000
0000
0010
0000
0000
0000
0000
0000
,
0002
0000
0000
0000
0000
0000
0103
0000
0000
0000
0000
0000
0010
0000
0000
1000
0000
0000
0000
0000
0000
1000
0000
0000
0200
0000
0000
0000
0000
0000
0310
0000
0001
0000
1000
0000
0001
0000
0000
0000
0000
0000
0100
0000
0000
0000
0000
0000
,
0010
1000
0010
1000
0001
1000
0001
1000
0100
0010
0100
0010
0001
0010
0001
0010
,
0100
1000
0001
0100
0010
0100
0001
1000
0100
0010
0001
1000
0020
0000
0000
0000
0000
0000
0M3M
0000
0000
0M0M
0000
0000
,
1002
0000
0000
0000
0000
0000
0000
0000
0000
0013
0000
0000
0100
0000
0000
1000
0000
0000
0010
0000
0000
0000
0000
0000
0010
0000
0000
0010
0000
0000
0100
0000
0001
0000
1000
0000
0100
0000
0000
0000
0000
0000
0110
0000
0000
0000
0000
0000
,
0012
0000
0000
0000
0000
0000
1003
0000
0000
0010
0000
0000
1000
0000
0000
1000
0000
0000
0100
0000
0000
0010
0000
0000
0001
0000
0000
0001
0000
0000
0100
0000
0010
0000
1000
0000
0001
0000
0000
0000
0000
0000
0101
0000
0000
0000
0000
0000
,
2010
0000
0000
0000
0000
0000
3100
0000
0000
0010
0000
0000
0100
0000
0000
1000
0000
0000
0000
0000
0000
0010
0000
0000
0010
0000
0000
0100
0000
0000
0001
0000
1000
0000
0100
0000
0010
0000
0000
0001
0000
0000
0100
0000
0000
0000
0000
0000
,
0120
0000
1030
0001
1000
0100
0100
0000
0010
0001
0100
0001
1000
0000
1010
0000
,
0102
0000
0013
0100
0010
0001
0010
0100
1000
0010
1000
0100
1000
0001
0100
0010
,
2000
0000
3001
0100
0010
1000
0001
0010
0001
0100
0001
1000
0010
0100
0001
0100
,
0201
0000
0310
1000
0001
1000
0100
0010
0001
0100
0001
0010
0001
1000
0010
0100
,
0001
1000
0100
0010
0001
1000
0010
0100
0001
1000
0001
0010
0100
0000
0000
1000
0000
0000
2002
0000
0000
3003
0000
0000
,
0011
0000
0001
1000
0000
0001
0000
0000
0010
0000
0001
1000
0000
0001
0000
0001
,
0200
0000
0320
0000
1030
0001
0100
0001
0010
0000
0001
1000
0000
0001
0100
0001
,
1000
0000
0010
0100
0000
0010
0000
0000
1000
0000
0010
0100
0000
0010
0000
0010
,
2000
0000
3200
0000
0310
0001
0100
0001
1000
0000
0010
0100
0000
0010
2000
0001
,
0000
3000
0000
0000
0000
0000
0000
0000
0000
0000
0000
0000
0000
0000
0000
0000
0000
0000
0000
0000
0000
0000
0000
0000
;

//---------------dance-single - Loodee----------------
#NOTES:
     dance-single:
     Loodee:
     Medium:
     8:
     0.483656,0.457526,0.041389,0.281443,0.525636,409.000000,404.000000,5.000000,34.000000,0.000000,0.000000,0.483656,0.457526,0.041389,0.281443,0.525636,409.000000,404.000000,5.000000,34.000000,0.000000,0.000000:
0000
0000
0000
0000
,
0000
0000
0000
0000
,
0001
0000
1000
0001
0000
0100
0000
0000
0001
0000
1000
0001
0000
0100
0000
0000
,
0020
0000
1030
0000
0010
0100
0010
0000
1000
0000
0001
0010
0000
0001
1000
0000
,
0010
0000
0100
0000
0001
1000
0001
0000
0010
0000
0100
0000
0010
0000
0100
1000
,
0100
0000
1000
0000
0010
0000
0010
0000
0100
0001
0100
0001
0100
0000
0010
0000
,
1000
0000
0001
0000
1000
0100
0010
0000
0001
0000
1000
0000
0001
0000
0100
0010
,
1000
0000
0001
0000
0000
0001
1000
0000
0010
0100
0010
0000
2000
0000
3000
0000
,
1001
0000
0000
0001
0000
0000
0001
0000
1000
0000
0000
1000
0000
0000
1000
0000
,
0001
0000
0000
0001
0000
0001
0010
0000
0001
0000
0100
0000
0010
1000
0010
1000
,
0010
0000
0000
0100
0000
0100
0000
0001
1000
0000
0000
0100
0000
0100
0000
1000
,
0001
1000
0001
1000
0020
0000
0000
0130
,
0001
0000
0000
1000
0000
0001
0100
0001
0100
0000
0000
0010
0000
1000
0001
1000
,
0001
0000
0000
0010
0000
0100
1000
0100
1000
0000
0001
0000
1000
0010
1000
0010
,
1000
0000
0000
1000
0001
0000
0000
0001
0010
0000
0000
0010
0100
0000
0000
0100
,
1000
0001
1000
0001
1000
0000
0010
0000
0200
0000
0000
0000
0300
0000
0000
0000
,
0102
0000
0000
0000
1003
0000
1000
0000
0010
0100
0010
0000
1000
0001
1000
0000
,
0020
0000
0000
0000
0130
0000
0001
1000
0100
0000
0010
0000
0001
0010
0001
0000
,
0200
0000
0000
0000
0310
0000
1000
0000
0100
0010
0100
0000
0010
0001
0010
0000
,
0002
0000
0000
0000
1003
0010
1000
0000
0001
0000
0010
0000
0100
1000
0100
0000
,
0020
0000
0031
0000
0001
1000
0001
0000
0100
0000
0010
0000
1000
0001
1000
0001
,
2000
0000
3010
0000
0100
0000
0001
0000
1000
0000
0100
0000
0010
0100
0010
0000
,
0001
0000
1000
0000
0010
0100
0001
0000
0100
0000
0010
0000
1000
0001
0100
0000
,
0002
1000
0000
1003
0100
0020
0230
0300
,
1100
0000
0000
1000
0000
0001
0100
0001
0100
0000
0000
0010
0000
1000
0001
1000
,
0001
0000
0000
0010
0000
0100
1000
0100
1000
0000
0000
0001
0000
0100
0010
0100
,
0020
0000
0000
1030
0000
0001
0100
0001
1000
0000
0000
0100
0000
0010
0001
0010
,
0100
0000
0000
1000
0000
0010
0100
0010
1000
0000
0002
0000
0023
0000
0030
0000
,
0100
0000
0010
0000
0000
0001
0000
1000
0000
0010
0100
0000
0001
0000
1000
0000
,
0100
0000
0020
0000
0000
0031
1000
0000
0100
0000
0020
0000
0000
0030
0001
0000
,
0100
0000
0010
0000
0000
1000
0000
0001
0000
0010
0001
0000
0100
0000
0001
0000
,
0010
0000
0200
0000
0000
0310
0001
0000
1000
0000
0020
0000
0000
0030
0000
0000
,
0100
0000
0001
0000
1000
0000
0001
0000
1000
0000
0100
0010
0100
0000
1000
0000
,
0001
0000
0100
0000
0001
0000
0100
0000
0010
0000
1000
0001
1000
0000
0100
0000
,
0020
0031
0200
0301
2000
3001
0200
0301
,
1000
0100
0010
0001
1000
0100
0010
0001
2000
0000
0000
0000
3000
0000
0000
0000
,
1010
0000
0000
0010
0000
0000
0100
0000
0001
0100
0000
0001
0100
0000
0010
0000
,
1000
0000
0001
0000
1000
0100
0000
0100
0010
0000
0001
0000
0100
0000
0010
0000
,
2000
0000
3001
0000
0100
0000
0000
0010
1000
0001
0000
0000
0001
0010
0100
0000
,
1000
0010
0100
0001
0010
0001
1000
0010
,
0200
0000
0301
0000
1000
0001
1000
0000
0010
0000
0000
0010
0000
1000
0001
1000
,
0002
0000
0013
0000
0100
0010
0100
0000
1000
0000
0001
0000
0100
0010
0100
0010
,
0200
0000
0301
0000
1000
0001
1000
0000
0100
0000
0000
0010
0000
0001
1000
0001
,
1000
0000
0010
0000
0100
0001
0100
0000
0010
0000
1000
0000
2002
0000
3003
0000
,
1000
0000
0001
1000
0000
0100
0000
0000
1000
0000
0001
1000
0000
0100
0000
0000
,
0020
0000
0031
0000
1000
0010
1000
0000
0001
0000
1000
0100
0000
1000
0000
0000
,
0010
0000
1000
0010
0000
0100
0000
0000
0010
0000
1000
0010
0000
0100
0000
0000
,
0002
0000
0013
0000
0100
1000
0100
0000
0010
0000
0001
1000
0000
0010
0200
0000
,
0000
0300
0000
0000
0000
0000
0000
0000
0000
0000
0000
0000
0000
0000
0000
0000
;

//---------------dance-single - Loodee----------------
#NOTES:
     dance-single:
     Loodee:
     Easy:
     6:
     0.329927,0.336412,0.057944,0.331109,0.140721,279.000000,272.000000,7.000000,40.000000,0.000000,0.000000,0.329927,0.336412,0.057944,0.331109,0.140721,279.000000,272.000000,7.000000,40.000000,0.000000,0.000000:
0000
0000
0000
0000
,
0000
0000
0000
0000
,
0000
0000
0000
0000
,
0000
0000
0000
0000
,
0001
0000
1000
0000
0001
0000
0000
0000
0100
0000
0000
0100
0000
0000
0010
0000
,
1000
0001
1000
0000
0100
0100
0100
0010
,
0001
0000
0000
0001
0100
0001
0100
0000
,
0010
1000
0001
0010
0100
0100
0000
0000
,
1100
0000
1000
0000
,
1000
0000
0000
0000
1000
0010
0100
0001
,
1000
0000
0000
1000
0000
1000
0000
0000
0001
0000
0000
0001
0000
0001
0000
0000
,
0010
0100
0010
0100
2000
0000
0000
3000
,
0001
0100
0001
0100
0010
0100
0010
0100
,
0010
1000
0010
1000
0001
1000
0001
1000
,
0001
0000
0000
0010
0000
0010
0000
0000
0001
0000
0000
1000
0000
1000
0000
0000
,
0001
0100
0010
1000
0002
0000
0003
0000
,
0102
0000
0103
0010
1000
0010
0100
0001
,
2000
0000
3100
0000
0100
0010
0001
0100
,
0020
0000
1030
0100
0010
0001
0010
0100
,
2000
0000
0000
0000
3001
0000
0001
0000
0000
0010
0000
0000
0001
0000
1000
0000
,
0020
0030
0100
0001
0100
0010
1000
0100
,
0010
0010
0001
0001
1000
0000
0100
0010
,
0200
1300
0200
1300
0002
1003
0002
1003
,
0020
0000
0000
0000
0130
0002
2003
3000
,
1001
0000
0000
0000
1000
0000
0000
0001
0000
0000
0000
0000
1001
0000
1000
0000
,
1000
0000
0000
0000
0101
0000
0001
0000
0000
0001
0000
0000
1000
0000
0001
0000
,
0020
0000
0000
0000
0130
0000
1000
0000
0000
1000
0000
0000
1001
0000
0001
0000
,
0001
0000
0100
0100
0010
2000
3002
0003
,
0010
0000
0100
0000
0000
1000
0000
0001
0000
1000
0000
0000
0010
0000
0100
0000
,
0002
0203
0300
0010
0200
0302
0003
1000
,
0100
0000
0010
0000
0000
0001
0000
0010
0000
0100
0000
0000
1000
0000
0001
0000
,
2000
3020
0030
0100
0002
2003
3000
0001
,
0020
0000
0031
1000
0020
0000
0130
0001
,
0020
0000
0031
1000
0020
0000
0130
0001
,
1000
0100
1000
0010
1000
0001
1000
0010
,
0200
0001
0302
0003
,
1001
0000
0000
1000
0000
0000
0010
0000
0100
0000
0000
0000
0100
0000
0001
0000
,
1000
0000
0100
0000
0100
0000
0000
0010
0000
0000
0001
0000
0010
0000
0100
0000
,
2000
0000
3000
0000
0001
0000
0000
0000
0001
0100
0000
0000
0001
0000
1000
0000
,
0001
0010
0100
0010
0001
1000
0010
0100
,
0001
0000
1000
0000
0100
0000
0100
0000
0010
0000
0000
0100
0000
0000
1000
0000
,
0001
0100
0010
0010
1000
0001
1000
1000
,
0200
0000
0300
0000
0010
0000
0001
0000
1000
0000
0000
0001
0000
0000
0100
0000
,
0100
0010
0100
0010
1000
0100
0020
0030
,
0002
0000
0000
1003
0000
0000
0000
0000
0002
0000
0000
1003
0000
0001
0000
0000
,
0001
0000
1000
0000
0010
0000
1000
0000
0002
0000
0000
1003
0000
0001
0000
0000
,
2000
0000
0000
3100
0000
0000
0000
0000
2000
0000
0000
3100
0000
1000
0000
0000
,
1000
0000
0001
0000
0100
0000
0010
0000
2000
0000
0000
3100
0000
1000
0000
0000
;

//---------------dance-single - Loodee----------------
#NOTES:
     dance-single:
     Loodee:
     Beginner:
     1:
     0.055579,0.097263,0.024833,0.057944,0.000000,47.000000,44.000000,3.000000,7.000000,0.000000,0.000000,0.055579,0.097263,0.024833,0.057944,0.000000,47.000000,44.000000,3.000000,7.000000,0.000000,0.000000:
0000
0000
0000
0000
,
0000
0000
0000
0000
,
0000
0000
0000
0000
,
0000
0000
0000
0000
,
1000
0000
0000
0000
,
1000
0000
0000
0000
,
0001
0000
0000
0000
,
0002
0000
0003
0000
,
1000
0000
0000
0000
,
0000
0000
0000
0000
,
0001
0000
0000
0000
,
0000
0000
0000
0000
,
0001
0000
0000
0000
,
0010
0000
0000
0000
,
0100
0000
0100
0000
,
0200
0000
0300
0000
,
1001
0000
0000
0000
,
1000
0000
0000
0000
,
0010
0000
0000
0000
,
0010
0000
0000
0000
,
1000
0000
0000
0000
,
0001
0000
0000
0000
,
0010
0000
0000
0000
,
0002
0000
0003
0000
,
1001
0000
0000
0000
,
1000
0000
0000
0000
,
0010
0000
0000
0000
,
0010
0000
0000
0000
,
0100
0000
0000
0000
,
0001
0000
0000
0000
,
0010
0000
0000
0000
,
0100
0000
0000
0000
,
2000
3000
0000
0000
,
2000
3000
0000
0000
,
0001
0000
0001
0000
,
0002
0000
0003
0000
,
1001
0000
0000
0000
,
0001
0000
0000
0000
,
1000
0000
0000
0000
,
1000
0000
0000
0000
,
0100
0000
0000
0000
,
0010
0000
0000
0000
,
0100
0000
0000
0000
,
0020
0000
0030
0000
,
0001
0000
0000
0000
,
0001
0000
0000
0000
,
1000
0000
0000
0000
,
1000
0000
0000
0000
;
