#TITLE:Fire Starter;
#SUBTITLE:;
#ARTIST:Rin;
#TITLETRANSLIT:;
#SUBTITLETRANSLIT:;
#ARTISTTRANSLIT:;
#GENRE:;
#CREDIT:;
#BANNER:Fire Starter-bn.png;
#BACKGROUND:Fire Starter-bg.png;
#LYRICSPATH:;
#CDTITLE:loodeecdtitle.png;
#MUSIC:Fire Starter.ogg;
#OFFSET:0.005000;
#SAMPLESTART:40.002998;
#SAMPLELENGTH:26.657000;
#SELECTABLE:YES;
#BPMS:0.000000=143.998993
;
#STOPS:
;
#BGCHANGES:;
#KEYSOUNDS:;
#ATTACKS:;

//---------------dance-single - Loodee----------------
#NOTES:
     dance-single:
     Loodee:
     Challenge:
     11:
     0.813576,1.002018,0.156744,0.411453,1.247420,872.000000,848.000000,24.000000,63.000000,21.000000,7.000000,0.813576,1.002018,0.156744,0.411453,1.247420,872.000000,848.000000,24.000000,63.000000,21.000000,7.000000:
// measure 0
0000
0000
0000
0000
,  // measure 1
0000
0000
0000
0000
,  // measure 2
0000
0000
0000
0000
,  // measure 3
0000
0000
0000
0000
,  // measure 4
0001
0100
0000
0010
0000
0000
1000
0001
1000
0000
0100
0010
0000
0000
0001
0000
,  // measure 5
1000
0010
0000
0100
0000
0000
0010
1000
0001
0000
0010
0100
0000
0010
0001
1000
,  // measure 6
0100
0010
0000
0100
0000
0000
1000
0001
0100
0000
0010
1000
0000
0000
0001
0000
,  // measure 7
1000
0100
0000
0010
0000
0000
0001
1000
0010
0000
0100
0010
0000
0100
0001
0010
,  // measure 8
0100
0000
0000
0100
1000
0000
0001
0100
0010
0100
0001
1000
0000
1000
0100
0000
,  // measure 9
0010
0000
0100
0000
0010
0000
0001
1000
0010
0100
0010
1000
0000
1000
0001
0000
,  // measure 10
1000
0000
0100
0000
0010
0000
0100
1000
0010
1000
0001
0100
0000
0100
0001
0000
,  // measure 11
0010
0000
0100
0000
0010
0000
0001
1000
0010
1000
0100
0010
0000
0010
0001
1000
,  // measure 12
0010
0000
0100
0000
0001
0000
0010
0100
1000
0001
1000
0100
0000
0100
0010
0000
,  // measure 13
0001
0000
1000
0000
0010
0000
0100
0001
1000
0001
0100
0010
0000
0010
1000
0000
,  // measure 14
0100
0010
0100
0010
0001
1000
0001
0100
0010
1000
0010
1000
0001
0010
0100
1000
,  // measure 15
0004
4000
0000
0000
0000
0000
0000
3003
0000
0000
0000
0000
0000
0000
0000
0000
,  // measure 16
0101
0100
0000
0001
1000
0000
0100
0000
0010
0100
1000
0010
M000
0010
0001
0000
,  // measure 17
0100
0000
0000
0010
0000
0000
0000
0000
0000
1000
0000
0000
0010
0000
0000
0000
0000
0000
0010
0000
0000
0000
0000
0000
0100
0000
0000
0000
0000
0000
1000
0000
0000
0000
0000
0000
0100
0000
0000
0010
0000
0000
0100
0000
0001
0000
1000
0000
,  // measure 18
0001
0010
0000
0010
0100
0000
1000
0000
0001
1000
0001
0100
000M
0100
1000
0000
,  // measure 19
0001
0010
0000
0100
0010
0000
0010
0000
0001
1000
0001
0000
0001
0000
0100
0000
,  // measure 20
1010
0010
0000
1000
0001
0000
0010
0000
0100
1000
0001
0010
000M
0010
1000
0000
,  // measure 21
0001
0100
0000
0010
0100
0000
0100
0000
1010
0000
0000
1100
0000
0000
0101
0000
,  // measure 22
0100
0010
0000
0010
1000
0000
0001
0000
0010
0100
1000
0100
M000
0100
0001
0000
,  // measure 23
1000
0010
0000
0010
1000
0000
0001
0000
0020
0000
2030
0000
3002
0000
0103
0000
,  // measure 24
2100
0000
0000
3010
0100
0000
0001
0000
0010
0100
0010
1000
00M0
1000
0100
0000
,  // measure 25
0020
0000
0000
0031
1000
0000
0010
0000
0100
0001
0010
0100
0000
0100
1000
0000
,  // measure 26
0020
0000
0000
0130
0001
0000
1000
0000
0010
0100
0010
0001
00M0
0001
0100
0000
,  // measure 27
0020
0000
0000
1030
0001
0000
0010
0000
0100
1000
0100
0010
0001
0000
1000
0010
,  // measure 28
0100
0000
0000
0M00
0000
0000
0000
0000
1010
0000
0000
0000
1000
0000
0000
0000
0100
0000
0010
0000
0100
0000
0001
0000
0M00
0000
0001
0000
0010
0000
0000
0000
,  // measure 29
0002
0000
0000
1003
0010
0000
0100
0000
0101
0000
0000
0011
0000
0000
1100
0000
,  // measure 30
2001
0000
0000
3010
1000
0000
0001
0000
0100
0010
0100
1000
0M00
1000
0010
0000
,  // measure 31
0100
0000
0001
0000
0010
0000
0001
0000
0100
0000
0001
0000
1000
0000
0001
1000
0100
0000
0000
0000
0000
0000
0100
0000
0000
0000
0000
0000
0010
0000
0000
0000
,  // measure 32
0001
1000
0010
0000
0000
0100
0001
1000
0000
0010
0000
1000
0000
0100
0000
0010
,  // measure 33
0001
0000
0010
0000
0100
1000
0001
0001
0000
0100
0000
0010
2000
0000
0000
0000
,  // measure 34
3001
0010
0001
0000
0000
1000
0010
0100
0000
0010
0000
0100
0000
0001
0000
1000
,  // measure 35
0100
0000
0000
0010
0000
0000
0100
0000
0000
0000
0000
0000
1000
0000
0000
0001
0000
0000
0100
0000
0000
0001
0000
0000
0010
0000
0000
0000
0010
0000
0000
0000
0010
0000
0000
0000
0200
0000
0000
0000
0000
0000
0000
0000
0000
0000
0000
0000
,  // measure 36
0310
0001
1000
0000
0000
0010
0100
0001
0000
1000
0000
0001
0000
0010
0000
0001
,  // measure 37
1000
0000
0010
0000
0100
0000
0000
0000
0001
0000
1000
0000
0100
0000
0100
0000
1000
0001
1000
0000
0010
0000
0100
0000
0000
0000
0100
0000
0002
0000
0000
0000
,  // measure 38
0000
0000
0003
0000
0011
0000
0010
0100
0000
1000
0000
0010
0000
0100
0000
0001
,  // measure 39
1000
0100
1000
0000
0001
0000
0100
0000
0001
0000
1000
0000
0100
0000
0010
0000
0011
0000
0000
0000
0000
0000
0000
0000
0000
0000
0000
0000
0000
0000
0000
0000
,  // measure 40
2001
0000
0000
3100
0001
0100
0010
0002
,  // measure 41
0000
0000
0000
0000
0000
0000
1003
0000
0010
0000
0000
0100
0000
0000
0002
0000
,  // measure 42
2003
0000
0000
3010
0001
0010
1000
0200
,  // measure 43
0000
0310
0001
0200
0000
0302
0000
0023
,  // measure 44
0000
0000
0000
0130
0001
0100
1000
0002
,  // measure 45
0000
0000
0000
0000
0000
0000
0103
0000
0010
0000
0000
1000
0000
0000
0002
0000
,  // measure 46
2003
0000
3010
0000
0100
0000
0001
0000
0010
0000
0000
0100
0000
0000
0010
0000
,  // measure 47
0000
0000
0001
0000
1000
0000
0010
0000
0100
0000
0000
0001
0000
0000
0010
0000
,  // measure 48
1100
0000
1000
0000
0001
0000
0010
0100
0010
0001
1000
0010
0000
0100
0001
0000
,  // measure 49
0010
0000
0001
0000
1000
0000
0010
0100
0001
0010
0100
1000
0000
0001
0100
0000
,  // measure 50
0010
0000
1000
0000
0100
0000
0010
0100
1000
0010
1000
0001
0000
0100
0010
0000
,  // measure 51
0100
0000
0001
0000
0010
0000
0001
1000
0010
0100
0001
0100
0000
0010
1000
0100
,  // measure 52
0010
0001
1000
0001
0100
0010
1000
0010
,  // measure 53
1000
0100
0010
0001
0010
0001
1000
0010
,  // measure 54
0100
0001
0100
0010
1000
0001
0010
0100
1000
0100
1000
0010
0100
0001
1000
0100
,  // measure 55
0040
0004
0000
0000
0000
0000
0000
0033
0000
0000
0000
0000
0000
0000
0000
0000
,  // measure 56
0001
0100
0010
1000
0001
0010
0100
0010
0000
0100
0000
0001
0000
0100
0010
0001
,  // measure 57
1000
0000
0000
0001
0000
0000
0010
0000
0000
0100
0000
0000
1000
0000
0000
0001
0000
0000
0100
0000
0000
0001
0000
0000
0000
0000
0000
0010
0000
0000
0000
0000
0000
0001
0000
0000
0100
0000
0000
0001
0000
0000
1000
0000
0100
0000
0010
0000
,  // measure 58
0001
0100
0010
1000
0100
1000
0001
0100
0000
0010
0000
1000
0000
0001
0010
0001
,  // measure 59
0100
0010
0000
1000
0000
0001
0010
0100
0001
0100
1000
0100
0000
0010
0001
0100
,  // measure 60
0010
0100
0001
1000
0100
0010
0001
0100
0000
0010
0000
0001
0000
0010
0100
0010
,  // measure 61
1000
0000
0000
0001
0000
0000
0010
0000
0000
0100
0000
0000
0010
0000
0000
0100
0000
0000
1000
0000
0000
0010
0000
0000
0000
0000
0000
0100
0000
0000
0000
0000
0000
0010
0000
0000
0100
0000
0000
0001
0000
0000
1000
0000
0001
0000
0010
0000
,  // measure 62
0100
1000
0010
1000
0100
0010
0001
0100
0000
0010
0000
0100
0000
0001
1000
0100
,  // measure 63
0010
0100
0000
0002
0000
0103
0010
0001
1000
0010
0000
0002
0000
0013
0100
0001
,  // measure 64
1000
0100
0010
0001
0100
0010
1000
0010
0000
0100
0000
1000
0000
0100
0010
1000
,  // measure 65
0001
0000
0000
0010
0000
0000
0001
0000
0000
1000
0000
0000
0010
0000
0000
0100
0000
0000
0001
0000
0000
0010
0000
0000
0000
0000
0000
0100
0000
0000
0000
0000
0000
0010
0000
0000
0100
0000
0000
1000
0000
0000
0001
0000
1000
0000
0010
0000
,  // measure 66
0100
0001
0100
0010
1000
0100
0010
0001
0000
0100
0000
0001
0000
1000
0010
0100
,  // measure 67
0001
1000
0000
0100
0000
1000
0100
0010
1000
0010
0001
0100
0000
0010
1000
0010
,  // measure 68
0100
0001
0010
0100
1000
0100
0010
0001
0000
0100
0000
1000
0000
0100
0010
1000
,  // measure 69
0001
0000
0000
0010
0000
0000
0001
0000
0000
1000
0000
0000
0100
0000
0000
1000
0000
0000
0001
0000
0000
0100
0000
0000
0000
0000
0000
0010
0000
0000
0000
0000
0000
0100
0000
0000
0001
0000
0000
1000
0000
0000
0001
0000
0100
0000
0001
0000
,  // measure 70
0010
0000
0100
0000
1000
0000
0010
0000
0000
0000
1000
0000
0100
0000
1000
0000
0010
0000
0100
0000
0001
0000
0010
0000
0000
0000
0001
0000
0100
0000
0010
1000
,  // measure 71
0010
0000
1000
0001
1000
0000
0001
0000
0100
0000
0010
0000
0100
0000
0001
0000
1000
0000
0100
0000
0010
0000
0100
0000
0000
0000
0010
0000
1000
0000
0010
0000
,  // measure 72
0001
1000
0000
1000
0010
0000
0100
0000
0001
0000
0000
0010
0000
0000
0001
0000
,  // measure 73
1000
0010
0000
0010
0100
0000
0001
0000
1000
0000
0100
0010
0000
0001
0010
0100
,  // measure 74
1000
0010
0000
0010
0100
0000
0001
0000
0010
0000
0100
1000
0000
0001
1000
0010
,  // measure 75
0100
0000
0001
0000
0000
0000
0001
0000
1000
0000
0000
0000
0100
0000
0000
0000
1000
0000
0000
0000
0000
0000
0001
0000
0000
0000
0000
0000
0100
0000
0001
1000
,  // measure 76
0001
0000
0010
0100
0010
0000
0001
0000
1000
0000
0010
0100
0001
0000
1000
0000
,  // measure 77
0100
0000
0010
0100
1000
0000
0010
0000
0100
0000
0001
0100
0010
0000
1000
0000
,  // measure 78
0001
0010
0001
0010
0100
1000
0010
1000
0001
0010
0001
1000
0010
0100
0001
1000
,  // measure 79
0100
0010
0001
0100
0004
4000
0000
0003
3200
0000
0000
0300
0000
0000
0000
0000
,  // measure 80
1002
0000
0000
0000
0013
000M
0020
0000
2230
0000
3300
0000
0010
M000
0020
0000
,  // measure 81
0032
0000
0000
0000
0000
0000
0003
0000
0000
0000
0000
0000
0010
0000
0000
000M
0000
0000
0020
0000
0000
0000
0000
0000
2130
0000
0000
0000
0000
0000
0000
0000
0000
0000
0000
0000
3001
0000
0000
0100
0000
0000
0010
0000
1000
0000
0001
0000
,  // measure 82
0020
0000
0000
0000
0130
00M0
0200
0000
0322
0000
0033
0000
0100
000M
0200
0000
,  // measure 83
0320
0000
0030
0000
1000
00M0
2000
0000
3102
0000
0003
0000
0002
0000
0003
0000
,  // measure 84
2001
0000
0000
0000
3010
M000
0020
0000
0232
0000
0303
0000
0010
000M
0020
0000
,  // measure 85
0230
0000
0000
0000
0000
0000
0300
0000
0000
0000
0000
0000
0010
0000
0000
0M00
0000
0000
0020
0000
0000
0000
0000
0000
0132
0000
0000
0000
0000
0000
0000
0000
0000
0000
0000
0000
1003
0000
0000
0100
0000
0000
0010
0000
0001
0000
1000
0000
,  // measure 86
0020
0000
0000
0000
0130
00M0
0200
0000
2320
0000
3030
0000
0100
M000
0200
0000
,  // measure 87
0320
0000
0030
0000
0001
00M0
0002
0000
0023
0000
0230
0000
2300
0000
3002
0000
,  // measure 88
0023
0000
0000
0000
,  // measure 89
0000
0000
0000
0000
,  // measure 90
0000
0030
0000
0000
;

//---------------dance-single - Loodee----------------
#NOTES:
     dance-single:
     Loodee:
     Hard:
     10:
     0.605517,0.747146,0.156744,0.346143,0.548604,649.000000,625.000000,24.000000,53.000000,8.000000,0.000000,0.605517,0.747146,0.156744,0.346143,0.548604,649.000000,625.000000,24.000000,53.000000,8.000000,0.000000:
0000
0000
0000
0000
,
0000
0000
0000
0000
,
0000
0000
0000
0000
,
0000
0000
0000
0000
,
0001
0010
0001
1000
0001
0100
0001
1000
,
0100
0010
0100
1000
0100
0010
0001
0000
,
0001
1000
0100
1000
0010
0100
0001
1000
,
0100
0010
0001
1000
0010
0000
0000
0000
,
1010
0000
0000
0000
0010
0000
0100
0000
0001
1000
0001
0010
0000
0000
0100
0000
,
1000
0000
0000
0000
0010
0000
0100
0000
0010
1000
0001
1000
0000
0000
0100
0000
,
0010
0000
0000
0000
0001
0000
1000
0000
0010
0100
0010
1000
0000
0000
0001
0000
,
0010
0000
0000
0000
0100
0000
0010
0000
0001
1000
0010
1000
0000
0000
0001
0000
,
0010
0000
0000
0000
0100
0000
1000
0000
0010
0100
0001
0100
0000
0000
0010
0000
,
1000
0000
0000
0000
0100
0000
0010
0000
0001
1000
0100
1000
0000
0000
0010
0000
,
0100
0000
0000
0000
0001
0000
1000
0000
0001
0010
0100
1000
0000
0000
0010
0000
,
0100
0000
0001
0010
M10M
0000
M00M
0000
,
1001
0000
0000
1000
0010
0000
0100
0000
0001
0000
0010
0100
0000
0010
0001
0000
,
1000
0000
0000
0010
0100
0000
0100
0000
0001
0000
0010
0000
0100
1000
0100
0010
,
0001
0000
0000
1000
0010
0000
0100
0000
0010
0000
1000
0001
0000
1000
0100
0000
,
0010
0000
0000
0001
0010
0000
0010
0000
0001
0000
0100
0000
0100
0000
0010
0000
,
1010
0000
0000
1000
0001
0000
0010
0000
0100
0000
1000
0010
0000
1000
0001
0000
,
0100
0000
0000
0010
1000
0000
1000
0000
1010
0000
0000
1001
0000
0000
0001
0000
,
0010
0000
0000
0100
0010
0000
0001
0000
1000
0000
0010
0100
0000
0010
1000
0000
,
1001
0000
1001
0000
0002
0023
0230
2300
,
3020
0000
0000
0000
0130
0000
0001
0000
1000
0100
0010
0100
0000
0000
1000
0000
,
0020
0000
0000
0000
0130
0000
0001
0000
0010
0000
0100
1000
0000
0000
0010
0000
,
0200
0000
0000
0000
0301
0000
1000
0000
0100
0010
0001
1000
0000
0000
0010
0000
,
0200
0000
0000
0000
0301
0000
1000
0000
0100
1000
0100
1000
0100
0000
0010
0000
,
0001
0000
0000
0000
0101
0000
0100
0000
0001
1000
0001
0010
0000
0000
0100
0000
,
0020
0000
0000
0000
0031
0000
1000
0000
1001
0000
0000
0101
0000
0000
0100
0000
,
0010
0000
0000
1000
0010
0000
1000
0000
0001
0000
0000
0010
0001
0000
0010
0000
,
0100
1000
0100
0000
1000
0001
1000
0000
0010
0000
0000
0010
0000
0000
0010
0000
,
0100
0000
0001
0000
1000
0000
0010
0100
0000
0100
0000
0100
0000
0100
0000
0100
,
0000
0000
0000
0000
0001
0000
1000
0100
0000
0100
0000
0100
2000
0000
0000
0000
,
3010
0000
0100
0000
0001
0000
1000
0001
0000
0001
0000
0001
0000
0001
0000
0001
,
0000
0000
0000
0000
0000
0000
0010
0000
0000
0010
0000
0000
0100
0000
1000
0000
0001
0000
0200
0000
0000
0000
0000
0000
,
0310
0000
1000
0000
0001
0000
1000
0010
0000
0010
0000
0010
0000
0010
0000
0010
,
0000
0000
0000
0000
0100
0000
0001
0000
0010
0100
0010
0001
0000
0000
2000
0000
,
0000
0000
3000
0000
1001
0000
0001
0100
0000
0100
0000
0100
0000
0100
0000
0100
,
0000
0000
0002
0000
1003
0001
0000
0010
,
0210
0000
0000
1300
0001
1000
0010
0200
,
0000
0000
0000
0000
0000
0000
0301
0000
0010
0000
0000
0100
0000
0000
2000
0000
,
0000
0000
0000
3001
1000
0010
0100
0020
,
0000
0130
0001
0200
0000
0320
0000
2030
,
0000
0000
0000
3100
0010
0001
0100
0002
,
0000
0000
0000
0000
0000
0000
1003
0000
0001
0000
0000
0010
0000
0000
0200
0000
,
0000
0000
0310
0000
0001
0000
1000
0000
0100
0000
0000
0010
0000
0000
0002
0000
,
0000
0000
1003
0000
0010
0000
0100
0000
0001
0000
0000
1000
0000
0000
0010
0000
,
1001
0000
0000
0000
1000
0000
0001
0000
0010
0000
0000
0100
0000
0000
0010
0000
,
0001
0000
1000
0000
0010
0000
0100
0000
0001
0000
1000
0100
0000
0000
0010
0000
,
0100
0000
0000
0000
1000
0000
0010
0000
1000
0000
0000
0100
0000
0000
0010
0000
,
0001
0000
0100
0000
0001
0000
0010
0000
0100
0000
0010
0001
0000
0000
1000
0000
,
0010
0100
0010
0100
0001
1000
0001
1000
,
0010
0100
0001
1000
0100
0010
0100
1000
,
0001
0100
0001
0100
0001
0100
0001
0100
0001
1000
0001
1000
0001
1000
0001
1000
,
0400
0000
03MM
00MM
,
0100
0000
0010
0000
0001
1000
0001
0100
0000
0010
0000
0100
0000
0000
0001
0000
,
1000
0000
0100
0000
0010
0100
1000
0001
0000
0100
0000
0001
2000
0000
0000
0000
,
3010
0000
0100
0000
0001
0010
0001
0010
0000
0100
0000
0010
0000
0000
0001
0000
,
1000
0010
0000
0100
0000
0000
0010
0000
1000
0001
1000
0001
0000
0000
0010
0000
,
0100
0000
0010
0000
0001
1000
0010
1000
0000
0100
0000
1000
0000
0000
0010
0000
,
0100
0000
0001
0000
1000
0100
0010
0100
0000
1000
0000
0100
0020
0000
0000
0000
,
0031
0000
0100
0000
0010
1000
0010
0100
0000
0001
0000
0100
0000
0000
0010
0000
,
1000
0001
0000
0020
0000
0000
0031
0000
1000
0001
0000
0020
0000
0000
0130
0000
,
0010
0000
0001
0000
1000
0010
0100
0001
0000
1000
0000
0100
0000
0000
0010
0000
,
0100
0000
1000
0000
0001
0010
0100
1000
0000
0001
0000
1000
0020
0000
0000
0000
,
0130
0000
0001
0000
0010
0001
1000
0010
0000
0100
0000
0010
0000
0000
1000
0000
,
0001
0010
0000
0100
0000
0000
0010
0000
0001
1000
0001
1000
0000
0000
0010
0000
,
0100
0000
0001
0000
1000
0100
0010
0100
0000
0010
0000
0001
0000
0000
0100
0000
,
0010
0000
1000
0000
0001
0100
0010
1000
0000
0001
0000
1000
0200
0000
0000
0300
,
1100
0000
0000
0100
0000
0000
0010
0000
0011
0000
0000
0001
0000
0000
0100
0000
,
0010
0000
1000
0010
0000
0000
0100
0000
0001
0000
0000
0010
0000
0000
1000
0000
,
0010
0000
0000
0100
0010
0000
0001
0000
1000
0000
0000
0001
0000
0000
0000
0000
,
0100
0000
0000
0010
0100
0000
0001
0000
1000
0000
0000
0100
0000
0000
0000
0000
,
1000
0000
0000
0001
1000
0000
0010
0000
0100
0000
0000
0010
0000
0000
0000
0000
,
1000
0000
0000
0100
1000
0000
0001
0000
0100
0000
0000
0010
0000
0000
0000
0000
,
1000
0000
0100
0000
1000
0000
0010
0000
0100
0000
0001
1000
0001
0000
0010
0000
,
0100
0000
0010
0000
0001
0000
0100
0000
0010
0000
1000
0001
1000
0000
0100
0000
,
0010
0001
0010
0001
0010
0001
0010
0001
1000
0001
1000
0001
1000
0001
1000
0001
,
4000
0000
3020
0000
0130
0020
0000
1030
,
1002
0000
0013
0100
2100
0000
3100
1000
,
2000
0000
0000
0000
3100
0000
1000
0000
0020
0000
0000
0000
0230
0000
0000
0300
,
2001
0000
3100
0010
0012
0000
0013
0001
,
2000
0000
3001
1000
2001
3000
0020
0030
,
0210
0000
0301
1000
2001
0000
3001
1000
,
0002
0000
0000
0000
1003
0000
0001
0000
0020
0000
0000
0000
0230
0000
0000
0300
,
2100
0000
3001
0100
0201
0000
0301
0100
,
0002
0000
1003
0001
2000
3020
0230
0302
,
1003
0000
0000
0000
;

//---------------dance-single - Loodee----------------
#NOTES:
     dance-single:
     Loodee:
     Medium:
     7:
     0.446907,0.488519,0.143682,0.339612,0.146947,479.000000,457.000000,22.000000,52.000000,0.000000,0.000000,0.446907,0.488519,0.143682,0.339612,0.146947,479.000000,457.000000,22.000000,52.000000,0.000000,0.000000:
0000
0000
0000
0000
,
0000
0000
0000
0000
,
0000
0000
0000
0000
,
0000
0000
0000
0000
,
0001
1000
0001
1000
,
0100
0010
0100
0010
,
0010
0001
0010
0001
,
1000
0010
1000
0000
,
1000
0000
0000
0001
0000
0000
1000
0000
0100
0000
0000
0010
0000
0000
0100
0000
,
0010
0000
0000
0001
0000
0000
0010
0000
0001
0000
0100
0000
0010
0000
1000
0000
,
0001
0000
0000
0100
0000
0000
0001
0000
0010
0000
0000
0100
0000
0000
0010
0000
,
0001
0000
0000
1000
0000
0000
0001
0000
0100
0000
0010
0000
1000
0000
0001
0000
,
0010
0100
0010
0100
1000
0001
1000
0001
,
0100
0001
0100
0001
0010
0100
0010
0100
,
4000
0000
0000
0000
,
3004
0000
0003
0000
,
0101
0000
0000
0000
0001
0000
1000
0000
0100
0000
0000
0010
0000
0000
0100
0000
,
1000
0000
0001
0100
0001
0010
0200
0000
,
1300
0000
0000
0000
0010
0000
0100
0000
0010
0000
0000
1000
0000
0000
0010
0000
,
0100
0000
0001
0010
0001
1000
1000
0100
,
0100
0000
0000
0000
0010
0000
0100
0000
1000
0000
0000
0001
0000
0000
1000
0000
,
0010
0000
0000
0000
0100
0000
0001
0000
1001
0000
0000
1001
0000
0000
0000
0000
,
1000
0000
0000
0000
0100
0000
0010
0000
0001
0000
0000
1000
0000
0000
0001
0000
,
0100
0000
0110
0000
0002
2003
3002
2003
,
3200
0000
0000
0000
0310
0000
0001
0000
0100
0000
0000
0010
0000
0000
0010
0000
,
2000
0000
0000
0000
3001
0000
1000
0000
0100
0000
0000
0010
0000
0000
0001
0000
,
0200
0000
0000
0000
0310
0000
1000
0000
0001
0000
0000
0010
0000
0000
0010
0000
,
0200
0000
0310
0001
1000
0001
1000
0010
,
0010
0000
0000
0000
1001
0000
0000
0000
0001
0000
0000
0010
0000
0000
0010
0000
,
0002
0000
0000
0000
0103
0000
0001
0000
1001
0000
0000
1001
0000
0000
0000
0000
,
2000
0000
0000
0000
3010
0000
0100
0000
0010
0000
0000
1000
0000
0000
1000
0000
,
0001
0000
0010
0000
0001
0000
0010
0000
0100
0000
0000
0100
0000
0000
0100
0000
,
1000
0000
0001
0000
1000
0000
0001
0200
0000
0000
0000
0000
0000
0000
0000
0300
,
0001
0000
0010
0000
0001
0000
0010
0100
0000
0000
0000
0000
2000
0000
0000
0000
,
3010
0000
0100
0000
0010
0000
0100
0002
0000
0000
0000
0000
0000
0000
0000
0003
,
0100
0010
0100
0010
1000
0000
1100
0000
,
1001
0000
0000
0000
0001
0000
0100
0020
0000
0000
0000
0000
0000
0000
0000
0030
,
0100
0001
0100
0001
0020
0000
0000
0130
,
0000
0000
1100
0000
1000
0001
0100
0001
,
0010
0001
0000
0000
1001
0000
0000
0000
,
1010
0000
0000
0010
0100
0001
0100
0020
,
0000
0000
0000
0000
0000
0000
1030
0000
0001
0000
0000
1000
0000
0000
0100
0000
,
0000
0000
0000
0100
0010
0001
0010
0200
,
0000
0310
0000
0002
0000
2003
0000
3010
,
0000
0000
0000
1000
0001
1000
0001
0020
,
0000
0000
0000
0000
0000
0000
0031
0000
1000
0000
0000
0010
0000
0000
1000
0000
,
0001
0000
0000
0000
0010
0000
0000
0000
0100
0000
0000
1000
0000
0000
0100
0000
,
1000
0000
0000
0000
0001
0000
0000
0000
0100
0000
0000
0001
0000
0000
0100
0000
,
0001
0000
0000
1000
0000
0000
1000
0000
0001
0000
0000
0100
0000
0000
0100
0000
,
0001
0000
0000
0010
0000
0000
0010
0000
0001
0000
1000
0000
0001
0000
1000
0000
,
1000
0000
0000
0001
0000
0000
0001
0000
1000
0000
0000
0010
0000
0000
0010
0000
,
1000
0000
0000
0100
0000
0000
0100
0000
1000
0000
0001
0000
1000
0000
0001
0000
,
0001
0100
0001
0100
0010
1000
0010
1000
,
0100
0010
0100
0010
0001
0010
0001
0010
,
0004
0000
0000
0000
,
4003
0000
3000
0000
,
0001
0100
0010
1000
0010
0100
0001
0000
,
1000
0100
0010
0100
1000
0100
0020
0000
,
0031
0100
0001
0010
0001
0100
0010
1000
,
0001
0000
0100
0000
0001
0010
0100
1000
,
0100
1000
0001
1000
0010
0100
0010
0000
,
0100
0001
1000
0100
0010
0100
2000
0000
,
3010
1000
0100
0010
0001
0100
0001
0010
,
0200
0000
0000
2300
0000
0000
3000
0000
0200
0000
0000
2300
0000
0000
3000
0000
,
0001
0100
0010
1000
0001
0100
0010
0000
,
1000
0100
0010
0001
1000
0100
0020
0000
,
0130
1000
0010
1000
0001
1000
0010
1000
,
0001
0000
0010
0000
0001
0100
0001
1000
,
0010
0100
0001
1000
0010
0100
0001
0000
,
0010
0100
1000
0001
0010
0100
2000
0000
,
3010
0000
0000
0100
0000
0000
0010
0000
1000
0000
0000
0001
0000
0000
1000
0000
,
0100
0000
0000
0010
0000
0000
0100
0000
0020
0000
0000
0000
0000
0000
0000
0000
,
0031
0000
0000
0100
0000
0000
0001
0000
1000
0000
0000
0001
0000
0000
0000
0000
,
0100
0000
0000
0010
0000
0000
0100
0000
0001
0000
0000
1000
0000
0000
0000
0000
,
0100
0000
0000
1000
0000
0000
0100
0000
0010
0000
0000
0001
0000
0000
0000
0000
,
0100
0000
0000
0001
0000
0000
0100
0000
0010
0000
0000
1000
0000
0000
0000
0000
,
0001
1000
0001
1000
0100
0010
0100
0010
,
0001
0100
0001
0100
0010
1000
0010
1000
,
0200
0320
0032
0203
,
0340
0000
0030
0000
,
2002
0000
3003
0000
0011
0000
0001
0010
,
0001
0001
0022
0033
,
2002
0000
3003
0000
1010
0000
1000
0010
,
0100
0000
0100
0000
0002
0003
0002
0003
,
2002
0000
3003
0000
1010
0000
0010
1000
,
0010
0010
2020
3030
,
2002
0000
3003
0000
1100
0000
0100
1000
,
0001
0000
0001
0000
2000
3020
2030
3020
,
0130
0000
0000
0000
;

//---------------dance-single - Loodee----------------
#NOTES:
     dance-single:
     Loodee:
     Easy:
     4:
     0.218322,0.258627,0.065310,0.124089,0.000000,234.000000,224.000000,10.000000,19.000000,0.000000,0.000000,0.218322,0.258627,0.065310,0.124089,0.000000,234.000000,224.000000,10.000000,19.000000,0.000000,0.000000:
0000
0000
0000
0000
,
0000
0000
0000
0000
,
0000
0000
0000
0000
,
0000
0000
0000
0000
,
0001
0000
1000
0000
,
0001
0000
0010
0000
,
0010
0000
0001
0000
,
1000
0000
0001
0000
,
1001
0000
1000
0000
,
1000
0000
0001
0100
,
0010
0000
0010
0000
,
0010
0000
1000
0100
,
0010
0000
0001
0000
,
0100
0000
0010
0000
,
1000
0010
1000
0001
,
2000
0000
3000
0000
,
1100
0000
0100
0010
,
0001
0000
0001
0001
,
0100
0000
0100
0010
,
1000
0000
0002
0013
,
0010
0000
0010
0001
,
1000
0000
1010
0000
,
1001
0000
1000
0100
,
0010
0010
0020
0000
,
0031
0000
0001
1000
,
0010
0000
0010
0100
,
0001
0000
0001
0010
,
0100
0000
0000
0000
0100
0000
0000
1000
,
1000
0001
0100
0001
,
0100
0000
0110
0000
,
1001
0000
0001
0000
,
0010
0010
0100
0000
,
1000
0010
1000
0010
,
1000
0000
0000
0002
,
1003
0100
1000
0100
,
1000
0000
0100
0200
,
0310
0001
0010
0001
,
0010
0000
0000
0000
0001
0000
0000
2000
,
0000
3010
0100
0010
,
0020
0000
1030
0000
,
0002
0000
0013
0100
,
1000
0000
0001
0000
,
0200
0000
0310
1000
,
0010
0000
0100
0000
,
0001
0000
1000
0100
,
1000
0000
0001
0000
,
0100
0000
0010
0000
,
1000
0000
0200
0000
,
0310
0000
0010
0000
,
0010
0000
0001
1000
,
0010
0000
0010
0000
,
0010
0000
1000
0100
,
0010
0000
0001
0000
,
1000
0000
0010
0000
,
1000
0100
0010
0001
,
2000
0000
3000
0000
,
0001
0001
0001
1000
,
0010
0010
0010
0100
,
0100
0001
0100
0100
,
0010
0000
1000
0100
,
0010
0010
0010
0001
,
1000
1000
1000
0100
,
0100
1000
1000
0001
,
0200
0300
0200
0300
,
0001
0001
0001
0010
,
0001
0001
0001
0100
,
0100
0001
0100
0001
,
1000
0000
0001
0010
,
0100
0100
0100
1000
,
0100
0100
0100
0010
,
0001
0000
0001
0000
,
1000
0000
0020
0000
,
0130
0000
0001
0000
,
0100
0000
0000
0000
,
0100
0000
0010
0000
,
0100
0000
0000
0000
,
0100
0000
0010
0000
,
1000
0000
0100
0000
,
0010
0001
0010
0001
,
2000
0000
3000
0000
,
1001
0000
0001
0000
,
0001
0000
0002
0003
,
1001
0000
1000
0000
,
0100
0000
0020
0030
,
0011
0000
0001
0000
,
0010
0000
0002
0003
,
0101
0000
0100
0000
,
0010
0000
2000
0000
,
3001
0000
0000
0000
;

//---------------dance-single - Loodee----------------
#NOTES:
     dance-single:
     Loodee:
     Beginner:
     2:
     0.075573,0.114946,0.000000,0.052248,0.000000,81.000000,81.000000,0.000000,8.000000,0.000000,0.000000,0.075573,0.114946,0.000000,0.052248,0.000000,81.000000,81.000000,0.000000,8.000000,0.000000,0.000000:
0000
0000
0000
0000
,
0000
0000
0000
0000
,
0000
0000
0000
0000
,
0000
0000
0000
0000
,
0001
0000
0000
0000
,
0001
0000
0000
0000
,
1000
0000
0000
0000
,
1000
0000
0000
0000
,
0020
0000
0000
0000
,
0000
0000
0000
0000
,
0000
0000
0000
0000
,
0000
0000
0030
0000
,
1000
0000
0000
0000
,
0001
0000
0000
0000
,
1000
0000
0000
0000
,
0100
0000
0000
0000
,
0010
0000
0000
0000
,
0010
0000
0000
0000
,
0001
0000
0000
0000
,
0001
0000
0000
0000
,
1000
0000
0000
0000
,
1000
0000
1000
0000
,
1000
0000
0000
0000
,
0010
0000
0010
0000
,
0010
0000
0000
0000
,
0010
0000
0000
0000
,
0100
0000
0000
0000
,
0100
0000
0000
0000
,
0002
0003
0000
0000
,
0001
0000
0001
0000
,
0001
0000
0000
0000
,
1000
0000
0000
0000
,
0200
0000
0000
0000
,
0300
0000
0000
0000
,
2000
0000
0000
0000
,
3000
0000
0000
0000
,
0002
0000
0000
0000
,
0003
0000
0000
0000
,
0000
0200
0000
0000
,
0300
0000
0000
0000
,
0001
0000
0000
0000
,
0000
0000
0000
0000
,
0001
0000
0000
0000
,
0000
0000
0000
0000
,
1000
0000
0000
0000
,
0000
0000
0000
0000
,
1000
0000
0000
0000
,
0000
0000
0000
0000
,
0001
0000
0000
0000
,
0001
0000
0000
0000
,
1000
0000
0000
0000
,
1000
0000
0000
0000
,
0001
0000
0000
0000
,
0001
0000
0000
0000
,
0020
0000
0000
0000
,
0000
0000
0030
0000
,
0001
0000
0000
0000
,
1000
0000
0000
0000
,
0010
0000
0000
0000
,
1000
0000
0000
0000
,
0100
0000
0000
0000
,
0010
0000
0000
0000
,
0100
0000
0000
0000
,
1000
0000
1000
0000
,
1000
0000
0000
0000
,
0001
0000
0000
0000
,
0100
0000
0000
0000
,
0010
0000
0000
0000
,
0100
0000
0000
0000
,
0001
0000
0000
0000
,
0010
0000
0010
0000
,
0010
0000
0000
0000
,
0001
0000
0000
0000
,
0001
0000
0000
0000
,
1000
0000
0000
0000
,
1000
0000
0000
0000
,
0010
0000
0000
0000
,
0100
0000
0000
0000
,
0020
0000
0000
0000
,
0000
0000
0030
0000
,
1000
0000
1000
0000
,
1000
0000
0000
0000
,
0001
0000
0001
0000
,
0001
0000
0000
0000
,
0010
0000
0010
0000
,
0010
0000
0000
0000
,
0100
0000
0100
0000
,
0100
0000
0000
0000
,
1000
0000
0000
0000
;
