#TITLE:Dance With Cannibals;
#SUBTITLE:;
#ARTIST:Wildpuppet;
#TITLETRANSLIT:;
#SUBTITLETRANSLIT:;
#ARTISTTRANSLIT:;
#GENRE:Electro House;
#CREDIT:Feraligatr;
#BANNER:Dance with Cannibals-bn.png;
#BACKGROUND:Dance with Cannibals-bg.png;
#LYRICSPATH:;
#CDTITLE:cdtitle.png;
#MUSIC:Dance with Cannibals.ogg;
#OFFSET:0.009000;
#SAMPLESTART:52.491001;
#SAMPLELENGTH:15.000000;
#SELECTABLE:YES;
#DISPLAYBPM:128.000000;
#BPMS:0.000000=128.000000
,30.000000=192.000000
,32.000000=128.000000
,110.000000=192.000000
,111.000000=96.000000
,111.500000=192.000000
,112.000000=128.000000
,175.000000=96.000000
,175.500000=192.000000
,176.000000=128.000000
;
#STOPS:30.000000=0.039000,
30.250000=0.039000,
30.500000=0.039000,
30.750000=0.039000,
31.000000=0.079000,
31.500000=0.078000,
110.000000=0.078000,
110.500000=0.078000
;
#BGCHANGES:;
#KEYSOUNDS:;
#ATTACKS:;

//---------------dance-single - Feraligatr----------------
#NOTES:
     dance-single:
     Feraligatr:
     Challenge:
     10:
     0.788767,0.794872,0.333333,0.273504,0.957265,575.000000,39.000000,32.000000,19.000000,0.000000,22.000000,0.788767,0.794872,0.333333,0.273504,0.957265,575.000000,39.000000,32.000000,19.000000,0.000000,22.000000:
0000
0000
0000
0000
,
0000
0000
0000
0000
,
0000
0000
0000
0000
,
0000
0000
0000
0000
,
1000
0001
0100
0010
0000
1000
0001
0010
0000
0100
0010
0001
0000
1000
0010
0100
,
0000
0001
1000
0100
0000
0010
0100
1000
0000
0001
1000
0010
0000
0100
0010
1000
,
0000
0001
0010
0100
0000
0010
0001
1000
0000
0010
0100
0001
0000
1000
0100
0010
,
0001
0000
0000
0001
0100
0000
0010
0000
1000
0100
1000
0100
0020
0000
0031
0000
,
1001
0000
1000
0000
0010
0000
0100
0001
0000
0001
0000
0001
0010
0000
0010
0000
,
0200
0000
0000
0300
0000
0000
0000
1000
0000
1000
0000
1000
0010
0000
0101
0000
,
1001
0000
1000
0000
0100
0000
0010
0001
0000
0001
0000
0001
0100
0000
0100
0000
,
0020
0000
0000
0000
0000
0000
0030
0000
1000
0000
0010
0000
1000
0001
1000
0000
0000
0000
1000
0000
0000
0000
1000
0000
0100
0000
0000
0000
0110
0000
0000
0000
,
0011
0000
0001
0000
1000
0000
0100
1000
0000
1000
0000
1000
0001
0000
0001
0000
,
0200
0000
0000
0300
0000
0000
0000
0010
0000
0010
0000
0010
1000
0000
1001
0000
,
0011
0000
0010
0000
0100
0000
1000
0001
0000
0001
0000
0001
0100
0000
0100
0000
,
0020
0000
0000
0000
0000
0130
0001
1000
0000
1000
0100
0000
0010
0000
0010
0000
,
0011
0000
1000
0000
0010
0000
0000
0100
0001
1000
0100
0010
0200
0000
1300
0000
,
0002
0000
0000
0003
0100
0000
0000
0001
1000
0100
0010
0000
0001
0000
1001
0000
,
1010
0000
0010
0000
0100
0000
0000
0001
1000
0100
0010
0000
0002
0000
1003
0000
,
0020
0000
0000
0000
0000
0000
0030
0000
1000
0000
0001
0000
1000
0100
1000
0000
0000
0000
1000
0000
0000
0000
1000
0000
0001
0000
0000
0000
0101
0000
0000
0000
,
1001
0000
0001
0000
0010
0000
0000
0100
1000
0001
0100
0010
0200
0000
0301
0000
,
2000
0000
0000
3000
0100
0000
0000
1000
0001
0100
0010
0000
0100
0000
0101
0000
,
1001
0000
1000
0000
0001
0000
0000
0010
0000
0010
0000
0010
0110
0000
1000
0000
,
0002
0000
0000
0000
0003
0100
0000
0100
0010
1000
0001
0000
0020
0000
0100
0030
,
1100
1000
0001
0100
0010
0100
0001
1000
,
0100
0010
0001
1000
0010
0100
0010
1000
,
0001
0000
0010
0000
0100
0000
0010
0000
0001
0000
1000
0000
0010
0000
0100
0001
,
1000
0000
0100
0000
1000
0000
0100
0000
0010
0000
0001
0000
0010
0000
0001
0000
1M00
0000
0000
0000
00M0
0000
0000
0000
M000
0000
0000
0M00
0000
0000
0000
0000
,
MM41
0000
0230
0000
1300
0000
0001
0000
1000
0100
1000
0001
0100
0010
0100
0001
,
0040
0000
0000
0130
1000
0001
0100
0000
010M
1000
0010
0000
M010
0001
1000
0000
,
1400
0000
0320
0000
0031
0000
1000
0000
0010
0100
0001
1000
0000
0001
1000
0000
,
0100
1000
0001
0100
0000
0010
1000
0001
0000
1000
0100
0010
0002
0000
2003
3000
,
1040
0000
0230
0000
0301
0000
1000
0000
0100
0010
0100
1000
0100
0000
1000
0000
,
0004
0000
0000
0103
0010
1000
0001
0000
0010
0000
001M
0000
1000
0000
0100
0000
,
0410
0000
2300
0000
3001
0000
0100
0000
0001
1000
0100
0010
0000
0100
0010
0000
,
0001
0100
0010
1000
0001
0100
0010
1000
0001
0100
0010
1000
0100
1000
0100
1000
,
0004
0000
0000
0000
0103
0010
1000
0010
0000
0010
0000
M010
0002
0000
2003
3000
,
1040
0000
0130
0001
0100
0001
1000
0100
0000
0100
0000
M100
0001
1000
0010
0000
,
0410
0000
0000
0000
0310
1000
0001
0010
0000
0010
0000
001M
1000
0000
0100
0000
,
0110
0000
0010
0000
0001
1000
0010
0100
0000
0000
1000
0000
0100
0000
0001
0000
,
1004
0000
0000
0000
0000
0000
0103
0000
0010
0000
1000
0000
0100
0000
0010
0000
0001
0000
0100
0000
0000
0010
0000
0000
,
4010
0000
0000
3001
0010
0100
0010
0001
0000
1100
0000
1000
0001
0000
0101
0000
,
1000
0001
0100
0010
0100
0001
1000
0001
0010
0001
1000
0010
0100
0010
1000
0001
,
0010
0100
0010
0001
1000
0010
1000
0001
0010
0001
0100
0010
2000
0000
000M
3000
,
1040
0000
0230
0000
0301
0000
1000
0000
0100
0010
0100
1000
0001
0100
0010
1000
,
0400
0000
0000
0310
0001
1000
0010
0000
M010
0001
0100
0000
010M
1000
0001
0000
,
0041
0000
0230
0000
1300
0000
0001
0000
0100
0010
1000
0001
0000
1000
0001
0000
,
0010
0001
1000
0010
0000
0100
0010
1000
0000
0001
1000
0100
0020
0000
0031
0000
,
1004
0000
0203
0000
0310
0000
1000
0000
0001
0010
0100
1000
0100
0000
1000
0000
,
0004
0000
0000
1003
0010
1000
0001
0000
0100
0000
010M
0000
1000
0000
0010
0000
,
0410
0000
0302
0000
1003
0000
0010
0000
1000
0001
0010
0100
0000
0010
0100
0000
,
1000
0010
0100
0001
1000
0010
0100
0001
1000
0010
0100
0001
0010
0001
0010
0001
,
4000
0000
0000
0000
3010
0100
0001
0100
0000
010M
1000
0001
0020
0000
0230
0300
,
4100
0000
3001
0100
0010
1000
0001
0010
0000
0010
0000
001M
1000
0001
0100
0000
,
0410
0000
0000
0000
0301
1000
0001
0010
0000
001M
1000
0001
0010
0000
0100
0000
,
1100
0000
0100
0000
1000
0001
0100
0010
0000
0000
0001
0000
0010
0000
1000
0000
,
4001
0000
0000
0000
0000
0000
3100
0000
0010
0000
0001
0000
0100
0000
0010
0000
1000
0000
0100
0000
0000
0010
0000
0000
,
0014
0000
0000
0013
0100
1000
0001
0100
0000
1010
0000
1000
0001
0000
0011
0000
,
1000
0100
1000
0001
0100
0001
1000
0001
0100
0010
1000
0001
0010
0100
0010
0001
,
1000
0001
0100
0010
0100
0001
0010
0100
1000
0001
0100
0010
2000
0000
0000
3000
,
2002
0000
0000
0000
,
0000
0000
0000
0000
,
3003
0000
0000
0000
;

//---------------dance-single - Feraligatr----------------
#NOTES:
     dance-single:
     :
     Hard:
     8:
     0.564103,0.609402,0.136752,0.427350,0.427350,396.000000,16.000000,50.000000,9.000000,0.000000,6.000000,0.564103,0.609402,0.136752,0.427350,0.427350,396.000000,16.000000,50.000000,9.000000,0.000000,6.000000:
0000
0000
0000
0000
,
0000
0000
0000
0000
,
0000
0000
0000
0000
,
0000
0000
0000
0000
,
0001
0010
0100
0010
0001
1000
0010
0100
,
0001
0000
1000
0000
0100
0000
0000
0010
0001
0000
1000
0000
0010
0000
0100
0000
,
0001
1000
0100
1000
0010
0100
0001
1000
,
0100
0000
0000
0100
0010
0000
0001
0000
M000
0M00
M000
0M00
M000
0000
0M00
0000
,
1001
0000
0000
0000
0000
0000
0000
1000
0000
1000
0000
1000
0100
0000
0100
0000
,
0020
0000
0000
0030
0000
0000
0000
0100
0000
0100
0000
0100
1000
0000
1000
0000
,
0001
0000
0000
0000
0000
0000
0000
0100
0000
0100
0000
0100
0010
0000
0010
0000
,
2000
0000
0000
3000
0001
1000
0001
0010
0000
0010
0000
0010
0100
0000
0100
0000
,
1000
0000
0000
0000
0000
0000
0000
0010
0000
0010
0000
0010
0100
0000
0100
0000
,
0002
0000
0000
0003
0000
0000
0000
1000
0000
1000
0000
1000
0100
0000
0100
0000
,
0010
0000
0000
0000
0000
0000
0000
0001
0000
0001
0000
0001
1000
0000
1000
0000
,
0020
0000
0000
0000
0000
0130
0001
0100
0000
0100
0010
0000
1000
0000
1000
0000
,
0001
0000
0010
0000
0100
0000
0000
1000
0000
1000
0000
1000
0002
0000
0103
0000
,
0020
0000
0030
0000
1000
0000
0000
0001
0000
0001
0000
0001
0010
0000
0100
0000
,
1000
0000
0001
0000
0100
0000
0000
0010
0000
0010
0000
0010
2000
0000
3001
0000
,
0020
0000
0000
0030
0001
1000
0001
0100
0000
0100
0000
0100
0010
0000
1000
0000
,
0001
0000
0010
0000
0100
0000
0000
0010
0000
0010
0000
0010
0002
0000
1003
0000
,
0020
0000
0000
0030
0100
0000
0000
0001
0000
0001
0000
0001
1000
0000
0100
0000
,
0010
0000
0001
0000
1000
0000
0000
0010
0000
0010
0000
0010
0100
0000
0001
0000
,
2000
0000
0000
0000
3000
0001
0000
0001
1000
0001
0100
0000
0010
0000
0010
0000
,
1000
0001
0010
0100
,
0010
0001
1000
0010
,
0100
0001
1000
0001
0010
0100
1000
0100
,
0010
0100
1000
0001
01M0
M000
00M0
0000
,
2001
0000
3200
0000
0310
0000
0001
0000
1000
0000
0010
0100
0000
0000
0100
0000
,
0002
0000
0000
0003
1000
0100
1000
0000
0001
0010
0001
0000
1000
0010
1000
0000
,
0002
0000
0203
0000
0310
0000
1000
0000
0001
0000
0010
0100
0000
0000
0100
0000
,
1000
0000
0000
0000
0001
0000
0000
0000
0100
0000
0000
0000
0020
0000
2030
3000
,
1002
0000
0023
0000
0130
0000
1000
0000
0001
0000
0100
0010
0000
0000
0010
0000
,
2000
0000
0000
3000
0001
0010
0001
0000
1000
0000
0010
0000
0100
0000
0001
0000
,
2000
0000
3200
0000
0310
0000
0001
0000
1000
0000
0010
0100
0000
0000
0100
0000
,
0004
4000
0000
0000
0000
0000
0000
0000
0000
0000
0000
0000
0000
0000
3003
0000
,
1002
0000
0000
0000
0013
0000
0100
1000
0000
1000
0000
1000
0001
0000
0100
0000
,
0210
0000
0000
0000
0301
0000
1000
0001
0000
0001
0000
0001
0010
0100
0010
0000
,
0021
0000
0000
0000
0130
0000
1000
0001
0000
0001
0000
0100
0010
0000
1000
0000
,
0001
0000
0001
0000
1000
0000
0000
0100
0000
0000
0001
0000
0000
0000
0100
0000
,
0120
0000
0034
0000
0000
0000
1003
0010
,
0210
0000
0000
0000
0301
0000
1000
0001
0000
0010
0000
0100
0010
0000
0001
0000
,
1000
0100
0010
0100
1000
0001
0100
0010
,
0100
0000
0001
0000
1000
0000
0100
0000
0010
0000
0001
0000
2000
0000
0000
3000
,
1002
0000
0023
0000
0130
0000
1000
0000
0001
0000
0100
0010
0000
0000
0010
0000
,
2000
0000
0000
3000
0001
0010
0001
0000
0001
0010
0100
0000
0100
1000
0100
0000
,
2000
0000
3002
0000
0103
0000
0010
0000
1000
0000
0100
0010
0000
0000
0010
0000
,
0001
0000
0010
0000
0100
0000
2000
3001
,
2001
0000
3020
0000
0130
0000
0001
0000
1000
0000
0001
1000
0000
0000
1000
0000
,
0200
0000
0000
0300
0010
0001
0010
0000
0100
0000
1000
0000
0001
0000
0100
0000
,
0020
0000
2030
0000
3001
0000
0100
0000
0001
0000
1000
0100
0000
0000
0100
0000
,
4000
0004
0000
0000
0000
0000
0000
0000
0000
0000
0000
0000
0000
0000
3003
0000
,
2001
0000
0000
0000
3100
0000
0010
0001
0000
0001
0000
0001
2000
0000
3020
0030
,
0120
0000
0000
0000
1030
0000
0001
1000
0000
1000
0000
1000
0100
0010
0100
0000
,
1200
0000
0000
0000
0310
0000
0001
1000
0000
1000
0000
0010
0100
0000
0001
0000
,
1000
0000
1000
0000
0001
0000
0000
0010
0000
0000
1000
0000
0000
0000
0010
0000
,
0210
0000
4300
0000
0000
0000
3001
0100
,
0120
0000
0000
0000
1030
0000
0001
1000
0000
0100
0000
0010
0100
0000
1000
0000
,
0001
0010
0100
0010
0001
1000
0010
0100
,
0010
0000
1000
0000
0001
0000
0010
0000
0100
0000
1000
0000
0002
0000
0000
0003
,
0202
0000
0000
0000
,
0000
0000
0000
0000
,
0303
0000
0000
0000
;

//---------------dance-single - Feraligatr----------------
#NOTES:
     dance-single:
     :
     Medium:
     7:
     0.455433,0.476923,0.059829,0.435897,0.072650,315.000000,7.000000,51.000000,0.000000,0.000000,0.000000,0.455433,0.476923,0.059829,0.435897,0.072650,315.000000,7.000000,51.000000,0.000000,0.000000,0.000000:
0000
0000
0000
0000
,
0000
0000
0000
0000
,
0000
0000
0000
0000
,
0000
0000
0000
0000
,
0001
0010
0100
0010
0001
1000
0010
0000
,
0100
0001
1000
0100
0010
0001
1000
0000
,
0001
1000
0100
1000
0010
0100
0001
0000
,
1000
0000
0000
0100
0010
0000
0001
0000
0000
0000
0000
0000
0000
0000
0000
0000
,
1001
0000
1000
0000
0100
0000
0000
0010
0001
0000
1000
0000
0020
0000
0000
0000
,
0000
0000
0032
0000
,
0013
0000
0100
0000
0001
0000
0000
1000
0100
0000
0010
0000
0002
0000
0000
0000
,
0000
0000
0000
0000
0000
0000
0000
0003
,
1000
0000
0010
0000
0100
0000
0000
0001
1000
0000
0010
0000
0200
0000
0000
0000
,
0000
0000
2300
0000
,
3100
0000
0010
0000
1000
0000
0000
0001
1000
0000
0100
0000
0020
0000
0000
0000
,
0000
0000
0000
0032
,
1003
0010
0100
0000
0001
0010
0100
1000
,
0001
0000
1000
0000
0001
0000
0100
0010
,
1000
0001
0010
0000
0100
1000
0100
0010
,
0001
0000
1000
0000
0010
0000
0100
0001
,
1000
0100
0010
0000
0100
1000
0001
0100
,
0010
0000
1000
0000
0001
0000
0010
0100
,
0010
0001
1000
0000
0010
0100
0001
1000
,
0002
0000
0000
0000
0000
0000
0000
0000
0000
0000
0000
0000
0023
0000
0000
0030
,
0110
0100
1000
0001
,
1000
0010
0100
0001
,
1000
0001
1000
0001
0010
0001
0010
0001
,
1000
0100
1000
0100
0010
0000
0000
0000
,
2001
0000
3200
0000
0310
0000
0001
0000
1000
0000
0000
0010
0000
0000
0010
0000
,
0200
0000
0000
0300
0001
0000
1000
0000
0001
0000
0010
0000
0001
0000
1000
0000
,
0002
0000
0023
0000
0130
0000
1000
0000
0001
0000
0000
0100
0000
0000
0100
0000
,
0010
0000
1000
0000
0001
0000
0020
0230
,
2300
0000
3002
0000
0103
0000
0010
0000
1000
0000
0000
0001
0000
0000
0001
0000
,
0020
0000
0000
0030
0100
0000
1000
0000
0010
0000
0100
0000
0001
0000
1000
0000
,
0002
0000
0023
0000
0130
0000
1000
0000
0001
0000
0000
0100
0000
0000
0100
0000
,
0020
0000
0000
0000
0000
0000
0000
0000
0000
0000
0000
0000
2030
0000
0000
3000
,
1002
0000
0013
0000
0100
0000
1000
0001
,
0200
0000
0310
0000
1000
0000
0001
0010
,
0200
0000
1300
0000
0001
0000
0100
0010
,
1000
0000
1000
0000
0001
0000
0000
0010
0000
0000
0100
0000
0000
0000
1000
0000
,
0002
0000
0103
0000
0010
0000
1000
0001
,
0020
0000
0000
0000
0130
0000
1000
0000
0000
0001
0000
0000
0100
0000
0010
0000
,
1000
0001
1000
0001
0100
0001
0100
0001
,
1000
0000
0010
0000
1000
0000
0010
0000
0100
0000
0001
0000
2000
0000
0000
3000
,
1002
0000
0023
0000
0130
0000
1000
0000
0001
0000
0000
0100
0000
0000
0100
0000
,
0020
0000
0000
0030
1000
0000
0001
0000
1000
0000
0100
0000
1000
0000
0001
0000
,
2000
0000
3200
0000
0310
0000
0001
0000
1000
0000
0000
0010
0000
0000
0010
0000
,
0100
0000
0001
0000
1000
0000
0200
0320
,
0032
0000
2003
0000
3010
0000
0100
0000
0001
0000
0000
1000
0000
0000
1000
0000
,
0200
0000
0000
0300
0010
0000
0001
0000
0100
0000
0010
0000
1000
0000
0001
0000
,
2000
0000
3200
0000
0310
0000
0001
0000
1000
0000
0000
0010
0000
0000
0010
0000
,
0200
0000
0000
0000
0000
0000
0000
0000
0000
0000
0000
0000
0302
0000
0000
0003
,
2001
0000
3100
0000
0010
0000
0001
1000
,
0020
0000
0130
0000
0001
0000
1000
0100
,
0020
0000
0031
0000
1000
0000
0010
0100
,
0001
0000
0001
0000
1000
0000
0000
0100
0000
0000
0010
0000
0000
0000
0001
0000
,
2000
0000
3010
0000
0100
0000
0001
1000
,
0200
0000
0000
0000
0310
0000
0001
0000
0000
1000
0000
0000
0010
0000
0100
0000
,
0001
1000
0001
1000
0010
1000
0010
1000
,
0001
0000
0100
0000
0001
0000
0100
0000
0010
0000
1000
0000
0002
0000
0000
0003
,
2002
0000
0000
0000
,
0000
0000
0000
0000
,
3003
0000
0000
0000
;

//---------------dance-single - Feraligatr----------------
#NOTES:
     dance-single:
     :
     Easy:
     4:
     0.236874,0.238462,0.094017,0.034188,0.000000,179.000000,11.000000,4.000000,0.000000,0.000000,0.000000,0.236874,0.238462,0.094017,0.034188,0.000000,179.000000,11.000000,4.000000,0.000000,0.000000,0.000000:
// measure 0
0000
0000
0000
0000
,  // measure 1
0000
0000
0000
0000
,  // measure 2
0000
0000
0000
0000
,  // measure 3
0000
0000
0000
0000
,  // measure 4
1000
0100
0010
0100
,  // measure 5
1000
0001
0100
0010
,  // measure 6
0100
0001
1000
0100
,  // measure 7
0010
0001
0000
0000
,  // measure 8
1001
0000
1000
0000
,  // measure 9
0010
0000
0100
0000
,  // measure 10
0101
0000
0001
0000
,  // measure 11
1000
0000
0100
0000
,  // measure 12
0110
0000
0010
0000
,  // measure 13
0001
0000
1000
0000
,  // measure 14
1010
0000
0010
0000
,  // measure 15
0100
0000
0001
0000
,  // measure 16
1001
1000
0100
0010
,  // measure 17
0100
1000
0001
0100
,  // measure 18
0010
0100
0001
1000
,  // measure 19
0100
0010
0001
0010
,  // measure 20
0100
1000
0001
0100
,  // measure 21
0010
1000
0001
0010
,  // measure 22
0001
1000
0010
0100
,  // measure 23
0002
0000
0000
0023
,  // measure 24
0130
0100
1000
1000
,  // measure 25
0001
0001
0100
0100
,  // measure 26
0010
0010
1000
1000
,  // measure 27
0001
0001
0000
0000
,  // measure 28
1001
1000
0010
0000
,  // measure 29
0100
0001
1000
0000
,  // measure 30
0100
0010
0001
0000
,  // measure 31
1000
0100
1000
0100
,  // measure 32
0010
0001
0100
0000
,  // measure 33
0010
1000
0001
0000
,  // measure 34
1000
0100
0010
0000
,  // measure 35
0001
0010
0001
0010
,  // measure 36
0110
0100
0100
0000
,  // measure 37
1000
1000
1000
0000
,  // measure 38
0001
0001
0001
0000
,  // measure 39
0100
0100
0100
0000
,  // measure 40
0010
1000
0010
1000
,  // measure 41
0001
0100
0000
0000
,  // measure 42
1001
1000
0100
0100
,  // measure 43
0010
0010
0001
0001
,  // measure 44
1001
1000
0010
0000
,  // measure 45
0100
0010
1000
0000
,  // measure 46
0001
1000
0100
0000
,  // measure 47
0010
0100
0010
0100
,  // measure 48
1000
0001
0100
0000
,  // measure 49
0010
1000
0001
0000
,  // measure 50
0010
0100
1000
0000
,  // measure 51
0001
0100
0001
0100
,  // measure 52
0110
0010
0010
0000
,  // measure 53
1000
1000
1000
0000
,  // measure 54
0001
0001
0001
0000
,  // measure 55
0010
0010
0010
0000
,  // measure 56
0100
1000
0100
1000
,  // measure 57
0001
0100
0000
0000
,  // measure 58
1000
1000
0100
0100
,  // measure 59
0010
0010
0001
0001
,  // measure 60
2002
0000
0000
0000
,  // measure 61
0000
0000
0000
0000
,  // measure 62
3003
0000
0000
0000
;

//---------------dance-single - Feraligatr----------------
#NOTES:
     dance-single:
     :
     Beginner:
     1:
     0.095238,0.105983,0.042735,0.085470,0.000000,63.000000,5.000000,10.000000,0.000000,0.000000,0.000000,0.095238,0.105983,0.042735,0.085470,0.000000,63.000000,5.000000,10.000000,0.000000,0.000000,0.000000:
// measure 0
0000
0000
0000
0000
,  // measure 1
0000
0000
0000
0000
,  // measure 2
0000
0000
0000
0000
,  // measure 3
0000
0000
0000
0000
,  // measure 4
1000
0000
0000
0000
,  // measure 5
0100
0000
0000
0000
,  // measure 6
0010
0000
0000
0000
,  // measure 7
0100
0000
0000
0000
,  // measure 8
1001
0000
0000
0000
,  // measure 9
0001
0000
0000
0000
,  // measure 10
1000
0000
0000
0000
,  // measure 11
0010
0000
0000
0000
,  // measure 12
0100
0000
0000
0000
,  // measure 13
0001
0000
0000
0000
,  // measure 14
1000
0000
0000
0000
,  // measure 15
0001
0000
0000
0000
,  // measure 16
0011
0000
0000
0000
,  // measure 17
1000
0000
0000
0000
,  // measure 18
0010
0000
0000
0000
,  // measure 19
0100
0000
0000
0000
,  // measure 20
0001
0000
0000
0000
,  // measure 21
1000
0000
0000
0000
,  // measure 22
0100
0000
0000
0000
,  // measure 23
0010
0000
0000
0000
,  // measure 24
0200
0000
0000
0000
,  // measure 25
0000
0000
0000
0000
,  // measure 26
2000
0000
0000
0000
,  // measure 27
0000
0000
3300
0000
,  // measure 28
1001
0000
0000
0000
,  // measure 29
0001
0000
0000
0000
,  // measure 30
0100
0000
0000
0000
,  // measure 31
0010
0000
0000
0000
,  // measure 32
0100
0000
0000
0000
,  // measure 33
0001
0000
0000
0000
,  // measure 34
1000
0000
0000
0000
,  // measure 35
0200
0000
0000
0000
,  // measure 36
0310
0000
0010
0000
,  // measure 37
0001
0000
0001
0000
,  // measure 38
0010
0000
0010
0000
,  // measure 39
0100
0000
0100
0000
,  // measure 40
1000
0000
0000
0000
,  // measure 41
0001
0000
0000
0000
,  // measure 42
0200
0000
0000
0000
,  // measure 43
0020
0000
0000
0330
,  // measure 44
1001
0000
0000
0000
,  // measure 45
1000
0000
0000
0000
,  // measure 46
0010
0000
0000
0000
,  // measure 47
0100
0000
0000
0000
,  // measure 48
0010
0000
0000
0000
,  // measure 49
1000
0000
0000
0000
,  // measure 50
0001
0000
0000
0000
,  // measure 51
0020
0000
0000
0000
,  // measure 52
0130
0000
0100
0000
,  // measure 53
1000
0000
1000
0000
,  // measure 54
0100
0000
0100
0000
,  // measure 55
0010
0000
0010
0000
,  // measure 56
0001
0000
0000
0000
,  // measure 57
1000
0000
0000
0000
,  // measure 58
0020
0000
0000
0000
,  // measure 59
0200
0000
0000
0330
,  // measure 60
2002
0000
0000
0000
,  // measure 61
0000
0000
0000
0000
,  // measure 62
3003
0000
0000
0000
;
