#VERSION:0.83;
#TITLE:DANCE ALL NIGHT;
#SUBTITLE:;
#ARTIST:Sota Fujimori;
#TITLETRANSLIT:;
#SUBTITLETRANSLIT:;
#ARTISTTRANSLIT:;
#GENRE:;
#ORIGIN:;
#CREDIT:Loodee;
#BANNER:DANCE ALL NIGHT-bn.png;
#BACKGROUND:DANCE ALL NIGHT-bg-wide.png;
#PREVIEWVID:;
#JACKET:DANCE ALL NIGHT-jacket.png;
#CDIMAGE:;
#DISCIMAGE:;
#LYRICSPATH:;
#CDTITLE:loodeecdtitle.png;
#MUSIC:DANCE ALL NIGHT.ogg;
#OFFSET:-0.717000;
#SAMPLESTART:77.161003;
#SAMPLELENGTH:14.214000;
#SELECTABLE:YES;
#DISPLAYBPM:135.000000;
#BPMS:0.000=135.000,
148.000=67.500,
148.250=135.000,
148.500=270.000,
149.000=135.000;
#STOPS:;
#DELAYS:;
#WARPS:;
#TIMESIGNATURES:0.000=4=4;
#TICKCOUNTS:0.000=4;
#COMBOS:0.000=1;
#SPEEDS:0.000=1.000=0.000=0;
#SCROLLS:0.000=1.000;
#FAKES:;
#LABELS:0.000=Song Start;
#BGCHANGES:;
#KEYSOUNDS:;
#ATTACKS:
;

//---------------dance-single - Loodee----------------
#NOTEDATA:;
#CHARTNAME:Loodee;
#STEPSTYPE:dance-single;
#DESCRIPTION:Loodee;
#CHARTSTYLE:;
#DIFFICULTY:Challenge;
#METER:11;
#RADARVALUES:0.813876,0.962348,0.467675,0.399650,1.024634,670.000000,614.000000,55.000000,47.000000,31.000000,1.000000,2.000000,0.000000,0.000000,0.813876,0.962348,0.467675,0.399650,1.024634,670.000000,614.000000,55.000000,47.000000,31.000000,1.000000,2.000000,0.000000,0.000000;
#CREDIT:Loodee;
#DISPLAYBPM:135.000000;
#NOTES:
// measure 0
0000
0000
0000
0000
,  // measure 1
1200
0000
0300
0000
1001
0000
0001
0100
0010
1000
0000
0010
0000
0100
0001
0000
,  // measure 2
0010
0000
0100
0000
1000
0000
0100
1000
0010
1000
0001
0000
0100
0000
0010
0000
,  // measure 3
1010
0000
0000
0000
1100
0000
0100
1000
0100
0010
0000
0001
0000
1000
0010
0000
,  // measure 4
0100
0000
0010
0000
0001
0000
0010
0100
0001
0100
1000
0000
0100
0000
0001
0000
,  // measure 5
2000
0000
3000
0000
0011
0000
0001
1000
0100
1000
0000
0010
0000
1000
0100
0000
,  // measure 6
0010
0000
0001
0000
1000
0000
0010
0100
0001
1000
0001
0000
0010
0000
0100
0000
,  // measure 7
0010
0000
0000
0000
0000
0000
0001
0000
1000
0000
0010
0000
1000
0000
0001
0000
1000
0000
0100
0000
0010
0000
0001
0000
0400
0000
0000
0000
0000
0000
0301
0000
0000
1000
0000
0000
0000
0000
0000
0001
0000
0000
0000
0000
0000
0000
0000
0000
,  // measure 8
0101
0000
0100
0000
0010
0000
1001
0001
0000
1000
0100
0010
2000
0000
3010
0000
,  // measure 9
0011
0000
0000
0000
0000
0000
0000
0000
1010
0000
0000
0000
0000
0000
0001
0000
1000
0000
0100
0000
0010
0M00
0010
0000
2000
0000
0000
0000
3001
0000
0000
0000
,  // measure 10
0010
0000
0001
0000
0100
0000
0001
0010
0001
1000
0100
0010
0100
0002
0000
0103
,  // measure 11
1000
0000
0010
0000
0200
0000
0000
0310
1000
0000
0001
0000
1001
0000
0001
0000
,  // measure 12
0100
0001
1000
0100
0000
0100
1000
0010
0100
0000
0001
0000
1010
0000
0110
0000
,  // measure 13
0101
0000
0000
0000
0000
0000
0000
0000
0011
0000
0000
0000
0000
0000
1011
0000
0000
0000
0001
0000
0100
000M
0100
0000
2000
0000
0000
0000
3010
0000
0000
0000
,  // measure 14
0100
0000
0001
0000
0100
0000
0010
1000
0100
1000
0001
0100
0010
0002
0000
0013
,  // measure 15
0100
0000
0001
0000
0020
0000
0000
0031
0100
0000
0010
0000
1010
0000
1000
0000
,  // measure 16
0001
1000
0100
0010
0100
0000
0100
0000
1000
0001
0100
0000
0104
0000
0000
0003
,  // measure 17
1100
0000
0000
0000
0021
0000
0000
0000
0130
0100
0010
0001
0200
0000
0310
0000
,  // measure 18
1000
1100
0000
0011
0000
0101
0000
1010
,  // measure 19
0020
0000
0000
0130
0001
0000
2000
0000
3100
0020
0000
0030
0002
0000
0000
0003
,  // measure 20
1000
0100
0100
0100
1000
0100
0100
0100
1000
0010
0100
0001
0010
0001
1000
0000
,  // measure 21
1010
0000
0000
0000
1002
0000
0000
0000
0103
0100
0001
1000
0200
0000
0310
0000
,  // measure 22
0001
0101
0000
1010
0000
1100
0000
0110
,  // measure 23
0012
0000
0000
0000
0103
0000
0010
0000
1000
0200
0000
0300
2000
0000
0000
3000
,  // measure 24
0010
0000
0000
0000
0100
0000
0000
0000
0001
0000
0000
0000
1000
0000
0000
0000
0100
0000
0000
0000
0010
0000
0000
0000
0001
0000
0000
0010
0000
0000
0100
0000
0000
0000
0000
0000
0010
0000
0000
0000
0000
0000
0100
0000
0000
0000
0000
0000
,  // measure 25
1000
1000
0000
0000
0010
0000
0000
0000
1000
0001
0000
0010
0000
0001
1000
0010
,  // measure 26
0100
0100
0000
0000
0010
0000
1000
0100
0010
0000
0000
0000
0001
0000
1000
0100
,  // measure 27
0010
0010
0000
0000
0001
0000
0000
0000
0100
0010
0000
0010
0000
1000
0001
0100
,  // measure 28
0010
0010
0000
0000
1000
0000
0001
0010
0100
0000
0100
1000
0000
1000
0001
0000
,  // measure 29
0100
0000
0010
0000
1000
0000
0010
0000
0100
0000
0001
0000
0010
0000
0100
0000
1000
0000
0100
0000
0010
0000
0001
0000
1000
0000
0001
0000
0100
000M
0100
0000
,  // measure 30
1000
0000
0010
0000
0100
0000
0001
0000
0010
0000
0001
0000
0100
0000
0010
0000
1000
0000
0001
0000
1000
0000
0010
0000
0100
0000
0001
0000
1000
0000
0100
0010
,  // measure 31
0100
0000
1000
0000
0001
0000
1000
0000
0001
0000
0010
0000
0100
0000
0010
0000
0001
0000
1000
0000
0010
0000
0100
0000
0001
0000
1000
0000
0100
M000
0100
0000
,  // measure 32
0001
0000
1000
0000
0001
0000
1000
0000
0010
0000
0100
0000
0001
1000
0001
1000
0001
0000
0000
0000
0001
0000
0010
0000
0000
0000
0000
0000
0000
0000
0000
0000
,  // measure 33
1010
0000
0000
0000
0000
0000
0000
0000
0101
0000
0000
0000
0000
0000
0001
0000
0000
0000
1000
0000
0200
0000
0000
0000
0310
0001
1000
0001
1000
0000
0010
0000
,  // measure 34
1000
0001
0010
0000
0100
0010
0100
0000
1000
0010
1000
0100
0010
0001
0100
0001
,  // measure 35
0020
0000
0130
0000
0100
1000
0000
1000
0010
0100
0001
0000
1020
0000
0130
0001
,  // measure 36
0020
0000
0130
0000
2100
0000
3001
0100
0001
0100
0020
0000
1030
0000
1000
0001
,  // measure 37
0020
0000
0000
0000
0000
0000
0000
0000
0000
0000
0000
0000
0000
0000
0000
0000
0030
0000
0000
0000
0000
0000
0000
0000
00M0
0000
0000
0000
0000
0000
0000
0000
0000
0000
0000
0000
0000
0000
0000
0000
0000
0000
0000
0000
0000
0000
0000
0000
1001
0000
0000
0000
0000
0000
0000
0000
0000
0000
0000
0000
0000
0000
0000
0000
0000
0000
0000
0000
0000
0000
0000
0000
0000
0000
0000
0000
0000
0000
0000
0000
0000
0000
0000
0000
1000
0000
0000
0000
0000
0000
0000
0000
0000
0000
0000
0000
0000
0000
0000
0000
0000
0000
0000
0000
0000
0000
0000
0000
0001
0000
0000
0000
0000
0000
0000
0000
0000
0000
0000
0000
0200
0000
0000
0000
0000
0000
0000
0000
0000
0000
0000
0000
0000
0000
0000
0000
0000
0000
0000
0000
0000
0000
0000
0000
0310
0000
0000
0000
0000
0000
1000
0000
0000
0000
0000
0000
0010
0000
0000
0000
0000
0000
1000
0000
0000
0000
0000
0000
0001
0000
0000
0000
0000
0000
0000
0000
0000
0000
0000
0000
0010
0000
0000
0000
0000
0000
0000
0000
0000
0000
0000
0000
,  // measure 38
0100
1000
0010
0000
0100
0001
1000
0000
0100
1000
0010
0100
0001
0010
0001
0100
,  // measure 39
0020
0000
1030
0000
0001
0010
0100
0010
0100
0000
1000
0000
1002
0000
0103
0010
,  // measure 40
0002
0000
0013
0000
2000
0000
3100
0000
0010
0100
0002
0000
0003
000M
0000
0000
,  // measure 41
1100
0000
0000
0000
0000
0000
0000
0000
0000
0000
0000
0000
0000
0000
0000
0000
0000
0000
0000
0000
0000
0000
0000
0000
0000
0000
0000
0000
0000
0000
0000
0000
0000
0000
0000
0000
0000
0000
0000
0000
0000
0000
0000
0000
0000
0000
0000
0000
00M0
0000
0000
0000
0000
0000
0000
0000
0000
0000
0000
0000
000M
0000
0000
0000
0000
0000
0000
0000
0000
0000
0000
0000
00M0
0000
0000
0000
0000
0000
0000
0000
0000
0000
0000
0000
0000
0000
0000
0000
0000
0000
0000
0000
0000
0000
0000
0000
0M00
0000
0000
0000
0000
0000
0000
0000
0000
0000
0000
0000
M000
0000
0000
0000
0000
0000
0000
0000
0M00
0000
0000
0000
000M
0000
0000
0000
0000
0000
000M
0000
0000
000M
0000
0000
00M0
0000
0000
0000
M000
0000
000M
0000
0000
0000
0000
0000
0M0M
0000
0000
0000
0000
0000
00M0
0000
0000
0000
0000
0000
M000
0000
0000
0000
0000
0000
0M00
0000
0000
0000
0000
0000
00M0
0000
0000
0000
0000
0000
0000
0000
0000
0000
0000
0000
0000
0000
0000
0000
0000
0000
0000
0000
0000
0000
0000
0000
,  // measure 42
000M
0000
M000
0000
0M00
0000
0000
0000
00M0
0000
M000
0000
00M0
0000
0000
0000
0001
1000
0001
0000
0100
0000
0001
0000
2000
0000
0000
0000
0000
0000
3000
0000
,  // measure 43
1001
0000
0001
0000
0201
0000
0000
0000
0310
1000
0001
0000
0021
0000
0000
0000
,  // measure 44
0130
0000
1000
0001
0100
0000
0001
0010
0000
0001
0100
0000
1020
0000
0000
0000
,  // measure 45
0130
0000
0001
1000
0001
0010
0100
1000
0001
1000
0100
1000
0010
0100
1000
0000
,  // measure 46
0100
0010
0001
0010
0100
0000
0001
0010
0100
0010
0000
0100
1000
0010
0000
0100
,  // measure 47
0001
0000
0010
0000
0210
0000
0000
0000
0310
0001
1000
0000
2010
0000
0000
0000
,  // measure 48
3001
0000
0100
0010
0100
0000
0001
0010
0000
0100
0010
0000
2001
0000
0000
0000
,  // measure 49
3010
0000
0100
0000
0000
0000
1000
0000
0000
0100
0010
0100
0001
0000
1000
0000
,  // measure 50
0200
0000
0000
0000
0310
0000
0000
0000
0001
1000
0010
0000
0100
0000
0100
0001
,  // measure 51
0010
0000
0001
0000
1001
0000
1000
0010
0100
0000
0010
0000
0101
0000
0001
0000
,  // measure 52
1000
0000
0010
0000
0100
0001
0000
0001
1000
0000
0100
0000
0011
0000
0010
0000
,  // measure 53
0100
0000
1000
0001
0100
0001
1000
0100
0010
0100
1000
0010
0100
0010
0001
0000
,  // measure 54
0010
0100
1000
0100
0010
0000
0100
0001
0010
0100
0000
0010
0001
0100
0000
0010
,  // measure 55
1000
0000
0100
0000
0110
0000
0010
0001
0100
0000
0010
0000
1001
0000
1000
0000
,  // measure 56
0100
0000
0010
0000
0100
1000
0000
1000
0010
0000
0100
0000
1002
0000
0000
0000
,  // measure 57
0013
0000
0100
0000
0000
0000
0001
0000
0000
0100
0010
0001
0100
0000
0010
0000
,  // measure 58
1010
0000
0000
0000
1000
0000
0000
0000
0001
0000
0000
0000
0010
0000
0001
1000
0001
0000
0100
0000
0000
0000
0000
0000
2000
0000
0000
0000
0000
0000
3000
0000
,  // measure 59
1100
0000
0000
0000
0000
0000
0000
0000
0110
0000
0000
0000
0000
0000
0100
0000
0001
0000
1000
0000
0100
M000
0100
0000
0002
0000
0000
0000
0103
0000
0000
0000
,  // measure 60
0010
0000
0100
0000
0001
0000
0010
0100
1000
0001
1000
0010
0100
2000
0000
3100
,  // measure 61
0001
0000
1000
0000
0200
0000
0000
0310
0001
0000
0100
0000
0110
0000
0100
0000
,  // measure 62
0001
1000
0100
0010
0200
0000
0000
1300
0010
1000
0001
0000
0011
0000
0001
0000
;

//---------------dance-single - Loodee----------------
#NOTEDATA:;
#CHARTNAME:Loodee;
#STEPSTYPE:dance-single;
#DESCRIPTION:Loodee;
#CHARTSTYLE:;
#DIFFICULTY:Hard;
#METER:9;
#RADARVALUES:0.552707,0.561370,0.161561,0.467675,0.357134,455.000000,436.000000,19.000000,55.000000,0.000000,0.000000,4.000000,0.000000,0.000000,0.552707,0.561370,0.161561,0.467675,0.357134,455.000000,436.000000,19.000000,55.000000,0.000000,0.000000,4.000000,0.000000,0.000000;
#CREDIT:Loodee;
#DISPLAYBPM:135.000000;
#NOTES:
0000
0000
0000
0000
,
1001
0000
0000
0000
1010
0000
0010
0000
0100
0000
0000
0001
0000
0000
1000
0000
,
0100
0010
0100
2000
0000
3001
0100
0010
,
2000
0000
0000
0000
3001
0000
0010
0000
1000
0000
0000
0010
0000
0000
0100
0000
,
0010
0001
0100
0020
0000
0031
0010
0100
,
0002
0000
0000
0000
1003
0000
0100
0000
0010
0000
0000
0100
0000
0000
0010
0000
,
0001
1000
0010
0200
0000
0310
1000
0001
,
0010
0000
0000
0000
0010
0000
0100
0000
1000
0000
0000
0001
0000
0000
1000
0000
,
1001
0000
0001
0000
0100
0000
0010
0000
0000
1000
0001
0000
0020
0000
0000
0030
,
0110
0000
0000
0000
1100
0000
0000
0000
1000
0001
1000
0001
0020
0000
0030
0000
,
0100
0000
0010
0000
0001
0000
0100
0000
0020
0000
0000
0000
1030
0001
0000
0001
,
1000
0000
0001
0000
0100
0000
0000
0010
1000
0000
0001
0000
0010
0000
0001
0000
,
1000
0010
1000
0010
0100
0000
0001
0000
1000
0000
0200
0000
0310
0000
0010
0000
,
0001
0000
0000
0000
0101
0000
0000
0202
0000
0000
0303
0000
2000
0000
3000
0000
,
0100
0000
0010
0000
0100
0000
1000
0000
0020
0000
0000
0000
0130
0001
0000
0001
,
0100
0000
0010
0000
1000
0000
0000
0001
0010
0000
0001
0000
1000
0000
0010
0000
,
0200
0000
0000
0000
0001
0000
0301
0000
1000
0100
0000
0000
0100
0000
0000
0000
,
0110
0000
0000
0000
1001
0000
0000
0000
0001
0100
0001
0000
0010
0000
0100
0000
,
1000
0002
1003
0020
1030
0002
0013
0200
,
2300
0000
0000
3100
0010
0000
0002
0000
0003
0200
0000
0000
0320
0000
0000
0000
,
4030
0000
0000
0000
3004
0000
0000
0000
0013
0100
0010
0100
0000
0000
1000
0000
,
1100
0000
0000
0000
1001
0000
0000
0000
0001
0010
0001
0000
1000
0000
0100
0000
,
0010
0200
1300
0020
1030
0002
0103
0020
,
2030
0000
0000
0000
3100
0000
0010
0000
0001
0200
0000
0000
0320
0000
0000
0000
,
1030
0000
0001
0000
1000
0000
0001
0000
0000
0010
0000
0000
0400
0000
0000
0000
0000
0000
1300
0000
0000
0000
0000
0000
,
1001
0000
0000
0000
0001
0000
0000
0000
0100
0001
0000
1000
0000
0001
0000
0000
,
0011
0000
0010
0001
1000
0000
0010
0100
,
0001
0000
0000
0000
1000
0000
0000
0000
0010
0100
0000
0001
0000
0100
0000
0000
,
0010
0000
0000
0000
1000
0000
0100
0000
0010
0000
0000
0100
0000
0000
1000
0000
,
0001
0000
0100
0000
0010
0000
0100
0000
1000
0000
0100
0000
0010
1000
0010
1000
,
0001
0000
0100
0000
0001
0000
0010
0000
1000
0000
0010
0000
0100
1000
0100
1000
,
0001
0000
0100
0000
0010
0000
0100
0000
1000
0000
0100
0000
0001
1000
0001
1000
,
0001
0000
0010
0000
0100
0000
0010
0000
0001
0000
0000
0001
0000
0000
0000
0000
,
0101
0000
0000
0000
1010
0000
0000
0010
0000
0100
0010
0000
1000
0000
0001
0010
,
0001
0000
1000
0000
0010
0000
0000
0000
0100
0000
0001
0000
1000
0100
1000
0100
,
0010
0000
0100
0000
1000
0000
0000
0010
1000
0000
0001
0000
0010
0000
0001
0000
,
0200
0000
0310
0000
2000
0000
0000
0000
3001
0100
0001
0000
4000
0000
0000
0000
,
3020
0030
0000
0000
0110
0000
0000
0100
0000
0001
0100
0000
0010
0000
1000
0001
,
1000
0000
0100
0000
0010
0000
0000
0000
0001
0000
1000
0000
0001
0100
0001
0100
,
0010
0000
0100
0000
0001
0000
0000
1000
0001
0000
1000
0000
0100
0000
0010
0000
,
0200
0000
0000
0000
1300
0000
0000
0000
0010
0100
0020
0000
1030
0000
0000
0000
,
1001
0000
0000
0000
,
0000
0000
0000
0000
0000
0002
0023
0030
,
0100
0000
1000
0000
0020
0000
0000
0000
0130
0001
1000
0000
0200
0000
0000
0000
,
0310
0000
0001
0000
0100
0000
0000
0010
0000
0000
0100
0000
0002
0000
0000
0000
,
1003
0000
0000
0000
0001
0100
0010
1000
0001
0100
0010
1000
0001
0000
0000
0000
,
1000
0000
0100
0000
0010
0000
0001
0000
1000
0010
0000
0000
0100
0001
0000
0000
,
0010
0000
0100
0000
0020
0000
0000
0000
0031
1000
0010
0000
0200
0000
0000
0000
,
0301
0000
1000
0000
0100
0000
0000
0010
0000
0000
0100
0000
0002
0000
0000
0000
,
0103
0000
0000
0010
0000
0000
0001
0000
0000
0000
1000
0000
0020
0000
0000
0030
,
0200
0000
0301
0000
2000
0000
3100
0100
,
0010
0000
0001
0000
2000
0000
0000
0000
3010
0100
0001
0000
0020
0000
0000
0000
,
0130
0000
1000
0000
0001
0000
0000
1000
0000
0000
0010
0000
0200
0000
0000
0000
,
0301
0000
0000
0000
1000
0100
0010
0001
1000
0100
0010
0001
1000
0000
0000
0000
,
0010
0000
0100
0000
0001
0000
1000
0000
0001
0010
0000
0000
0100
1000
0000
0000
,
0010
0000
0100
0000
0002
0000
0000
0000
0013
0100
1000
0000
0020
0000
0000
0000
,
0130
0000
0001
0000
1000
0000
0000
0100
0000
0000
0010
0000
2000
0000
0000
0000
,
3010
0000
0000
0100
0000
0000
1000
0000
0000
0000
0001
0000
0200
0000
0000
0300
,
0010
0000
1000
0000
0001
0000
0010
0000
0010
0100
0000
0000
2000
0000
0000
3000
,
1001
0000
0000
0000
0011
0000
0000
0000
0001
1000
0001
1000
0020
0000
0030
0000
,
0100
0000
0010
0000
1000
0000
0100
0000
2000
0000
0000
0000
3001
0010
0000
0010
,
0001
0000
1000
0000
0010
0000
0000
0100
0001
0000
1000
0000
0001
0000
0010
0000
,
0100
1000
0100
1000
0001
0000
0100
0000
0010
0000
0010
0000
1000
0000
1000
0000
;

//---------------dance-single - Loodee----------------
#NOTEDATA:;
#CHARTNAME:Loodee;
#STEPSTYPE:dance-single;
#DESCRIPTION:Loodee;
#CHARTSTYLE:;
#DIFFICULTY:Medium;
#METER:6;
#RADARVALUES:0.433662,0.400978,0.127548,0.306115,0.025510,357.000000,342.000000,15.000000,36.000000,0.000000,0.000000,0.000000,0.000000,0.000000,0.433662,0.400978,0.127548,0.306115,0.025510,357.000000,342.000000,15.000000,36.000000,0.000000,0.000000,0.000000,0.000000,0.000000;
#CREDIT:Loodee;
#DISPLAYBPM:135.000000;
#NOTES:
0000
0000
0000
0000
,
2001
0000
3000
0000
0001
0000
0010
0000
0100
0000
0000
0010
0000
0000
0001
0000
,
1000
0010
0100
0020
0000
1030
0100
0010
,
0001
0000
0000
0000
0100
0000
0010
0000
1000
0000
0000
0001
0000
0000
1000
0000
,
0100
0010
0100
2000
0000
3001
0100
0010
,
0200
0000
0300
0000
0001
0000
1000
0000
0100
0000
0000
0010
0000
0000
0001
0000
,
0010
0100
1000
0020
0000
0130
0001
1000
,
0100
0000
0000
0000
0010
0000
0001
0000
1000
0000
0000
0010
0000
0000
0100
0000
,
0010
0000
0000
0101
0000
0000
0002
0003
,
1001
0000
1100
0000
1000
0100
0010
0000
,
0001
0100
0010
0000
1000
0100
0020
0000
,
0130
1000
0001
0000
0001
0100
0010
0100
,
0002
0000
1003
0000
0100
0100
0010
0010
,
0001
0000
0000
0000
1000
0000
0000
2000
0000
0000
3010
0000
0100
0000
0000
0000
,
0001
1000
0001
0000
0010
0100
2000
0000
,
3100
1000
0010
0000
0010
0100
0001
1000
,
0100
0010
0001
0001
1000
0000
1010
0000
,
0010
0000
0110
0000
0100
0001
0010
0100
,
0000
2000
3000
0002
0003
0200
0300
0002
,
1003
0000
0000
0000
0100
0000
0010
0000
0000
0100
0000
0000
1000
0000
0000
0000
,
0001
0001
1000
1000
0010
0100
0001
0100
,
0010
0000
1010
0000
1000
0100
0010
0100
,
0000
0020
0030
0002
0003
2000
3000
0020
,
0230
0000
0301
1000
0001
0000
0010
0000
,
0200
0000
2000
0300
0002
3000
0103
0000
,
0010
1000
0010
1000
,
0100
0010
0100
0010
,
0001
1000
0001
1000
,
0010
0100
0001
0010
,
0100
1000
0100
1000
0001
0100
0001
0000
,
0010
0100
0010
0100
1000
0001
1000
0000
,
0001
0100
0001
0100
0010
0100
0010
0000
,
1000
0100
0010
0001
0100
0000
0000
0000
,
0110
0000
1001
0000
0001
0010
0100
0000
,
0010
0000
0011
0000
0001
0100
0010
1000
,
0100
0000
0100
0010
0100
0000
1000
1000
,
0010
0100
0001
0000
0010
0100
2000
0000
,
3001
0000
1001
0000
1000
0010
0100
0000
,
0001
0001
0010
0000
0100
1000
0010
1000
,
0001
0000
1001
0000
1000
0010
0200
0000
,
0301
1000
0100
0000
0100
0010
0001
0000
,
0011
0000
0000
0000
,
0000
0000
0000
0001
,
1000
0100
0020
0000
0130
1000
0020
0000
,
1030
0100
0010
0000
0001
0100
0020
0000
,
1030
0000
0001
0010
0100
1000
0001
0010
,
0200
1300
0001
0100
,
0010
0100
0002
0000
0013
0100
0020
0000
,
0031
0100
0010
0000
1000
0100
0020
0000
,
0031
1000
0001
0100
,
0010
0000
1000
0000
0002
0000
0013
0010
,
0100
1000
0001
0000
0001
0100
0010
0000
,
0010
1000
0100
0010
0001
1000
0001
0000
,
0001
0000
1000
0010
0100
0001
1000
0010
,
0200
0301
0010
0100
,
0010
0100
1000
0000
1000
0010
0100
0000
,
0100
0001
0010
0001
1000
0001
0100
0000
,
0010
1000
0001
1000
,
0100
0000
0010
0010
0002
0000
2000
3003
,
1001
0000
0101
0000
0100
0010
1000
0000
,
0100
1000
0100
0000
0010
0001
0200
0000
,
0310
1000
0010
0000
1000
0001
0010
0000
,
0100
0010
0001
0000
1000
1000
0010
0010
;

//---------------dance-single - Loodee----------------
#NOTEDATA:;
#CHARTNAME:Loodee;
#STEPSTYPE:dance-single;
#DESCRIPTION:Loodee;
#CHARTSTYLE:;
#DIFFICULTY:Easy;
#METER:3;
#RADARVALUES:0.228371,0.240109,0.008503,0.144554,0.000000,188.000000,187.000000,1.000000,17.000000,0.000000,0.000000,0.000000,0.000000,0.000000,0.228371,0.240109,0.008503,0.144554,0.000000,188.000000,187.000000,1.000000,17.000000,0.000000,0.000000,0.000000,0.000000,0.000000;
#CREDIT:Loodee;
#DISPLAYBPM:135.000000;
#NOTES:
0000
0000
0000
0000
,
1000
0001
0010
0000
,
0100
1000
0100
0000
,
0010
0001
1000
0001
,
0100
0000
0001
0010
,
0100
1000
0001
0000
,
1000
0010
1000
0000
,
0000
0000
1000
0000
,
0100
0000
0000
0100
0000
0000
0100
0000
,
1000
1000
0010
1000
,
0001
0000
0010
0001
,
0010
0000
0100
1000
,
0001
0000
0100
0100
,
0010
1000
0000
0001
,
0010
0100
0010
0000
,
0100
0000
1000
0001
,
1000
0000
0010
0010
,
0100
0100
0200
0000
,
0301
1000
0001
1000
,
0100
0000
0010
0001
,
0100
0100
0100
0000
,
0010
0010
0020
0000
,
1030
0001
1000
0001
,
0010
0000
0010
0100
,
2000
0000
0000
3001
,
0100
0000
0100
0010
,
1000
0000
1000
0000
,
0001
0000
0001
0010
,
0001
0000
0100
0000
,
0010
0010
1000
0100
,
0010
0010
0001
1000
,
0100
0100
1000
0001
,
0100
0100
0010
0000
,
1000
0001
1000
0100
,
0010
0000
0001
0001
,
0100
0000
0010
0000
,
1000
1000
0200
0000
,
0310
0001
1000
0001
,
0100
0000
0010
0010
,
1000
0001
1000
0001
,
0020
0000
0130
0000
,
1001
0000
0000
0000
,
0000
0000
0000
0000
,
0001
0010
0001
1000
,
0001
0010
0100
1000
,
0000
0001
0001
0100
,
0020
0030
2000
3000
,
0100
0010
0100
1000
,
0100
0010
0001
0100
,
0002
0000
2003
0000
,
3200
0000
0310
0000
,
0010
0010
0001
0001
,
1000
1000
0010
0010
,
0200
0000
0302
0000
,
2003
0000
3002
0000
,
0013
0010
0100
0100
,
1000
1000
0001
0001
,
0200
0000
0320
0000
,
1030
0000
0001
0020
,
0031
0001
1000
0010
,
1000
0000
0100
0010
,
0001
0000
0100
0010
,
0100
0000
0001
0001
;

//---------------dance-single - Loodee----------------
#NOTEDATA:;
#CHARTNAME:Loodee;
#STEPSTYPE:dance-single;
#DESCRIPTION:Loodee;
#CHARTSTYLE:;
#DIFFICULTY:Beginner;
#METER:1;
#RADARVALUES:0.083817,0.106715,0.008503,0.042516,0.000000,69.000000,68.000000,1.000000,5.000000,0.000000,0.000000,0.000000,0.000000,0.000000,0.083817,0.106715,0.008503,0.042516,0.000000,69.000000,68.000000,1.000000,5.000000,0.000000,0.000000,0.000000,0.000000,0.000000;
#CREDIT:Loodee;
#DISPLAYBPM:135.000000;
#NOTES:
0000
0000
0000
0000
,
0001
0000
0000
0000
,
0001
0000
0000
0000
,
1000
0000
0000
0000
,
1000
0000
0000
0000
,
0010
0000
0000
0000
,
0010
0000
0000
0000
,
0000
0000
0000
0000
,
0100
0000
0000
0000
,
0001
0000
0000
0000
,
1000
0000
0000
0000
,
0001
0000
0000
0000
,
1000
0000
0000
0000
,
0100
0000
0000
0000
,
0010
0000
0000
0000
,
0100
0000
0000
0000
,
0010
0000
0000
0000
,
0001
0000
0000
0000
,
1000
0000
0000
0000
,
1000
0000
0000
0000
,
0010
0000
0010
0000
,
1000
0000
0000
0000
,
0001
0000
0000
0000
,
0001
0000
0000
0000
,
0020
0000
0000
0030
,
0100
0000
0000
0000
,
1000
0000
0000
0000
,
0001
0000
0000
0000
,
0001
0000
0010
0000
,
0010
0000
0000
0000
,
0100
0000
0000
0000
,
0010
0000
0000
0000
,
0001
0000
0000
0000
,
1000
0000
0000
0000
,
1000
0000
0000
0000
,
1000
0000
0000
0000
,
1000
0000
0100
0000
,
0000
0010
0000
0000
,
0010
0000
0000
0000
,
0010
0000
0000
0000
,
0001
0000
0000
0000
,
1001
0000
0000
0000
,
0000
0000
0000
0000
,
1000
0000
1000
0000
,
1000
0000
0000
0000
,
0002
0000
0000
0000
,
2003
0000
0000
0000
,
3100
0000
0100
0000
,
0100
0000
0000
0000
,
0010
0000
0000
0000
,
0001
0000
0000
0000
,
0010
0000
0010
0000
,
0010
0000
0000
0000
,
0002
0000
0000
0000
,
2003
0000
0000
0000
,
3001
0000
0001
0000
,
0001
0000
0000
0000
,
0100
0000
0000
0000
,
0010
0000
0000
0000
,
1000
0000
0000
0000
,
1000
0000
0000
0000
,
0100
0000
0000
0000
,
0100
0000
0000
0010
;
