#TITLE:D E T A C H E D;
#SUBTITLE:;
#ARTIST:Pacific Patterns;
#TITLETRANSLIT:;
#SUBTITLETRANSLIT:;
#ARTISTTRANSLIT:;
#GENRE:Bass;
#CREDIT:Feraligatr;
#BANNER:D E T A C H E D.png;
#BACKGROUND:D E T A C H E D-bg.png;
#LYRICSPATH:;
#CDTITLE:cdtitle.png;
#MUSIC:D E T A C H E D.ogg;
#OFFSET:0.012000;
#SAMPLESTART:74.882004;
#SAMPLELENGTH:13.617000;
#SELECTABLE:YES;
#DISPLAYBPM:141.000000;
#BPMS:0.000000=141.000000
;
#STOPS:
;
#BGCHANGES:;
#KEYSOUNDS:;
#ATTACKS:;

//---------------dance-single - Feraligatr----------------
#NOTES:
     dance-single:
     Feraligatr:
     Challenge:
     12:
     0.763780,0.963780,0.543307,0.527559,0.744094,543.000000,69.000000,67.000000,16.000000,0.000000,11.000000,0.763780,0.963780,0.543307,0.527559,0.744094,543.000000,69.000000,67.000000,16.000000,0.000000,11.000000:
0000
0000
0000
0000
,
0000
0000
0000
0000
,
0000
0000
0000
0000
,
0000
0000
0000
0000
,
1000
0000
0000
0000
0000
0000
1000
0000
0000
0001
0000
0000
0100
0000
0000
0000
0000
0000
0001
0000
1000
0000
0001
0000
1000
0000
0000
0000
0000
0000
0100
0000
0000
0000
0000
0000
0010
0000
0000
0001
0000
0000
1000
0000
0000
0001
0000
0000
,
0100
0000
0000
0010
0000
0000
0010
0000
0000
1000
0001
1000
0001
0000
0000
0000
0000
0000
0010
0000
0000
0010
0000
0000
,
0100
0000
0000
1000
0000
0000
1000
0000
0000
0001
0100
0001
0100
0000
0000
0010
0000
0000
1000
0000
0000
1000
0000
0000
,
0001
0000
0000
0010
0000
0000
0001
0000
0000
0010
0000
0000
0100
0000
0000
1000
0000
0000
0001
0000
0100
0000
0001
0000
0100
0000
0000
0000
0000
0000
0000
0000
0000
0000
0000
0000
0000
0000
0000
0000
0000
0000
0000
0000
0000
0000
0000
0000
,
1002
0000
0000
0000
0013
0000
0000
0001
0100
0000
0010
0000
0000
0000
0010
0000
,
0010
0000
0000
0000
0000
0000
4000
0000
0000
3000
0000
0000
0010
0000
0000
0000
0000
0000
0010
0000
1000
0000
0010
0000
1000
0000
0000
0000
0000
0000
2001
0000
0000
0000
0000
0000
0000
0000
0000
0000
0000
0000
0000
0000
0000
3000
0000
0000
,
2001
0000
3001
1000
0100
0000
0100
1000
0001
0000
0100
0000
0010
0000
1000
0000
,
1000
0000
0000
0000
0000
0000
0001
0000
0000
1000
0001
1000
0100
0000
0000
0020
0000
0000
0031
0000
0000
0000
0000
0000
,
1200
0000
0000
0000
0000
0000
0000
0000
0000
0000
0000
0000
0000
0000
0000
0000
0000
0000
0000
0000
0000
0000
0000
0000
0000
0000
0000
0000
0000
0000
0000
0000
0000
0000
0000
0000
0000
0000
0000
0000
0000
0000
0000
0000
0000
0000
0000
0000
0000
0000
0000
0000
0000
0000
0000
0000
0000
0000
0000
0000
0000
0000
0000
0000
0000
0000
0000
0000
0000
0000
0000
0000
1300
0000
0000
0000
0000
0000
0000
0000
0001
0000
0000
0000
0000
0000
0000
0000
1000
0000
0000
0000
0000
0000
0000
0000
0010
0000
0000
0000
0000
0000
0000
0000
0000
0000
0000
0000
0000
0000
0000
0000
0000
0000
0000
0000
0000
0000
0000
0000
0000
0000
0000
0000
0000
0000
0000
0000
0000
0000
0000
0000
0000
0000
0000
0000
0000
0000
0000
0000
0000
0000
0000
0000
0100
0000
0000
0000
0000
0000
0001
0000
0000
0000
0000
0000
0100
0000
0000
0000
0000
0000
0000
0000
0000
0000
0000
0000
0000
0000
0000
0000
0000
0000
0000
0000
0000
0000
0000
0000
0000
0000
0000
0000
0000
0000
0000
0000
0000
0000
0000
0000
,
0100
0001
0200
0000
0000
0000
0000
0000
0300
0000
0000
0000
0000
0000
0000
0000
0010
0000
0000
0000
2010
0000
0000
0000
0000
0000
0000
0000
0000
0000
3000
0000
,
2010
0000
3001
0010
0400
0000
0300
1100
,
1001
0000
0000
0000
0000
0000
0000
0000
0001
0010
0001
0000
0000
0000
0000
0000
1000
0000
0000
0000
0001
0100
0020
0000
0000
0000
0000
0000
0000
0000
0030
0000
,
1010
0000
0000
0000
0000
0000
1000
0000
0000
0001
0000
0000
0100
0000
0000
0000
0000
0000
0000
0000
0000
0001
0000
0000
1000
0000
0000
0000
0000
0000
0100
0000
0000
0000
0000
0000
0010
0000
0000
0001
0000
0000
1000
0000
0001
0000
1000
0000
,
0010
0000
0000
0000
0000
0000
1000
0000
0001
0000
1000
0000
0400
0000
0000
0000
0000
0000
0310
0000
0000
0000
0000
0000
0001
0000
0000
0000
0000
0000
2001
0000
0000
0000
0000
0000
0000
0000
0000
0000
0000
0000
0000
0000
0000
3000
0000
0000
,
1020
0000
0130
0001
1000
0000
1000
0001
0010
0000
1000
0000
0010
0000
0100
0000
,
1000
0000
0000
0000
0001
0000
1000
0010
0100
0000
0001
0000
0010
0000
0100
0000
,
2100
0000
0000
0000
0000
0000
0000
0000
0000
0000
0000
0000
0000
0000
0000
0000
0000
0000
0000
0000
0000
0000
0000
0000
0000
0000
0000
0000
0000
0000
0000
0000
0000
0000
0000
0000
0000
0000
0000
0000
0000
0000
0000
0000
0000
0000
0000
0000
0000
0000
0000
0000
0000
0000
0000
0000
0000
0000
0000
0000
0000
0000
0000
0000
0000
0000
0000
0000
0000
0000
0000
0000
3001
0000
0000
0000
0000
0000
0000
0000
1000
0000
0000
0000
0000
0000
0000
0000
0001
0000
0000
0000
0000
0000
0000
0000
0100
0000
0000
0000
0000
0000
0000
0000
0000
0000
0000
0000
0000
0000
0000
0000
0000
0000
0000
0000
0000
0000
0000
0000
0000
0000
0000
0000
0000
0000
0000
0000
0000
0000
0000
0000
0000
0000
0000
0000
0000
0000
0000
0000
0000
0000
0000
0000
0001
0000
0000
0000
0000
0000
1000
0000
0000
0000
0000
0000
0001
0000
0000
0000
0000
0000
0000
0000
0000
0000
0000
0000
0000
0000
0000
0000
0000
0000
0000
0000
0000
0000
0000
0000
0000
0000
0000
0000
0000
0000
0000
0000
0000
0000
0000
0000
,
0001
1000
0002
0000
0000
0000
0000
0000
1003
0020
0000
0000
0000
0000
0000
0000
1030
0000
0000
0000
1002
0000
0000
0000
0000
0000
0000
0000
0000
0000
0003
0000
,
1002
0000
0000
0000
0000
0000
0000
0000
0013
0000
0000
0000
0000
0000
0001
1000
,
0002
0000
0000
0000
0000
0000
0000
0000
0000
0000
0000
0000
0103
0000
0000
0000
0000
0000
0010
0000
0000
1000
0000
0000
0001
0000
0000
0000
0000
0000
0010
0000
0000
0000
0000
0000
0100
0000
1000
0000
0001
0000
1000
0000
0001
0000
0100
0000
,
0010
0000
0000
0000
1000
0000
0000
0000
0001
0000
0100
0000
0001
0000
0000
0000
1000
0000
0001
0000
1000
0000
0000
0000
0100
0000
0000
0000
0000
0000
1000
0000
0000
0000
0000
0000
0001
0000
0000
0001
0000
0000
0001
0000
0000
0000
0000
0000
,
0010
0000
0000
0200
0000
0000
1300
0001
1000
0001
0100
0010
1000
0000
0000
0000
0000
0000
0100
0000
0000
0000
0000
0000
,
1000
0010
1000
0010
0000
0000
1000
0001
1000
0001
0000
0000
0010
0000
0000
0001
0000
0000
0100
0000
0001
1000
0001
0010
,
0100
0000
0000
1000
0001
1000
0010
0000
0000
0100
0000
0000
M001
0000
0000
0000
0000
0000
00M0
0000
0000
0000
0000
0000
,
2001
0000
3100
2001
,
0000
0000
0000
0000
3100
1000
0010
0000
,
0102
0000
0000
0000
0000
0000
0003
0000
0102
0000
0000
0000
0000
0000
0000
0000
1003
0000
0000
0000
0000
0000
0000
0000
0001
0100
0001
0000
1000
0000
0001
0000
,
0040
0000
0000
0000
0130
0001
0100
1000
,
1002
0000
0000
0000
0000
0000
0000
0000
0013
0000
0000
0000
0210
0000
0000
0300
,
1100
0000
0000
0000
0000
0000
0000
0000
0M01
0000
0000
0000
10M0
0000
0001
0100
,
0120
0000
1030
0120
,
0130
0000
0001
0000
1000
0000
0001
0000
1000
0000
0100
0000
0020
0000
0000
0000
0000
0000
0000
0000
0000
0000
0000
0000
0031
0000
0000
0000
0000
0000
0000
0000
0000
0001
0000
0000
0100
0000
0000
0000
0000
0000
0100
0000
0000
0000
0000
0000
,
0140
0000
0000
0000
0000
0000
0000
0030
1000
0000
0000
0000
1002
0000
0000
0003
,
0021
0000
0000
0000
0000
0000
0000
0000
0000
0400
0000
0000
0330
0000
0000
0000
0010
0000
0001
0000
1000
0000
0000
0000
00M1
0000
0000
0000
0000
0000
0000
0000
0000
0000
0000
0000
M100
0000
0000
0001
0000
0000
0010
0000
0000
0100
0000
0000
,
2100
0000
3001
2100
,
0000
0000
0000
0000
0000
0000
0000
0000
0000
0000
0000
0000
000M
0000
0000
0000
0000
0000
3001
0000
0000
0000
0000
0000
01M0
0000
0000
0000
0000
0000
0001
0000
0000
0000
0000
0000
1M00
0000
0000
0010
0000
0000
1000
0000
0001
0000
1000
0000
,
0100
0000
0010
0001
,
0000
0000
0000
0000
0000
0000
1000
0000
0000
1000
0000
0000
0001
0000
0000
0000
0000
0000
0000
0000
0000
0000
0000
0000
0010
0000
0000
0000
0000
0000
0000
0000
0000
0000
0000
0000
0000
0000
0000
0000
0000
0000
0100
0000
1000
0000
0100
0000
,
1000
0000
0000
1000
0010
0000
1000
0000
,
0000
0000
0000
0000
0000
0000
1000
0000
0001
0000
1000
0000
0001
0000
0000
0000
0000
0000
0000
0000
0000
0000
0000
0000
0010
0000
0000
0000
0000
0000
0000
0000
0000
0000
0000
0000
0001
0000
0000
0000
0000
0000
0001
0000
0000
0001
0000
0000
,
0100
0000
0000
0000
0000
0000
0010
0000
0000
1000
0001
1000
0001
0000
0000
0010
0000
0000
0010
0000
0000
0000
0100
0000
,
0100
0000
1000
0000
0001
0000
1000
0001
0010
0000
0000
0000
0M00
0M00
0000
M000
,
0000
0000
0000
0000
0000
0000
0000
0000
0000
0100
1000
0100
1000
0000
0000
0001
0000
0000
0000
0000
0000
0000
0000
0000
,
0100
0000
0000
0000
0000
0000
0000
0000
0000
0000
0000
0000
0010
0000
0000
0000
0000
0000
1000
0000
0001
0000
1000
0000
0001
0000
0000
0000
0000
0000
0010
0000
0000
0100
0000
0000
1000
0000
0000
0010
0000
0000
0100
0000
0000
0001
0000
0000
,
2001
0000
0000
0000
0000
0000
0000
0000
0000
3000
0000
0000
2001
0000
0000
0000
0000
0000
0000
0000
0000
0000
0000
0000
3100
0000
0000
0010
0000
0000
0001
0000
0000
0100
0000
0000
0000
0000
0000
0000
0000
0000
0000
0000
0010
0000
0000
0000
,
2010
0000
0000
3000
2010
0000
0000
0000
3001
0000
0010
0000
0210
0000
0300
0000
,
2100
0000
0000
3000
2100
0000
0000
0000
3001
0000
1000
0000
0010
0100
0004
0000
,
1003
0100
0010
0001
4000
0000
0000
0000
3010
0000
0200
0000
0000
0000
0301
0000
,
0102
0000
0000
0000
0000
0000
0000
0000
0000
0003
0000
0000
1200
0000
0000
0000
0000
0000
0310
0000
0000
0001
0000
0000
1000
0000
0000
0000
0000
0000
0010
0000
0000
0100
0000
0000
0001
0000
0000
0000
0000
0000
0100
0000
0010
0000
0000
0000
,
2010
0000
0000
3000
0012
0000
0000
0000
1003
0001
0100
0000
0010
0000
1000
0000
,
2010
0000
0000
3000
0021
0000
0130
1000
0001
0000
0200
0000
0000
0000
0310
0000
,
2010
0000
0000
0000
0000
0000
0000
0000
0000
0000
0000
0000
0000
0000
0000
0000
0000
0000
0000
0000
0000
0000
0000
0000
0000
0000
0000
0000
0000
0000
0000
0000
0000
0000
0000
0000
3000
0000
0000
0000
0000
0000
0000
0000
0000
0000
0000
0000
1002
0000
0000
0000
0000
0000
0000
0000
0000
0000
0000
0000
0000
0000
0000
0000
0000
0000
0000
0000
0000
0000
0000
0000
0000
0000
0000
0000
0000
0000
0000
0000
0000
0000
0000
0000
0003
0000
0000
0000
1000
0000
0000
0000
0000
0000
0000
0000
0001
0000
0000
0000
0000
0000
0000
0000
0000
0000
0000
0000
0010
0000
0000
0000
0000
0000
0000
0000
0000
0000
0000
0000
0100
0000
0000
0000
0000
0000
0000
0000
0000
0000
0000
0000
0010
0000
0000
0000
0000
0000
0000
0000
0000
0000
0000
0000
0001
0000
0000
0000
0000
0000
0000
0000
0000
0000
0000
0000
0000
0000
0000
0000
0000
0000
0000
0000
0000
0000
0000
0000
1000
0000
0000
0000
0000
0000
0001
0000
0000
0000
0000
0000
0000
0000
0000
0000
0000
0000
0000
0000
0000
0000
0000
0000
,
0101
0100
0010
1000
0001
0010
0100
1000
0010
1000
0100
0010
,
0011
0000
0000
0110
0000
0000
2100
0000
0000
3001
1000
0001
0100
0000
0000
1010
0000
0000
0001
0000
0000
0001
0000
0000
,
0000
0000
1000
0000
0100
0000
0010
0000
0000
0000
0000
0000
0001
0000
0100
0000
0010
0000
1000
0000
0001
0000
1000
0000
0100
0000
0000
0000
0000
0000
0000
0000
0000
0000
0000
0000
0012
0000
0000
0000
0000
0000
0000
0000
0000
0003
0000
0000
,
2001
0000
0000
0000
0000
0000
3000
0000
0000
0000
0000
0000
1000
0010
1000
0001
0100
0010
1000
0001
1000
0001
0010
0100
,
1000
0000
0000
0000
0000
0000
0000
0000
0100
0000
0000
0000
0000
0000
0000
0000
0010
0000
0000
0000
0000
0000
0000
0000
0001
0000
0000
0000
0000
0000
0000
0000
1000
0000
0000
0000
0000
0000
0000
0000
0001
0000
0000
0000
0000
0000
0000
0000
1000
0000
0000
0000
0000
0000
0000
0000
0010
0000
0000
0000
0000
0000
0000
0000
0100
0000
0000
0000
0000
0000
0000
0000
0001
0000
0000
0000
0000
0000
1000
0000
0000
0000
0000
0000
0001
0000
0000
0000
0000
0000
0000
0000
0000
0000
0000
0000
0100
0000
0000
0000
0000
0000
0000
0000
0000
0000
0000
0000
0001
0000
0000
0000
0000
0000
0000
0000
0000
0000
0000
0000
2000
0000
0000
0000
0000
0000
0000
0000
0000
0000
0000
0000
0000
0000
0000
0000
0000
0000
0000
0000
0000
0000
0000
0000
3001
0000
0000
0000
0000
0000
0000
0000
1000
0000
0000
0000
0000
0000
0000
0000
0001
0000
0000
0000
0000
0000
0000
0000
0100
0000
0000
0000
0000
0000
0000
0000
0010
0000
0000
0000
0000
0000
0000
0000
1000
0000
0000
0000
0000
0000
0000
0000
,
0001
0000
0010
0000
0100
0000
1000
0000
0001
0200
0000
0000
0310
0000
0000
1010
0000
0000
0001
0000
0000
0001
0000
0000
,
1001
0000
0000
0000
0000
0000
0000
0000
0000
0000
0000
0000
0000
0000
0000
0000
0000
0000
0000
0000
0000
0000
0000
0000
1000
0000
0000
0000
0000
0000
0000
0000
0100
0000
0000
0000
0000
0000
0000
0000
0010
0000
0000
0000
0000
0000
0000
0000
0001
0000
0000
0000
0000
0000
0000
0000
1000
0000
0000
0000
0000
0000
0000
0000
0000
0000
0000
0000
0000
0000
0000
0000
0001
0000
0000
0000
0000
0000
0000
0000
0000
0000
0000
0000
0100
0000
0000
0000
0000
0000
0000
0000
0000
0000
0000
0000
0010
0000
0000
0000
0000
0000
0000
0000
0000
0000
0000
0000
0000
0000
0000
0000
0000
0000
0000
0000
0000
0000
0000
0000
1000
0000
0000
0000
0000
0000
0001
0000
0000
0000
0000
0000
0100
0000
0000
0000
0000
0000
0000
0000
0000
0000
0000
0000
0000
0000
0000
0000
0000
0000
0000
0000
0000
0000
0000
0000
0000
0000
0000
0000
0000
0000
0000
0000
0000
0000
0000
0000
0101
0000
0000
0000
0000
0000
0000
0000
0000
0000
0000
0000
0000
0000
0000
0000
0000
0000
0000
0000
0000
0000
0000
0000
,
0102
0000
0000
0000
0000
0000
0000
0000
1003
0001
0000
0000
0010
0000
0000
0000
0100
0000
0000
0000
M000
0000
0000
0000
000M
0000
0000
0000
0000
0000
0000
0000
,
1002
0000
0013
0210
,
1000
0000
0000
1000
0000
0000
1000
0000
0310
0000
0000
0000
0001
0000
0001
1000
,
1020
0000
0000
0000
0000
0100
0000
0000
1030
0000
0000
0000
1002
0000
1000
0000
,
0000
0000
0000
1000
0000
0000
0000
0000
0000
0000
0000
0000
0003
0000
0000
1000
0000
0000
0001
0000
1000
0000
0100
0000
0010
0000
0000
0000
0000
0000
0000
0000
0000
0001
0000
0000
1001
0000
0000
0000
0000
0000
1001
0000
0000
0000
0000
0000
,
1001
0000
0101
0000
0110
0000
1010
0000
1001
0000
0011
0000
1000
0000
0000
0000
0000
0000
2100
0000
0000
0002
0000
0000
,
3000
0000
0000
0000
0000
0000
0000
0000
0000
0400
0000
0000
0303
0000
0000
0010
0000
0000
1000
0000
0001
0000
1000
0000
01M0
0000
0000
0000
0000
0000
0000
0000
0000
0000
0000
0000
100M
0000
0000
0010
0000
0000
0100
0000
0000
0001
0000
0000
,
2001
3200
0020
0300
0031
0000
0201
0320
,
4000
3000
0000
0000
4030
3000
0000
0000
2000
3000
0000
0000
0020
0030
0000
0000
,
0100
0000
0000
0000
;

//---------------dance-single - Feraligatr----------------
#NOTES:
     dance-single:
     :
     Hard:
     10:
     0.598425,0.623622,0.330709,0.456693,0.405512,432.000000,42.000000,58.000000,0.000000,0.000000,8.000000,0.598425,0.623622,0.330709,0.456693,0.405512,432.000000,42.000000,58.000000,0.000000,0.000000,8.000000:
0000
0000
0000
0000
,
0000
0000
0000
0000
,
0000
0000
0000
0000
,
0000
0000
0000
0000
,
1000
0000
1000
0001
0100
0000
0010
1000
0001
0000
1000
0000
0001
1000
0100
1000
,
0001
0000
0100
0000
0100
0000
0010
1000
0001
0000
0000
0000
1000
0000
1000
0000
,
0100
0000
0010
0000
0010
0000
0001
1000
0001
0000
0100
0000
0010
0000
0100
0000
,
0001
1000
0100
0010
0100
1000
0001
1000
0001
0000
0000
0000
0000
0000
0000
0000
,
0201
0000
0000
0000
0000
0000
0000
0310
1000
0000
0001
0000
0000
0000
0001
0000
,
0001
0000
0000
0000
0010
0000
0010
0100
1000
0000
2100
0000
0000
0000
0000
3000
,
2100
0000
3100
0010
0001
0000
0001
1000
0010
0000
0100
0000
0001
0000
0100
0000
,
0010
0000
0000
0000
1000
0000
0001
1000
0100
0000
0010
0000
0001
0000
0000
0000
,
2001
0000
3010
0100
,
0100
0000
0000
0000
0000
0000
0000
0000
0001
0000
2001
0000
0000
0000
0000
3000
,
2001
0000
0000
0000
3100
0000
0000
1100
,
1001
0000
0000
0000
1000
0000
0000
0000
0010
0000
0100
0002
0000
0000
0000
0003
,
2001
0000
0000
0000
0000
0000
0000
3010
0100
0000
0001
0000
1000
0001
0100
0001
,
1000
0000
0100
0010
0001
0000
1000
0000
0010
0000
0210
0000
0000
0000
0000
0300
,
0102
0000
1003
0001
1000
0000
0001
1000
0100
0000
0010
0000
0100
0000
1000
0000
,
0001
0000
0000
0000
0100
0000
0010
1000
0001
0000
0010
0000
0100
0000
1000
0000
,
1002
0000
0103
0010
,
0010
0000
0000
0000
1000
0000
0000
0000
0001
0000
2001
0000
0000
0000
0000
3000
,
2001
0000
0000
0000
0000
0000
0000
0000
3001
0000
0000
0000
0000
0000
1000
0100
,
2000
0000
0000
0000
3001
0000
0100
0010
1000
0000
0100
0000
0040
0000
0000
0000
,
0031
0000
0000
0000
1000
0000
0000
0000
0001
0000
0000
0000
0100
0000
0000
0000
0010
0000
0000
0000
1000
0000
0000
0000
0001
0000
0000
0000
0000
0000
0000
0000
0000
0000
0000
0000
1000
0000
0000
0100
0000
0000
1000
0000
0000
0000
0000
0000
,
0001
0000
0200
0000
0310
1000
0001
1000
0100
0000
0000
0000
0010
0000
0000
0000
,
0001
1000
0001
0000
0100
0001
0100
0000
0010
0000
0000
0000
1000
0000
0001
1000
,
0100
0000
0010
0100
1000
0000
0001
0000
0100
0000
0000
0000
0000
0000
0000
0000
,
2010
0000
3001
2010
,
0000
0000
0000
0000
3001
1000
0100
0000
,
0120
0000
0000
0030
0120
0000
0000
0000
0031
0000
0000
0000
4000
3000
0001
1000
,
0040
0000
0000
0000
0130
0001
0010
0100
,
2100
0000
0000
0000
0000
0000
0000
0000
3001
0000
0000
0000
2100
0000
0000
3000
,
1001
0000
0000
0000
0000
0000
0000
0000
0001
0000
0000
0000
1000
0000
0010
0100
,
0002
0000
1003
0102
,
4000
0000
0000
0000
3003
0000
0000
0000
0001
0000
0000
1000
0100
0000
0100
0000
,
0040
0000
0000
0000
0000
0000
0000
0030
0001
0000
0000
0000
1002
0000
0000
0003
,
0201
0000
0000
0040
0030
0000
0000
0000
0301
0000
0000
0000
1000
0001
0010
0100
,
2000
0000
3001
2100
,
0000
0000
0000
0000
0000
0000
3001
0000
1000
0000
0010
0000
0100
0001
4000
0000
,
3100
0000
0010
0001
,
0000
0000
0001
1000
0100
0000
0000
0000
0010
0000
0000
0000
0000
0000
0100
1000
,
0100
0000
0000
0100
0010
0000
0010
0000
,
0000
0000
0001
1000
0001
0000
0000
0000
0100
0000
0000
0000
0010
0000
0010
1000
,
0001
0000
0000
0000
0000
0000
0000
0000
0000
0000
0000
0000
0010
0000
0000
0000
0000
0000
0100
0000
0000
1000
0000
0000
0001
0000
0000
0000
0000
0000
0100
0000
0000
0000
0000
0000
0010
0000
0000
0000
0000
0000
0000
0000
1000
0000
0000
0000
,
0001
0000
0010
0000
0100
0000
1000
0001
0100
0000
0000
0000
0000
0000
0000
0000
,
0000
0000
0000
0000
0000
0000
0010
1000
0010
0000
0100
0000
0000
0000
0000
0000
,
0001
0000
0000
0000
1000
0000
0001
0100
0001
0000
1000
0100
1000
0001
0100
0010
,
2000
0000
0000
0000
0000
0000
0000
0000
0000
3000
0000
0000
2010
0000
0000
0000
0000
0000
0000
0000
0000
0000
0000
0000
3001
0000
0000
1000
0000
0000
0100
0000
0000
0010
0000
0000
0000
0000
0000
0000
0000
0000
0000
0000
0001
0000
0000
0000
,
2000
0000
0000
3000
2001
0000
0000
0000
3010
0000
0100
0000
0002
0000
0003
0000
,
1002
0000
0000
0003
1002
0000
0000
0000
0013
0000
0100
0000
1000
0001
0000
0000
,
1000
0010
0100
0001
1000
0000
1000
0000
0100
0000
0020
0000
0000
0000
0031
0000
,
0012
0000
0000
0000
0000
0000
0000
0000
0000
0003
0000
0000
1200
0000
0000
0000
0000
0000
0000
0000
0000
0000
0000
0000
1300
0000
0000
0000
0000
0000
0001
0000
0000
1000
0000
0000
0010
0000
0000
0000
0000
0000
0000
0000
0100
0000
0000
0000
,
0201
0000
0000
0300
1020
0000
0000
0000
1030
0001
1000
0000
0100
0000
0010
0000
,
0012
0000
0000
0003
2100
0000
0000
0000
3001
0000
0200
0000
0000
0000
0310
0000
,
1020
0000
0000
0030
0201
0000
0000
0000
0301
1000
0001
1000
0100
0000
0010
0000
,
0001
1000
0010
0100
0010
1000
0001
0010
0100
1000
0001
0100
,
0010
1000
0002
0000
1003
0001
0010
0010
,
0100
1000
0100
0000
1000
0001
1000
0001
0100
0000
0000
0000
0120
0000
0000
0030
,
2010
0000
0000
0000
3000
0000
0000
0000
0001
1000
0100
1000
0001
0100
0010
1000
,
0001
1000
0010
0100
0001
1000
0400
0300
0000
1000
0002
0000
0000
0000
0000
0000
,
0000
0000
0000
0203
0310
1000
0001
0001
,
1000
0000
0100
0010
0001
0000
1000
0010
0100
0000
0001
1000
0000
0000
0100
0000
,
0100
0000
0010
0001
1000
0000
0000
0000
,
1002
0000
0103
0010
,
0010
0000
0000
0010
0000
0000
0010
0000
1000
0000
0000
0000
0001
0000
1000
0001
,
0020
0000
0000
0000
0000
0130
0000
0000
1000
0000
0000
1000
0000
0000
1000
0000
,
0000
1000
0000
0000
0000
1000
0000
0000
0001
0000
0000
0100
0010
0000
0010
0000
,
1000
0100
1000
0100
1000
0100
0010
0000
0000
0012
0000
0000
,
0000
0000
0000
1000
0003
0001
0000
0000
0100
0000
0000
0000
0010
1000
0001
1000
,
0200
0320
0032
0000
1003
0000
2001
3020
,
0230
0300
0100
0000
0100
0000
0010
0000
,
1000
0000
0000
0000
;

//---------------dance-single - Feraligatr----------------
#NOTES:
     dance-single:
     :
     Medium:
     7:
     0.453318,0.566929,0.228346,0.503937,0.090551,310.000000,29.000000,64.000000,0.000000,0.000000,0.000000,0.453318,0.566929,0.228346,0.503937,0.090551,310.000000,29.000000,64.000000,0.000000,0.000000,0.000000:
0000
0000
0000
0000
,
0000
0000
0000
0000
,
0000
0000
0000
0000
,
0000
0000
0000
0000
,
1000
1000
0100
0010
0001
1000
0000
0000
,
1000
0001
0001
0100
0010
0000
1000
1000
,
0100
0010
0010
0001
1000
0100
0000
0000
,
0010
0001
0010
0001
1000
0000
0000
0000
,
2001
0000
0000
0000
3001
1000
0000
1000
,
1000
0000
0000
0000
0100
0000
0100
0000
0010
0000
0002
0000
0000
0000
0000
0003
,
1002
0000
0000
0000
0103
0010
0000
0010
,
1000
0000
1000
0001
0010
0100
1000
0000
,
2001
0000
3010
0100
,
0100
0000
0000
0000
0000
0000
0000
0000
0001
0000
2000
0000
0000
0000
0000
3000
,
2001
0000
0000
0000
3100
0000
0000
1100
,
0100
0000
0010
0000
0001
1000
0000
0000
,
2001
0000
0000
0000
3010
0100
0001
0100
,
0010
0000
1000
0000
0100
0000
0010
0000
0001
0000
2000
0000
0000
0000
0000
3000
,
2001
0000
0000
0000
3100
0010
0100
1000
,
0001
0000
0100
0010
1000
0001
0010
0000
,
1002
0000
0103
0010
,
0010
0000
0000
0000
1000
0000
0000
0000
0001
0000
2000
0000
0000
0000
0000
3000
,
2001
0000
0000
0000
0000
0000
0000
0000
3100
0000
0000
0000
0000
0000
0010
0100
,
0020
0000
0031
1000
0010
0100
0002
0000
,
1003
0000
0000
0000
0100
0000
0000
0000
1000
0000
0000
0000
0100
0000
0000
0000
1000
0000
0000
0000
0100
0000
0000
0000
0010
0000
0000
0000
0000
0000
0000
0000
0000
0000
0000
0000
0001
0000
0000
1000
0000
0000
0001
0000
0000
0000
0000
0000
,
0100
0020
1030
0001
0010
0000
0100
0000
,
2001
0000
0000
3000
1200
0000
0000
0000
0310
0000
0000
0000
0000
0000
0001
0000
,
2000
0000
3010
0100
0001
0000
0000
0000
,
2001
0000
3010
2001
,
0000
0000
0000
0000
3010
1000
0001
0000
,
1002
0000
0000
0003
1002
0000
0000
0000
1003
0000
0000
0000
1000
0000
0100
0000
,
0020
0000
0000
0000
0031
1000
0010
0100
,
0002
0000
1003
0002
,
0013
0000
0000
0000
0001
0000
1000
0010
,
0200
0000
0301
0200
,
0000
0000
0000
0000
0300
0000
0000
0000
0001
0000
0000
1000
0100
0000
0100
0000
,
0020
0000
0000
0000
0000
0000
0000
0030
0001
0000
0000
0000
1002
0000
0000
0000
,
0203
0000
0000
0000
0301
0000
0100
0001
,
2000
0000
3001
2001
,
0000
0000
0000
3001
1000
0010
0100
0000
,
0101
0000
1000
0001
,
0000
0100
0001
0000
1000
0000
0000
0100
,
0010
0000
0000
0100
0010
0000
0010
0000
,
0000
0001
1000
0000
0010
0000
0100
0100
,
0001
0000
0000
0000
0000
0000
0010
0000
0000
0100
0000
0000
0000
0000
0000
0100
0000
0000
1000
0000
0000
0000
0001
0000
,
1000
0010
0100
0001
1000
0000
0000
0000
,
0000
0000
0000
0001
1000
0100
0000
0000
,
0010
0000
0100
1000
0001
0000
0000
0000
,
2001
0000
0000
0000
0000
0000
0000
0000
0000
3000
0000
0000
2001
0000
0000
0000
0000
0000
0000
0000
0000
0000
0000
0000
3001
0000
0000
0000
0000
0000
0000
0000
0000
0000
0000
0000
0000
0000
0000
0000
0000
0000
0000
0000
0001
0000
0000
0000
,
2000
0000
0000
3000
2001
0000
0000
0000
3010
0000
0000
0000
0102
0000
0003
0000
,
1002
0000
0000
0003
1002
0000
0000
0000
0013
0000
0000
0000
0001
0000
0000
0000
,
2000
0000
3100
0100
0010
0002
0000
1003
,
0020
0000
0000
0230
0000
0000
0301
0000
0000
0010
0000
0100
,
2000
0000
3002
0000
1003
1000
0010
0100
,
0002
0000
2003
0000
3100
0000
0000
0010
,
0002
0000
2003
0000
3001
0001
0100
0010
,
1000
0001
1000
0001
0010
0001
0010
0100
0010
0100
1000
0100
,
1000
0001
0200
0000
0310
1000
0001
0001
,
0000
0000
0100
0120
,
2030
3000
0200
0000
,
0000
0000
0000
0000
1300
0002
0000
0000
,
0000
0000
0000
0003
0001
1000
0100
0100
,
0010
0001
1000
0010
0100
0000
0000
0001
,
0001
0000
1000
0001
0010
0000
0000
0000
,
0120
0000
0031
2001
,
0000
0000
0000
0000
3010
0000
0100
0001
,
2000
0000
3100
2001
,
0000
0000
0000
0000
0000
0000
0000
0000
3010
0000
0000
0100
0001
0000
0001
0000
,
1000
0001
1000
0001
1000
0001
1000
0000
0000
1002
0000
0000
,
0000
0000
0003
0000
0100
0000
0010
1000
,
0200
0320
0032
0000
1003
0000
0001
0200
,
0320
0030
0010
0000
0010
0000
1000
0000
,
0001
0000
0000
0000
;

//---------------dance-single - Feraligatr----------------
#NOTES:
     dance-single:
     :
     Easy:
     4:
     0.289089,0.311811,0.433071,0.251969,0.000000,170.000000,55.000000,32.000000,0.000000,0.000000,0.000000,0.289089,0.311811,0.433071,0.251969,0.000000,170.000000,55.000000,32.000000,0.000000,0.000000,0.000000:
// measure 0
0000
0000
0000
0000
,  // measure 1
0000
0000
0000
0000
,  // measure 2
0000
0000
0000
0000
,  // measure 3
0000
0000
0000
0000
,  // measure 4
1000
0100
0010
0100
,  // measure 5
1000
0001
0100
0000
,  // measure 6
0010
1000
0001
1000
,  // measure 7
0200
0000
0310
0000
,  // measure 8
2001
0000
3010
0000
,  // measure 9
1000
0001
0010
0000
,  // measure 10
2100
0000
3001
0000
,  // measure 11
1000
0010
0100
0000
,  // measure 12
0102
0000
1003
0001
,  // measure 13
0001
0000
1000
0000
,  // measure 14
1200
0000
0310
0000
,  // measure 15
0011
0010
0100
1000
,  // measure 16
1002
0000
0103
0000
,  // measure 17
0010
1000
0001
0000
,  // measure 18
1002
0000
0013
0000
,  // measure 19
0100
1000
0001
0000
,  // measure 20
0201
0000
0310
1000
,  // measure 21
1000
0001
0010
0000
,  // measure 22
0210
0000
1300
0000
,  // measure 23
1200
0310
0000
0000
,  // measure 24
0001
1000
0010
0000
,  // measure 25
0101
0001
1000
0000
,  // measure 26
1100
1100
0001
0000
,  // measure 27
2001
0000
3010
0000
,  // measure 28
0201
0000
0310
0201
,  // measure 29
0000
0000
0310
0000
,  // measure 30
2001
0000
0000
3000
2001
0000
0000
0000
3100
0000
0000
0000
0000
0000
0000
0000
,  // measure 31
0020
0000
0031
0000
,  // measure 32
2001
0000
3010
2010
,  // measure 33
3001
0000
1000
0000
,  // measure 34
1200
0000
0310
1200
,  // measure 35
0000
0000
0310
0000
,  // measure 36
1002
0000
1003
1010
,  // measure 37
0102
0000
1003
0000
,  // measure 38
2001
0000
3100
2001
,  // measure 39
0000
0000
3100
0000
,  // measure 40
1000
0000
0001
0100
,  // measure 41
0000
0100
0010
0000
,  // measure 42
1000
0000
0001
1000
,  // measure 43
0000
1000
0100
0010
,  // measure 44
0011
0001
1000
0000
,  // measure 45
1001
1000
0010
0000
,  // measure 46
0000
0000
0010
0000
,  // measure 47
1000
0001
0010
0000
,  // measure 48
0011
0011
0010
0000
,  // measure 49
1100
1100
0100
0000
,  // measure 50
1001
1001
1000
0000
,  // measure 51
0002
0000
0103
0000
,  // measure 52
0101
0101
0000
0000
,  // measure 53
1100
1100
0000
0000
,  // measure 54
0011
0011
0000
0000
,  // measure 55
1010
1010
0000
0000
,  // measure 56
0001
1000
0100
1000
,  // measure 57
0001
0100
0010
1000
,  // measure 58
0000
0000
0001
0011
,  // measure 59
1100
0000
0001
0000
,  // measure 60
0000
0000
0001
0000
,  // measure 61
0000
0000
1000
0000
,  // measure 62
1010
0000
0001
0000
,  // measure 63
1001
0000
0100
0000
,  // measure 64
1002
0000
1003
1200
,  // measure 65
0000
0000
0310
0000
,  // measure 66
0012
0000
1003
1002
,  // measure 67
0000
0000
0103
0000
,  // measure 68
1010
0000
0001
1002
,  // measure 69
0000
0000
0013
0000
,  // measure 70
1200
0000
0310
1200
,  // measure 71
0310
0010
0010
0001
,  // measure 72
1000
0000
0000
0000
;

//---------------dance-single - Feraligatr----------------
#NOTES:
     dance-single:
     :
     Beginner:
     1:
     0.134983,0.170079,0.188976,0.007874,0.000000,95.000000,24.000000,1.000000,0.000000,0.000000,0.000000,0.134983,0.170079,0.188976,0.007874,0.000000,95.000000,24.000000,1.000000,0.000000,0.000000,0.000000:
// measure 0
0000
0000
0000
0000
,  // measure 1
0000
0000
0000
0000
,  // measure 2
0000
0000
0000
0000
,  // measure 3
0000
0000
0000
0000
,  // measure 4
1000
0000
0000
0000
,  // measure 5
0100
0000
0000
0000
,  // measure 6
0010
0000
0000
0000
,  // measure 7
0200
0000
0300
0000
,  // measure 8
1001
0000
0000
0000
,  // measure 9
0000
0000
0000
0000
,  // measure 10
1001
0000
0000
0000
,  // measure 11
0000
0000
0000
0000
,  // measure 12
0110
0000
0000
0000
,  // measure 13
0000
0000
0000
0000
,  // measure 14
1001
0000
0000
0000
,  // measure 15
1001
0000
0000
0000
,  // measure 16
1001
0000
0100
0000
,  // measure 17
0010
0000
0100
0000
,  // measure 18
1001
0000
0100
0000
,  // measure 19
0010
0000
0100
0000
,  // measure 20
1001
0000
0000
0000
,  // measure 21
0000
0000
0000
0000
,  // measure 22
1001
0000
0000
0000
,  // measure 23
1001
0000
0000
0000
,  // measure 24
1000
0000
1000
0000
,  // measure 25
0001
0000
0001
0000
,  // measure 26
0100
0000
0010
0000
,  // measure 27
1000
0000
0010
0000
,  // measure 28
1001
0000
0000
1001
,  // measure 29
0000
0000
1000
0000
,  // measure 30
1001
0000
0000
0000
,  // measure 31
0001
0000
0100
0000
,  // measure 32
1001
0000
0010
0000
,  // measure 33
0100
0000
0010
0000
,  // measure 34
1001
0000
1000
0000
,  // measure 35
0001
0000
1000
0000
,  // measure 36
0110
0000
0001
0000
,  // measure 37
1000
0000
0100
0000
,  // measure 38
0110
0000
0010
0000
,  // measure 39
0001
0000
1000
0000
,  // measure 40
1001
0000
1000
0010
,  // measure 41
0000
0100
0001
0000
,  // measure 42
0000
0000
1000
0000
,  // measure 43
0000
0000
0001
0000
,  // measure 44
1001
0000
0000
0000
,  // measure 45
1000
0000
0000
0000
,  // measure 46
0001
0000
0000
0000
,  // measure 47
0100
0000
0000
0000
,  // measure 48
0010
0010
0000
0000
,  // measure 49
0100
0100
0000
0000
,  // measure 50
0001
0001
0000
0000
,  // measure 51
1000
0000
0000
0000
,  // measure 52
0100
0100
0000
0000
,  // measure 53
0010
0010
0000
0000
,  // measure 54
0001
0001
0000
0000
,  // measure 55
1000
1000
0000
0000
,  // measure 56
1001
0000
0000
0000
,  // measure 57
0001
0000
0000
0000
,  // measure 58
0100
0000
0000
0000
,  // measure 59
0010
0000
1000
0000
,  // measure 60
0000
0000
0001
0000
,  // measure 61
0000
0000
1000
0000
,  // measure 62
0001
0000
0000
0000
,  // measure 63
0100
0000
0010
0000
,  // measure 64
1001
0000
0000
0000
,  // measure 65
0000
0000
0000
0000
,  // measure 66
1001
0000
0000
0000
,  // measure 67
0000
0000
0000
0000
,  // measure 68
0110
0000
0000
0000
,  // measure 69
0000
0000
0000
0000
,  // measure 70
1001
0000
0000
0000
,  // measure 71
1000
1000
1000
0001
,  // measure 72
1000
0000
0000
0000
;
