#TITLE:Crew;
#SUBTITLE:(Lido Remix);
#ARTIST:GoldLink;
#TITLETRANSLIT:;
#SUBTITLETRANSLIT:;
#ARTISTTRANSLIT:;
#GENRE:Future Bass;
#CREDIT:Feraligatr;
#BANNER:Crew (Lido Remix).png;
#BACKGROUND:Crew (Lido Remix)-bg.png;
#LYRICSPATH:;
#CDTITLE:cdtitle.png;
#MUSIC:Crew (Lido Remix).ogg;
#OFFSET:-0.676999;
#SAMPLESTART:88.369003;
#SAMPLELENGTH:22.615999;
#SELECTABLE:YES;
#DISPLAYBPM:130.000000;
#BPMS:0.000000=130.000000
,218.000000=86.667000
,220.000000=195.000000
,223.000000=130.000000
;
#STOPS:220.000000=0.019000,
220.125000=0.019000,
220.250000=0.116000,
221.000000=0.038000,
221.250000=0.038000,
221.500000=0.078000,
222.000000=0.077000,
222.500000=0.077000
;
#BGCHANGES:;
#KEYSOUNDS:;
#ATTACKS:;

//---------------dance-single - Feraligatr----------------
#NOTES:
     dance-single:
     Feraligatr:
     Challenge:
     10:
     0.624122,0.839344,0.057377,0.270492,0.577869,493.000000,7.000000,33.000000,16.000000,0.000000,9.000000,0.624122,0.839344,0.057377,0.270492,0.577869,493.000000,7.000000,33.000000,16.000000,0.000000,9.000000:
0000
0000
0000
0000
,
0000
0000
0000
0000
,
0000
0000
0000
0000
,
0000
0000
0000
0000
,
0000
0000
0000
0000
,
0000
0000
0000
0000
,
0000
0000
0000
0000
,
0000
0000
0000
1000
0001
0100
0010
0100
,
2000
0000
3200
0000
0320
0000
2030
3001
,
0000
0000
1000
0100
0001
0100
1000
0001
,
0200
0000
0000
0000
0000
0000
0000
0000
0000
0000
0000
0000
0310
0000
0000
1000
0000
0000
0001
0000
0000
0010
0001
0010
,
0200
0000
0000
0000
0000
0000
0000
0000
0000
0000
0000
0000
0300
0000
0000
0000
0000
0000
0000
0000
1000
0000
0001
0000
0200
0000
0000
0000
0000
0000
0000
0000
0000
0320
0000
0000
0000
0000
0000
0000
0000
0000
2030
0000
0000
0000
0000
0000
,
0000
0000
3200
0320
0031
1000
0010
0000
,
0000
0000
0000
0000
0000
0000
0000
0000
0000
0000
0000
0000
0000
0000
0000
0000
0000
0000
0000
0000
0000
0000
0000
0000
0200
0000
0000
0000
0000
0000
0000
0000
0000
0302
0000
0000
0000
0000
0000
0000
0000
0000
0000
0000
0003
2000
0000
0000
,
0000
0000
3200
0320
0000
0030
0000
0000
,
0000
0000
0000
0000
00M0
0000
0000
0000
1000
0001
0100
0000
0001
1000
0100
0000
,
0010
0001
1000
0001
0100
0000
0010
0000
1000
0000
0100
0010
0001
0000
1000
0000
,
0010
0000
0000
0000
0100
0000
0000
0000
0001
1000
0100
1000
0001
0000
0100
0000
,
0010
1000
0001
0010
0100
0000
1000
0001
0100
0010
0100
0001
1000
0100
1000
0001
,
0100
0000
0010
0000
1000
0000
0000
0000
0001
0010
0100
0010
0001
1000
0010
0100
,
0001
0000
0010
0000
0100
0000
0000
0000
1000
0001
0100
0010
1000
0001
0010
0100
,
0010
0000
0001
0000
0100
0000
0000
0000
0010
1000
0001
0000
0010
0000
0100
1000
,
0001
0100
0001
1000
0100
1000
0001
0100
0010
0100
0001
1000
0100
1000
0001
0100
,
0010
0100
0001
1000
0100
0010
0100
1000
0001
0100
0001
0100
0010
1000
0010
1000
,
0001
0000
0010
0000
0100
0000
0000
0000
1000
0001
0100
0001
1000
0000
0100
0000
,
0010
0000
0000
0000
0012
0000
0000
0000
1M03
0000
0010
0000
0100
0001
1000
0100
,
1000
0000
0010
0000
0100
0000
0001
0000
1M00
0000
0100
0010
0001
1000
0001
1000
,
0010
0000
0100
0001
1000
0000
0000
0000
010M
0010
0001
1000
0010
0000
0100
0000
,
0001
0000
0001
0000
0010
0000
0000
0000
0100
1000
0001
0100
0010
0000
1000
0000
,
0100
0000
1000
0001
2000
0000
0000
0000
301M
0100
0001
0000
0010
0000
0001
0000
,
0100
0010
1000
0001
1000
0100
0010
0100
1000
0001
1000
0010
0100
0010
1000
0001
,
1000
0100
1000
0100
0010
0001
0010
0001
1000
0010
1000
0010
0100
0001
0100
0001
,
1000
0000
0100
0000
0010
0000
0000
0000
0M01
1000
0010
0100
0001
0000
1000
0000
,
0100
0000
0010
0001
0010
0000
0000
0000
0M01
1000
0010
0100
0010
1000
0001
0010
,
0100
1000
0100
1000
00M1
0100
0010
1000
,
0100
0000
0010
0001
0010
0000
0000
0000
0M01
1000
0010
0100
00M1
1000
00M1
0010
,
0100
0000
1000
0000
0001
0000
0000
0000
0100
0010
0100
0001
1000
0000
0100
0010
,
0001
0000
1000
0001
1000
0000
0000
0000
0M10
0000
0100
0000
0001
0000
1000
0000
,
0100
0000
0010
0000
0000
0100
0000
1000
0000
0001
0000
0100
0000
0010
0000
1000
,
0000
1001
0000
0001
0000
0010
0000
0100
0000
1100
0000
0001
0000
0100
0000
0000
,
0001
0010
0100
1000
0001
1000
0040
0030
0100
0000
0001
0000
2000
0000
0000
0000
,
0000
0000
3100
0010
1000
0010
0001
1000
,
0020
0000
0100
0000
1030
0001
0010
0200
,
0000
0310
0001
1000
0010
0100
0001
1000
,
0100
0010
0001
0010
0200
0000
2300
0000
,
3001
0000
1000
0010
0001
0010
0100
0001
,
2000
0000
0001
0010
3000
1000
0001
0000
,
0010
0100
2000
0000
3001
1000
0010
0100
,
1000
0000
0100
0000
0001
0000
1000
0100
,
0010
0000
0100
0010
1000
0010
0001
1000
,
0010
0000
0100
0000
0001
1000
0100
0010
,
0001
1000
0010
0100
,
0001
0100
0001
1000
0100
0010
0100
1000
,
0001
0100
0010
1000
0001
0010
0100
1000
,
0001
0000
0000
0100
0000
0000
0010
0000
0000
1000
0000
0000
0001
0000
0000
0010
0000
0000
0001
0000
1000
0000
0001
0000
0100
0000
0000
0000
0000
0000
0000
0000
0000
0000
0000
0000
0000
0000
0000
0000
0000
0000
0000
0000
0000
0000
0000
0000
,
1M00
0001
1000
0000
0000
0000
0000
0000
1000
0000
0001
0000
1000
0000
0000
0000
1000
0000
0000
0000
1000
0000
0000
0000
0M01
0000
0000
0000
0100
0000
0000
0000
,
0010
0000
0000
0000
1000
0000
0001
0100
0004
0003
1000
0000
0000
0000
0001
0010
,
0002
0000
0000
0000
1003
0000
1020
0000
0400
0300
0130
0001
0200
0000
0000
0000
,
0040
0330
2010
0000
0010
0000
0000
3000
4002
3000
0010
0000
0000
0000
1003
0001
,
0020
0000
0000
0000
0100
0000
0031
1000
0004
0003
1000
0010
0100
0000
0001
0000
,
4000
3000
0000
0000
0100
1000
0000
0000
0040
0030
0000
0000
0010
0000
1000
0001
,
2000
0000
0000
0000
3010
0000
0210
0000
0004
0000
0000
0300
1003
0100
0010
0100
,
1000
0001
0100
0010
1000
0001
0010
0001
1000
0010
0100
0001
1000
0100
1000
0100
,
0010
0001
0010
0001
1000
0010
1000
0010
M100
0001
M100
0001
1000
0000
0100
0000
,
0010
0000
0000
0000
;

//---------------dance-single - Feraligatr----------------
#NOTES:
     dance-single:
     :
     Hard:
     8:
     0.454333,0.472131,0.032787,0.393443,0.184426,336.000000,4.000000,48.000000,8.000000,0.000000,2.000000,0.454333,0.472131,0.032787,0.393443,0.184426,336.000000,4.000000,48.000000,8.000000,0.000000,2.000000:
0000
0000
0000
0000
,
0000
0000
0000
0000
,
0000
0000
0000
0000
,
0000
0000
0000
0000
,
0000
0000
0000
0000
,
0000
0000
0000
0000
,
0000
0000
0000
0000
,
0000
0000
0000
1000
0010
0100
0001
1000
,
0200
0000
0320
0000
0032
0000
2003
3010
,
0000
0000
0100
0001
1000
0100
0010
0001
,
2000
0000
0000
0000
3010
0100
0001
1000
,
0200
0000
0000
0000
0300
0000
0000
0000
0020
0000
0000
0032
0000
0000
2003
0000
,
0000
0000
3002
0203
0300
0000
0000
0000
,
0000
0000
0000
0000
0000
0000
0000
0000
0020
0000
0000
2030
0000
0000
0000
3002
,
0000
0000
0023
0230
0300
0000
0000
0000
,
0000
0000
0000
0000
1000
0100
1000
0001
,
0100
0010
1000
0001
0010
0100
1000
0001
,
0100
0000
0010
0000
0100
0001
1000
0100
,
1000
0001
0100
0010
1000
0001
0010
0100
,
1000
0001
0100
0000
0010
0100
0001
1000
,
0100
0010
0001
0000
1000
0010
0100
0001
,
1000
0100
0010
0000
0100
1000
0001
0100
,
0010
1000
0001
0010
0100
0010
0001
1000
,
0010
0100
0001
1000
1100
0100
0110
0010
,
0011
0001
1000
0000
0010
0100
0001
1000
,
0100
0000
0000
0000
0120
0000
0000
0000
0130
0000
1000
0000
0001
0000
0100
0010
,
0100
0001
1000
0100
0010
0001
0100
0010
,
0100
0000
0001
1000
0001
0000
0000
0000
0010
0000
0001
1000
0001
0000
0100
0000
,
0010
0010
1000
0000
0001
1000
0010
1000
,
0100
0000
0010
0001
0020
0000
0000
0000
0130
0000
1000
0000
0001
0000
0100
0000
,
0010
0000
0100
0000
0000
0001
0000
1000
0000
0100
0000
1000
0000
0001
0000
0010
,
0000
0100
0000
0000
0000
1000
0000
0000
0100
0000
1000
0000
0001
0000
0100
0000
,
0010
1000
0001
0000
0010
0100
0010
0001
,
1000
0000
0001
0100
0001
0000
0000
0000
1000
0000
0100
0000
0010
0000
0001
0000
,
1000
0010
0100
0001
0010
0100
0010
0001
,
1000
0000
0001
0100
0001
0000
0000
0000
1000
0000
0100
0010
0100
0000
1000
0000
,
0001
0100
0010
0000
1000
0100
0010
0100
,
1000
0000
0001
0100
0001
0000
0000
0000
1000
0000
0100
0000
0010
0000
0001
0000
,
1000
0000
0010
0000
0000
0100
0000
0001
0000
1000
0000
0001
0000
0010
0000
0100
,
0000
1000
0000
0001
0000
0100
0000
0010
0000
1000
0000
0001
0000
0100
0000
0000
,
0001
0010
0100
1000
0002
0000
0203
0000
,
0300
0000
0010
1000
0001
0010
0100
1000
,
0002
0103
0000
0001
,
0000
0000
1000
0000
0000
0100
0010
0001
,
0100
0010
1000
0001
0020
0000
0230
0000
,
0300
0000
1000
0001
0100
0010
1000
0001
,
2000
3100
0000
1000
,
0000
0000
0001
0000
0100
0010
1000
0001
,
0020
0000
0230
0000
2300
0000
3001
2000
,
3000
0000
0010
1000
0001
0010
0100
1000
,
0002
0000
0000
0000
0103
0010
1000
0001
,
0020
0000
0000
0000
0030
0000
0000
0000
0200
0000
0000
2300
0000
0000
3002
0000
,
0000
0000
0203
0320
1030
0000
0001
0000
,
0010
0000
0000
0000
0100
0000
0000
0000
2000
0000
0000
3002
0000
0000
0000
0203
,
0000
0000
0320
2030
3001
0000
0000
0000
,
M000
000M
M000
0000
0000
0000
0000
0000
M000
0000
000M
0000
M000
0000
0000
0000
M000
0000
0000
0000
M000
0000
0000
0000
1000
0000
0000
0000
0100
0000
0000
0000
,
0010
0000
0000
0000
0001
0000
1000
0001
1000
0000
0010
0000
0000
0000
0100
0001
,
0200
0000
0000
0000
0310
0000
0200
0000
0000
0000
0301
0100
0020
0000
0000
0000
,
0000
0030
0020
0000
1000
0000
0000
0030
0020
0000
1000
0000
0000
0000
0130
0001
,
2000
0000
0000
0000
0100
0000
3100
1000
0100
0000
0010
0000
0001
0000
1000
0000
,
0010
0000
0000
0000
0100
0000
0000
0000
0001
0000
0000
0000
0001
0000
1000
0100
,
2000
0000
0000
0000
0001
3000
2000
0000
0000
0000
0000
3000
1000
0000
0000
0000
,
1000
0000
0000
0000
0100
0000
0000
0000
0010
0000
0000
0000
0004
4000
0000
0000
,
0000
0000
0000
0000
0000
0000
0000
0000
0000
0000
0000
0003
3010
0000
0100
0000
,
0001
0000
0000
0000
;

//---------------dance-single - Feraligatr----------------
#NOTES:
     dance-single:
     :
     Medium:
     6:
     0.269321,0.314754,0.016393,0.147541,0.000000,210.000000,2.000000,18.000000,0.000000,0.000000,0.000000,0.269321,0.314754,0.016393,0.147541,0.000000,210.000000,2.000000,18.000000,0.000000,0.000000,0.000000:
0000
0000
0000
0000
,
0000
0000
0000
0000
,
0000
0000
0000
0000
,
0000
0000
0000
0000
,
0000
0000
0000
0000
,
0000
0000
0000
0000
,
0000
0000
0000
0000
,
0000
0000
0000
0000
,
2000
0000
0000
3002
,
0000
0000
0103
0010
,
2000
0000
3100
0010
,
0002
0000
2003
0000
,
3020
0000
0000
0000
0130
0001
1000
0000
,
0000
0000
0000
0000
,
0200
0000
0000
0000
,
0000
0000
1300
0001
,
0100
0000
0010
0000
0100
0000
0001
1000
,
0001
0010
0100
0010
,
0001
1000
0010
0100
,
0001
1000
0100
0000
0010
0000
0001
0000
,
1000
0010
0100
0000
0001
0000
1000
0000
,
0001
0010
0100
0000
1000
0000
0001
0000
,
0010
0010
0100
0100
,
1000
0001
1000
0000
0010
0000
0100
0000
,
0101
0000
0001
0000
0010
0000
0100
1000
,
0100
0000
0210
0000
0300
0000
1000
0001
,
1000
0010
0100
0001
,
1000
0001
0100
0000
0010
0000
1000
0100
,
0010
0000
0001
0000
1000
0000
0010
0100
,
0001
0000
2000
0000
3100
0000
0010
0001
,
0100
0010
1000
0001
,
0010
0010
0100
0100
,
1000
0001
0100
0000
0010
0000
1000
0001
,
1000
0100
1000
0001
,
0100
0000
0010
0000
1000
0000
0001
1000
,
0100
0010
0001
0100
,
0010
1000
0001
0000
1000
0000
0100
0010
,
0001
1000
0010
0100
,
0001
0000
0000
0000
,
0000
0000
0000
0000
,
1000
0100
0010
0100
,
1000
0001
0100
0010
,
1000
0001
0010
0100
,
0010
0001
1000
0010
,
0100
0001
1000
0100
,
0010
0100
1000
0001
,
0100
0010
1000
0001
,
0010
0001
0100
0010
,
1000
1000
1000
1000
,
0100
0100
0100
0100
,
0010
0010
0010
0010
,
0001
0001
0001
0001
,
1000
0010
0100
0001
,
0010
0100
1000
0001
,
0100
0010
1000
0000
,
0000
0000
0000
0000
0000
0000
1000
0100
,
0010
0000
0001
1000
1000
0010
0000
0100
,
0200
0000
0000
0000
0000
0300
0200
0000
0000
0000
0000
0300
0200
0000
0000
0000
,
0000
0300
0200
0000
0000
0000
0000
0300
0200
0000
0000
0000
0000
0000
0300
0000
,
0020
0000
0000
0000
0030
0000
1000
0001
,
0010
0000
0100
0000
1000
0000
1000
0001
,
0002
0000
0000
0000
0000
0003
0002
0000
0000
0000
0000
0003
0002
0000
0000
0000
,
0000
0000
0000
1003
,
1000
0000
0010
0000
0010
0000
0100
0001
,
1000
0000
0000
0000
;

//---------------dance-single - Feraligatr----------------
#NOTES:
     dance-single:
     :
     Easy:
     3:
     0.163934,0.209836,0.016393,0.098361,0.000000,126.000000,2.000000,12.000000,0.000000,0.000000,0.000000,0.163934,0.209836,0.016393,0.098361,0.000000,126.000000,2.000000,12.000000,0.000000,0.000000,0.000000:
// measure 0
0000
0000
0000
0000
,  // measure 1
0000
0000
0000
0000
,  // measure 2
0000
0000
0000
0000
,  // measure 3
0000
0000
0000
0000
,  // measure 4
0000
0000
0000
0000
,  // measure 5
0000
0000
0000
0000
,  // measure 6
0000
0000
0000
0000
,  // measure 7
0000
0000
0000
0000
,  // measure 8
1000
0000
0100
0000
,  // measure 9
0010
0000
0100
0000
,  // measure 10
1000
0000
0001
0000
,  // measure 11
0100
0000
0010
0000
,  // measure 12
0110
0000
0000
0000
,  // measure 13
0000
0000
0000
0000
,  // measure 14
1001
0000
0000
0000
,  // measure 15
0000
0000
0000
0000
,  // measure 16
1000
0100
0000
0100
,  // measure 17
0000
0000
0100
0000
0000
0100
0000
0000
,  // measure 18
0100
0000
0000
0100
0000
0000
0100
0000
,  // measure 19
0000
0000
0010
0000
0000
0100
0000
0000
,  // measure 20
1000
0001
0000
0000
,  // measure 21
0000
0000
0100
0000
0000
0100
0010
1000
,  // measure 22
0001
0000
0000
0001
0000
0000
1000
0000
,  // measure 23
0000
0000
0200
0000
,  // measure 24
0320
0031
0000
0000
,  // measure 25
0000
0000
1000
0000
0000
1000
0000
0000
,  // measure 26
1000
0000
0000
1000
0000
0000
1000
0000
,  // measure 27
0000
0001
0000
1000
,  // measure 28
0020
0130
0000
0000
,  // measure 29
0000
0000
0001
0000
0000
0001
0000
0000
,  // measure 30
2000
0000
0000
3200
,  // measure 31
0300
0000
0000
0000
,  // measure 32
0020
0031
0000
1000
,  // measure 33
0000
0000
1000
0000
0000
1000
0000
0000
,  // measure 34
1000
0000
0000
1000
0000
0000
0010
0000
,  // measure 35
0000
0100
0000
0100
,  // measure 36
0002
1003
0000
0000
,  // measure 37
0000
0000
0100
0000
0000
0100
0000
0000
,  // measure 38
0100
0000
0000
0000
,  // measure 39
0000
0000
0000
0000
,  // measure 40
1000
0000
0010
0000
,  // measure 41
0100
0000
0010
0000
,  // measure 42
1000
0000
0001
0000
,  // measure 43
0010
0000
0001
0000
,  // measure 44
1000
0000
0010
0000
,  // measure 45
0100
0000
0001
0000
,  // measure 46
1000
0000
0100
0000
,  // measure 47
0010
0000
0001
0000
,  // measure 48
1000
1000
1000
1000
,  // measure 49
0100
0100
0100
0100
,  // measure 50
0010
0010
0010
0010
,  // measure 51
0001
0001
0001
0001
,  // measure 52
1000
0010
1000
0010
,  // measure 53
0100
0001
0100
0001
,  // measure 54
1000
0001
1000
0000
,  // measure 55
0000
0000
0000
2000
,  // measure 56
3001
1000
0100
0100
,  // measure 57
0010
0000
0000
0010
0000
0000
0010
0000
,  // measure 58
0000
0010
0000
0000
0010
0000
0000
0000
,  // measure 59
0100
0000
1000
0002
,  // measure 60
0103
0010
1000
1000
,  // measure 61
0001
0000
0000
0001
0000
0000
0020
0000
,  // measure 62
0000
0000
0000
0230
,  // measure 63
0000
0000
0000
2300
,  // measure 64
3001
0000
0000
0000
;

//---------------dance-single - Feraligatr----------------
#NOTES:
     dance-single:
     :
     Beginner:
     1:
     0.071429,0.104918,0.008197,0.049180,0.000000,54.000000,1.000000,6.000000,0.000000,0.000000,0.000000,0.071429,0.104918,0.008197,0.049180,0.000000,54.000000,1.000000,6.000000,0.000000,0.000000,0.000000:
// measure 0
0000
0000
0000
0000
,  // measure 1
0000
0000
0000
0000
,  // measure 2
0000
0000
0000
0000
,  // measure 3
0000
0000
0000
0000
,  // measure 4
1000
0000
0000
0000
,  // measure 5
0000
0000
0000
0000
,  // measure 6
0010
0000
0000
0000
,  // measure 7
0000
0000
0000
0000
,  // measure 8
0100
0000
0000
0000
,  // measure 9
0000
0000
0000
0000
,  // measure 10
0001
0000
0000
0000
,  // measure 11
0000
0000
0000
0000
,  // measure 12
1000
0000
0000
0000
,  // measure 13
0000
0000
0000
0000
,  // measure 14
0100
0000
0000
0000
,  // measure 15
0000
0000
0000
0000
,  // measure 16
0010
0000
0001
0000
,  // measure 17
0000
0000
1000
0000
,  // measure 18
0000
0000
0010
0000
,  // measure 19
0000
0000
0100
0000
,  // measure 20
0000
0000
0001
0000
,  // measure 21
0000
0000
1000
0000
,  // measure 22
0200
0000
0000
0000
,  // measure 23
0000
0000
0020
0000
,  // measure 24
0330
0000
0000
0000
,  // measure 25
0000
1000
0000
0000
,  // measure 26
0000
0000
0001
0000
,  // measure 27
0000
0000
0100
0000
,  // measure 28
0000
0000
0000
0000
,  // measure 29
0000
0010
0000
0000
,  // measure 30
2000
0000
0000
0000
,  // measure 31
3200
0000
0000
0000
,  // measure 32
0300
0000
1000
0000
,  // measure 33
0000
0000
0001
0000
,  // measure 34
0000
0000
0100
0000
,  // measure 35
0000
0000
0010
0000
,  // measure 36
0000
0000
0000
0000
,  // measure 37
0000
0000
1000
0000
,  // measure 38
1001
0000
0000
0000
,  // measure 39
0000
0000
0000
0000
,  // measure 40
1000
0000
0000
0000
,  // measure 41
0100
0000
0000
0000
,  // measure 42
0010
0000
0000
0000
,  // measure 43
0100
0000
0000
0000
,  // measure 44
1000
0000
0000
0000
,  // measure 45
0001
0000
0000
0000
,  // measure 46
0100
0000
0000
0000
,  // measure 47
0010
0000
0000
0000
,  // measure 48
1000
0000
0000
0000
,  // measure 49
0001
0000
0000
0000
,  // measure 50
0010
0000
0000
0000
,  // measure 51
0100
0000
0000
0000
,  // measure 52
1000
0000
0000
0000
,  // measure 53
0001
0000
0000
0000
,  // measure 54
0100
0000
0010
0000
,  // measure 55
0000
0000
0000
1000
,  // measure 56
0000
0001
0000
0000
,  // measure 57
0010
0000
0000
0010
,  // measure 58
0000
0000
0010
0000
,  // measure 59
0000
0000
0000
0100
,  // measure 60
0000
0000
0000
0000
,  // measure 61
0010
0000
0000
2000
,  // measure 62
0000
0000
0000
3002
,  // measure 63
0000
0000
0000
0013
,  // measure 64
0100
0000
0000
0000
;
